osu file format v14

[General]
AudioFilename: audio.mp3
AudioLeadIn: 0
PreviewTime: 49555
Countdown: 0
SampleSet: Normal
StackLeniency: 0.7
Mode: 0
LetterboxInBreaks: 0
WidescreenStoryboard: 0

[Editor]
Bookmarks: 22680
DistanceSpacing: 1.8
BeatDivisor: 4
GridSize: 16
TimelineZoom: 1

[Metadata]
Title:Sorekara
TitleUnicode:Sorekara
Artist:noVaTion
ArtistUnicode:noVaTion
Creator:Sensokaku
Version:Hard
Source:
Tags:Tho Ging japanese miku pop
BeatmapID:2116410
BeatmapSetID:1011121

[Difficulty]
HPDrainRate:3.5
CircleSize:3.8
OverallDifficulty:5.5
ApproachRate:8
SliderMultiplier:1.6
SliderTickRate:1

[Events]
//Background and Video events
0,0,"__hatsune_miku_vocaloid_drawn_by_cloel__6163e9d944aa7ba572f23a7aa9c09da1.png",0,0
//Break Periods
//Storyboard Layer 0 (Background)
//Storyboard Layer 1 (Fail)
//Storyboard Layer 2 (Pass)
//Storyboard Layer 3 (Foreground)
//Storyboard Layer 4 (Overlay)
//Storyboard Sound Samples

[TimingPoints]
2680,625,4,1,0,100,1,0
25180,-166.666666666667,4,1,0,100,0,0
27367,-100,4,1,0,100,0,0
30180,-166.666666666667,4,1,0,100,0,0
32992,-100,4,1,0,100,0,0
35180,-166.666666666667,4,1,0,100,0,0
42680,-100,4,1,0,100,0,0
49867,-100,4,1,0,100,0,1
69867,-100,4,1,0,100,0,0

[Colours]
Combo1 : 0,128,192
Combo2 : 0,128,255

[HitObjects]
378,88,22992,5,4,0:0:0:0:
392,156,23148,1,4,0:0:0:0:
408,224,23305,1,2,0:0:0:0:
187,308,23617,1,0,0:0:0:0:
187,308,23773,2,0,L|157:265,1,40
154,235,24086,1,0,0:0:0:0:
154,235,24242,2,0,L|203:203,1,40
221,188,24555,1,0,0:0:0:0:
221,188,24711,2,0,L|262:156,1,40
289,143,25023,1,0,0:0:0:0:
333,141,25180,2,0,P|368:176|376:222,3,95.9999970703126,0|2|0|2,0:0|0:0|0:0|0:0,0:0:0:0:
97,106,27367,5,4,0:0:0:0:
116,174,27523,1,4,0:0:0:0:
140,241,27680,1,2,0:0:0:0:
412,297,27992,5,0,0:0:0:0:
378,235,28148,1,0,0:0:0:0:
342,175,28305,1,0,0:0:0:0:
297,60,28617,1,0,0:0:0:0:
251,84,28773,1,0,0:0:0:0:
144,94,29086,5,0,0:0:0:0:
73,186,29398,1,0,0:0:0:0:
73,186,29555,2,0,L|76:260,1,40
93,270,29867,1,0,0:0:0:0:
137,292,30023,1,0,0:0:0:0:
181,294,30180,2,0,P|204:248|207:207,3,71.9999978027344,0|2|0|2,0:0|0:0|0:0|0:0,0:0:0:0:
256,192,31742,12,0,32680,0:0:0:0:
411,113,32992,5,4,0:0:0:0:
354,155,33148,1,4,0:0:0:0:
302,197,33305,1,2,0:0:0:0:
359,280,33617,1,0,0:0:0:0:
308,322,33773,1,0,0:0:0:0:
173,333,34086,1,0,0:0:0:0:
173,333,34398,1,0,0:0:0:0:
251,252,34711,6,0,L|220:195,1,40
201,153,35023,1,0,0:0:0:0:
170,90,35180,2,0,P|109:76|74:83,3,95.9999970703126,0|2|0|2,0:0|0:0|0:0|0:0,0:0:0:0:
41,180,37367,2,0,P|68:206|176:224,2,143.999995605469,0|2|0,0:0|0:0|0:0,0:0:0:0:
129,121,39555,1,2,0:0:0:0:
219,50,39867,2,0,P|240:95|209:194,2,143.999995605469,0|2|0,0:0|0:0|0:0,0:0:0:0:
219,50,42055,1,2,0:0:0:0:
65,267,42680,6,0,P|113:318|205:319,2,160,4|0|0,0:0|0:0|0:0,0:0:0:0:
97,150,44555,2,0,P|174:162|249:243,2,160,0|4|0,0:0|0:0|0:0,0:0:0:0:
255,278,46430,2,0,P|344:196|351:163,2,160,0|4|0,0:0|0:0|0:0,0:0:0:0:
222,185,48305,2,0,P|167:92|163:31,2,160,0|4|0,0:0|0:0|0:0,0:0:0:0:
352,303,49867,5,8,0:0:0:0:
394,222,50023,1,8,0:0:0:0:
362,138,50180,1,8,0:0:0:0:
239,303,50492,5,8,0:0:0:0:
281,222,50648,1,8,0:0:0:0:
249,138,50805,1,8,0:0:0:0:
139,302,51117,5,8,0:0:0:0:
101,221,51273,1,8,0:0:0:0:
139,137,51430,1,8,0:0:0:0:
241,73,51742,2,0,P|282:70|349:69,2,80
241,73,52680,1,2,0:0:0:0:
411,311,53305,6,0,P|355:316|308:310,1,80
215,288,53773,1,0,0:0:0:0:
130,231,53930,1,0,0:0:0:0:
147,120,54242,1,0,0:0:0:0:
191,68,54555,1,0,0:0:0:0:
294,133,54867,1,0,0:0:0:0:
366,194,55023,1,0,0:0:0:0:
336,281,55180,1,2,0:0:0:0:
435,91,55805,6,0,P|368:86|328:90,1,80
388,229,56430,2,0,P|330:229|275:219,1,80
274,90,57055,2,0,P|234:87|180:90,1,80
86,120,57680,2,0,P|112:205|151:270,3,160,0|2|0|2,0:0|0:0|0:0|0:0,0:0:0:0:
69,314,60180,5,8,0:0:0:0:
137,100,60492,5,8,0:0:0:0:
259,105,60648,1,8,0:0:0:0:
218,223,60805,1,8,0:0:0:0:
218,223,61117,5,8,0:0:0:0:
259,105,61273,1,8,0:0:0:0:
137,100,61430,1,8,0:0:0:0:
31,149,61742,2,0,P|38:216|52:238,2,80
31,149,62680,1,2,0:0:0:0:
243,36,63305,6,0,P|179:50|139:65,1,80
97,137,63773,1,0,0:0:0:0:
74,229,63930,1,0,0:0:0:0:
183,312,64242,1,0,0:0:0:0:
238,266,64555,1,0,0:0:0:0:
289,220,64867,1,0,0:0:0:0:
297,157,65180,1,2,0:0:0:0:
323,95,65492,5,4,0:0:0:0:
444,56,65648,1,4,0:0:0:0:
426,178,65805,1,2,0:0:0:0:
429,293,66117,2,0,L|341:287,1,80
204,298,66742,1,0,0:0:0:0:
123,169,67055,1,0,0:0:0:0:
192,36,67367,1,0,0:0:0:0:
313,59,67680,2,0,L|339:207,2,120,0|2|0,0:0|0:0|0:0,0:0:0:0:
256,192,68773,12,0,70805,0:0:0:0:
