osu file format v14

[General]
AudioFilename: nmk - sola.mp3
AudioLeadIn: 0
PreviewTime: 87442
Countdown: 0
SampleSet: Soft
StackLeniency: 0.7
Mode: 0
LetterboxInBreaks: 0
WidescreenStoryboard: 0

[Editor]
Bookmarks: 11135,18519,23442,27596,33289,43135,52365,60365,65289,75135,87442,97289,107135,114519,116981,126827,136673
DistanceSpacing: 0.37
BeatDivisor: 4
GridSize: 32
TimelineZoom: 1.3

[Metadata]
Title:sola
TitleUnicode:sola
Artist:nmk
ArtistUnicode:nmk
Creator:Yales
Version:Unfading Nightmares
Source:BMS
Tags:Touhou 東方音弾遊戯6 taketori hishou 竹取飛翔 ~ Lunatic Princess Veridian PolkaMocha
BeatmapID:922638
BeatmapSetID:427407

[Difficulty]
HPDrainRate:6.3
CircleSize:4
OverallDifficulty:9
ApproachRate:9.3
SliderMultiplier:1.8
SliderTickRate:1

[Events]
//Background and Video events
0,0,"bg.jpg",0,0
//Break Periods
//Storyboard Layer 0 (Background)
//Storyboard Layer 1 (Fail)
//Storyboard Layer 2 (Pass)
//Storyboard Layer 3 (Foreground)
//Storyboard Sound Samples

[TimingPoints]
1289,307.692307692308,4,2,2,15,1,0
1289,-200,4,2,2,15,0,0
11135,-133.333333333333,4,2,2,25,0,0
20365,-133.333333333333,4,2,2,45,0,0
20981,-133.333333333333,4,2,2,25,0,0
22827,-100,4,2,2,25,0,0
23135,-66.6666666666667,4,1,3,40,0,0
23365,-66.6666666666667,4,1,3,40,0,0
23442,-100,4,1,3,60,0,1
23519,-100,4,2,2,60,0,0
41904,-100,4,1,2,60,0,0
42981,-100,4,2,2,60,0,0
43135,-100,4,2,2,60,0,0
61596,-100,4,1,2,60,0,0
65289,-100,4,1,3,60,0,1
65365,-100,4,2,2,60,0,0
75135,-100,4,2,2,60,0,1
75212,-100,4,2,2,60,0,0
87442,-100,4,1,3,60,0,1
87519,-100,4,2,2,60,0,1
96058,-100,4,1,2,60,0,0
96673,-100,4,2,2,60,0,0
97289,-100,4,2,2,60,0,1
100904,-100,4,2,2,60,0,0
100981,-100,4,2,2,60,0,1
105904,-100,4,2,2,60,0,0
107135,-66.6666666666667,4,2,2,60,0,1
108058,-100,4,2,2,60,0,0
110827,-100,4,2,2,60,0,1
111981,-100,4,2,2,60,0,0
112058,-66.6666666666667,4,2,2,60,0,1
112981,-100,4,2,2,60,0,0
116981,-100,4,1,3,60,0,1
117058,-100,4,2,2,60,0,0
126827,-100,4,1,3,60,0,1
126904,-100,4,2,2,60,0,0
131750,-100,4,2,2,60,0,1
136596,-100,4,2,2,60,0,0
136673,-100,4,1,3,60,0,1
136750,-100,4,1,3,60,0,0

[Colours]
Combo1 : 130,165,191
Combo2 : 255,70,70
Combo3 : 128,128,192
Combo4 : 199,113,208

[HitObjects]
200,64,1289,6,0,L|208:112,1,45,2|0,0:0|0:0,0:0:0:0:
68,96,1596,2,0,L|60:144,1,45,0|2,0:0|0:0,0:0:0:0:
88,169,2058,5,2,0:0:0:0:
36,233,2212,1,0,0:0:0:0:
56,312,2365,1,0,0:0:0:0:
132,340,2519,2,0,P|192:336|232:308,1,90,2|0,0:0|0:0,0:0:0:0:
292,280,2981,6,0,L|304:328,1,45,2|0,0:0|0:0,0:0:0:0:
336,192,3442,1,2,0:0:0:0:
423,328,3750,5,2,1:2:0:0:
488,180,4058,1,2,0:0:0:0:
423,328,4365,2,0,P|363:320|327:332,1,90,2|0,1:2|0:0,0:0:0:0:
336,328,4981,5,2,1:2:0:0:
304,180,5135,1,0,0:0:0:0:
272,28,5289,1,2,1:2:0:0:
364,92,5443,5,0,0:0:0:0:
304,180,5596,1,0,1:0:0:0:
244,268,5751,1,0,0:0:0:0:
396,240,5904,1,2,1:2:0:0:
216,152,6058,1,0,0:0:0:0:
164,312,6212,6,0,B|96:328|96:280|16:320,1,135,4|0,1:0|0:0,0:0:0:0:
32,312,6981,1,2,0:0:0:0:
152,236,7135,2,0,P|184:236|208:244,1,45,0|2,0:0|0:0,0:0:0:0:
268,324,7442,6,0,L|284:176,1,135,4|0,1:0|0:0,0:0:0:0:
296,112,8058,1,2,0:0:0:0:
296,112,8365,5,0,0:0:0:0:
356,272,8519,1,6,1:2:0:0:
368,276,9442,6,0,L|420:268,1,45,2|2,0:0|1:2,0:0:0:0:
436,244,9904,5,2,0:0:0:0:
300,8,10135,1,0,0:0:0:0:
268,236,10365,6,0,P|336:192|352:128,1,135,0|2,0:0|0:0,0:0:0:0:
360,64,10981,1,0,0:0:0:0:
239,65,11135,6,0,L|250:152,1,67.5000025749208,4|0,0:0|0:0,0:0:0:0:
168,208,11442,1,2,0:0:0:0:
148,32,11596,1,2,0:0:0:0:
40,128,11750,2,0,P|88:128|124:120,1,67.5000025749208,8|0,0:0|0:0,0:0:0:0:
239,65,12058,1,2,0:0:0:0:
232,56,12365,6,0,P|280:56|316:64,1,67.5000025749208,6|0,0:0|0:0,0:0:0:0:
448,152,12673,1,2,0:0:0:0:
256,140,12827,1,2,0:0:0:0:
480,60,12981,2,0,P|432:60|396:68,1,67.5000025749208,8|0,0:0|0:0,0:0:0:0:
336,256,13289,1,2,0:0:0:0:
344,264,13596,6,0,P|364:204|352:112,1,135.000005149842,6|2,0:0|0:0,0:0:0:0:
299,59,14058,1,0,0:0:0:0:
211,345,14212,2,0,P|191:285|203:193,1,135.000005149842,6|2,0:0|0:0,0:0:0:0:
256,140,14674,1,0,0:0:0:0:
292,372,14827,6,0,P|300:328|300:292,1,67.5000025749208,6|0,0:0|0:0,0:0:0:0:
92,284,15135,2,0,P|84:240|84:204,1,67.5000025749208,6|0,0:0|0:0,0:0:0:0:
404,296,15442,2,0,P|402:262|395:229,1,67.5000025749208,6|0,0:0|0:0,0:0:0:0:
188,344,15750,2,0,P|189:310|196:277,1,67.5000025749208,6|0,0:0|0:0,0:0:0:0:
376,76,16058,6,0,P|324:80|240:148,1,135.000005149842,4|2,0:0|0:0,0:0:0:0:
224,200,16519,1,2,0:0:0:0:
112,92,16673,2,0,P|144:100|180:128,1,67.5000025749208,8|0,0:0|0:0,0:0:0:0:
372,172,16981,2,0,P|339:181|311:199,1,67.5000025749208,2|8,0:0|0:0,0:0:0:0:
209,334,17289,6,0,L|225:182,1,135.000005149842,4|2,0:0|0:0,0:0:0:0:
272,0,17750,1,0,0:0:0:0:
209,65,17904,2,0,L|225:217,1,135.000005149842,8|0,0:0|0:0,0:0:0:0:
296,300,18365,1,0,0:0:0:0:
59,307,18519,6,0,P|47:294|39:279,3,33.7500012874604,12|0|0|0,0:0|0:0|0:0|0:0,0:0:0:0:
123,227,18827,2,0,P|116:211|113:194,3,33.7500012874604,2|0|0|0,0:0|0:0|0:0|0:0,0:0:0:0:
223,199,19135,2,0,P|222:182|225:165,3,33.7500012874604,8|0|0|0,0:0|0:0|0:0|0:0,0:0:0:0:
327,227,19442,2,0,P|332:211|340:196,3,33.7500012874604,2|0|0|0,0:0|0:0|0:0|0:0,0:0:0:0:
439,191,19750,5,8,0:0:0:0:
431,151,19827,1,0,0:0:0:0:
403,119,19904,1,0,0:0:0:0:
367,103,19981,1,0,0:0:0:0:
327,103,20058,1,2,0:0:0:0:
287,111,20135,1,2,0:0:0:0:
247,123,20212,1,2,0:0:0:0:
231,111,20289,1,2,0:0:0:0:
215,99,20365,6,0,L|187:59,1,33.7500012874604,8|0,0:0|0:0,0:0:0:0:
195,183,20519,1,0,0:0:0:0:
179,171,20596,1,0,0:0:0:0:
163,159,20673,6,0,L|135:119,1,33.7500012874604,8|0,0:0|0:0,0:0:0:0:
139,239,20827,1,0,0:0:0:0:
123,227,20904,1,0,0:0:0:0:
107,215,20981,6,0,L|79:175,14,33.7500012874604,12|0|0|0|0|0|0|0|0|0|0|0|0|0|0,0:0|0:0|0:0|0:0|0:0|0:0|0:0|0:0|0:0|0:0|0:0|0:0|0:0|0:0|0:0,0:0:0:0:
32,56,22212,6,0,L|40:8,2,33.7500012874604
5,191,22519,6,0,L|9:251,1,33.7500012874604
33,295,22673,2,0,L|37:235,1,33.7500012874604
85,143,22827,2,0,L|89:207,1,45
161,311,22981,2,0,L|165:247,1,45,8|0,0:0|0:0,0:0:0:0:
232,124,23135,22,0,P|324:88|420:156,1,202.500007724762,2|0,0:0|2:0,0:0:0:0:
411,225,23442,6,0,L|409:120,1,90,2|0,0:0|0:0,0:0:0:0:
230,34,23750,2,0,L|232:139,1,90,8|0,0:0|0:0,0:0:0:0:
276,240,24058,1,0,0:0:0:0:
103,135,24212,1,2,0:0:0:0:
288,220,24365,1,8,0:0:0:0:
104,292,24519,1,0,0:0:0:0:
104,292,24596,1,2,0:0:0:0:
104,292,24673,5,4,0:1:0:0:
172,176,24827,1,2,0:0:0:0:
216,260,24981,2,0,P|217:303|196:364,1,90,8|0,0:0|0:0,0:0:0:0:
204,347,25212,1,0,0:0:0:0:
204,347,25289,1,0,0:0:0:0:
104,292,25442,1,2,0:0:0:0:
296,360,25596,2,0,P|348:352|396:328,1,90,8|0,0:0|0:0,0:0:0:0:
381,337,25827,1,0,0:0:0:0:
381,337,25904,5,4,0:1:0:0:
456,260,26058,1,2,0:0:0:0:
272,168,26212,2,0,L|284:264,1,90,8|0,0:0|0:0,0:0:0:0:
148,220,26519,1,0,0:0:0:0:
268,132,26673,1,2,0:0:0:0:
16,160,26827,1,2,1:0:0:0:
204,40,26981,6,0,L|264:32,2,45,2|2|4,1:0|0:0|0:1,0:0:0:0:
52,84,27289,1,2,0:0:0:0:
160,148,27442,1,8,0:0:0:0:
76,212,27596,5,0,0:0:0:0:
72,228,27673,1,0,0:0:0:0:
68,244,27750,2,0,P|67:275|72:312,1,45,2|0,0:3|0:0,0:0:0:0:
176,276,27904,2,0,P|171:304|172:344,1,45
316,208,28058,6,0,P|318:240|326:276,1,45,2|0,0:3|0:0,0:0:0:0:
427,231,28212,2,0,P|425:262|429:299,1,45
484,336,28365,5,4,2:1:0:0:
264,312,28519,1,2,0:0:0:0:
368,328,28673,5,8,0:0:0:0:
148,352,28827,1,0,0:0:0:0:
264,312,28981,5,0,0:0:0:0:
44,288,29135,1,2,0:0:0:0:
168,152,29289,2,0,L|156:280,1,90,8|0,0:0|0:0,0:0:0:0:
159,241,29519,1,2,0:0:0:0:
159,241,29596,5,4,0:1:0:0:
92,104,29750,1,2,0:0:0:0:
272,216,29904,2,0,P|323:221|384:212,1,90,8|0,0:0|0:0,0:0:0:0:
361,217,30135,1,0,0:0:0:0:
361,217,30212,1,0,0:0:0:0:
420,148,30365,1,2,0:0:0:0:
396,320,30519,1,8,0:0:0:0:
496,172,30673,6,0,P|496:128|491:107,2,45,0|0|4,0:0|0:0|0:1,0:0:0:0:
396,320,30981,1,2,0:0:0:0:
336,152,31135,1,8,0:0:0:0:
460,244,31289,1,0,0:0:0:0:
460,244,31365,1,0,0:0:0:0:
460,244,31442,2,0,P|408:228|348:232,1,90,0|2,0:0|0:0,0:0:0:0:
200,248,31750,1,2,1:0:0:0:
32,296,31904,6,0,P|28:256|28:232,1,45,2|2,1:0|0:0,0:0:0:0:
28,152,32058,1,4,1:0:0:0:
40,304,32212,6,0,P|57:267|69:247,1,45,2|2,0:0|0:0,0:0:0:0:
110,178,32366,1,6,1:0:0:0:
52,312,32519,6,0,P|85:289|106:277,1,45
200,248,32673,6,0,P|240:244|264:248,1,45,2|0,1:0|0:0,0:0:0:0:
356,260,32827,6,0,P|396:272|416:288,1,45,2|0,0:0|0:0,0:0:0:0:
512,356,32981,6,0,P|496:339|477:328,1,45,2|0,1:0|0:0,0:0:0:0:
280,272,33135,6,0,P|257:271|235:275,1,45,2|0,0:0|0:0,0:0:0:0:
48,356,33289,5,6,1:2:0:0:
192,168,33442,1,2,0:0:0:0:
132,344,33596,5,8,0:0:0:0:
120,104,33750,1,0,0:0:0:0:
340,192,33904,2,0,P|388:184|428:156,1,90,0|2,0:0|0:0,0:0:0:0:
468,80,34212,1,8,0:0:0:0:
280,16,34365,1,0,0:0:0:0:
272,32,34442,1,2,0:0:0:0:
264,48,34519,6,0,L|276:156,1,90,4|2,0:1|0:0,0:0:0:0:
292,260,34827,1,8,0:0:0:0:
192,168,34981,1,0,0:0:0:0:
192,168,35058,1,0,0:0:0:0:
192,168,35135,2,0,L|184:112,1,45
172,48,35289,1,2,0:0:0:0:
208,264,35442,1,8,0:0:0:0:
92,168,35596,1,0,0:0:0:0:
92,168,35673,1,0,0:0:0:0:
92,168,35750,6,0,L|-24:184,1,90,4|2,0:1|0:0,0:0:0:0:
8,296,36058,1,8,0:0:0:0:
208,264,36212,1,0,0:0:0:0:
208,264,36289,1,0,0:0:0:0:
208,264,36365,2,0,P|208:240|204:204,1,45
185,123,36519,1,2,0:0:0:0:
104,248,36673,1,2,1:0:0:0:
396,200,36827,6,0,L|452:192,2,45,2|2|4,1:0|0:0|0:1,0:0:0:0:
304,264,37135,1,0,0:0:0:0:
206,219,37289,1,8,0:0:0:0:
104,248,37442,5,0,0:0:0:0:
88,260,37519,1,0,0:0:0:0:
72,268,37596,2,0,L|16:260,1,45,2|0,0:3|0:0,0:0:0:0:
132,336,37750,2,0,L|188:328,1,45,2|0,0:0|0:0,0:0:0:0:
304,264,37904,2,0,L|360:256,1,45,2|0,0:3|0:0,0:0:0:0:
252,336,38058,2,0,L|196:328,1,45,2|0,0:0|0:0,0:0:0:0:
104,248,38212,6,0,P|100:204|104:152,1,90,4|2,0:1|0:0,0:0:0:0:
108,140,38442,1,0,0:0:0:0:
116,124,38519,1,8,0:0:0:0:
288,60,38673,1,0,0:0:0:0:
252,240,38827,1,0,0:0:0:0:
128,112,38981,5,2,0:0:0:0:
304,76,39135,1,8,0:0:0:0:
238,245,39289,2,0,L|194:297,2,45,0|2|4,0:0|0:0|0:1,0:0:0:0:
324,176,39596,5,2,0:0:0:0:
448,236,39750,1,8,0:0:0:0:
360,280,39904,1,0,0:0:0:0:
352,264,39981,1,0,0:0:0:0:
356,248,40058,1,8,0:0:0:0:
444,128,40212,1,2,0:0:0:0:
452,144,40289,1,0,0:0:0:0:
448,160,40366,1,8,0:0:0:0:
344,84,40519,1,2,0:0:0:0:
336,68,40596,1,0,0:0:0:0:
340,52,40673,5,4,0:1:0:0:
440,48,40827,1,2,0:0:0:0:
268,116,40981,2,0,P|224:120|168:104,1,90,8|0,0:0|0:0,0:0:0:0:
160,80,41212,1,0,0:0:0:0:
160,80,41289,1,0,0:0:0:0:
272,4,41442,1,2,0:0:0:0:
344,180,41596,2,0,P|388:184|444:168,1,90,8|0,0:0|0:0,0:0:0:0:
452,144,41827,1,2,0:0:0:0:
452,144,41904,5,4,0:0:0:0:
420,48,42058,2,0,L|404:0,2,45,0|0|8,0:0|0:0|0:0,0:0:0:0:
496,224,42365,1,0,0:0:0:0:
348,100,42519,6,0,L|308:64,1,45,8|0,0:0|0:0,0:0:0:0:
256,16,42673,1,4,0:0:0:0:
264,160,42827,1,0,0:0:0:0:
180,76,42981,1,0,0:0:0:0:
180,76,43058,1,0,0:0:0:0:
180,76,43135,6,0,P|132:72|88:84,1,90,4|2,1:0|0:0,0:0:0:0:
48,160,43442,1,8,0:0:0:0:
72,248,43596,1,2,0:0:0:0:
153,286,43750,1,0,0:0:0:0:
167,277,43904,1,2,0:0:0:0:
140,194,44058,1,8,0:0:0:0:
136,178,44212,2,0,P|136:152|144:114,1,45,0|2,0:0|0:0,0:0:0:0:
248,64,44365,5,4,1:0:0:0:
322,12,44519,1,2,0:0:0:0:
405,44,44673,1,8,0:0:0:0:
432,130,44827,1,0,0:0:0:0:
376,200,44981,1,0,0:0:0:0:
380,216,45135,1,2,0:0:0:0:
444,328,45289,1,8,0:0:0:0:
448,312,45442,2,0,P|448:289|445:267,1,45,0|2,0:0|0:0,0:0:0:0:
280,240,45596,6,0,P|220:240|172:256,1,90,4|2,1:1|0:0,0:0:0:0:
84,282,45904,1,8,0:0:0:0:
138,339,46058,2,0,L|130:383,2,45
120,195,46365,1,2,0:0:0:0:
102,51,46519,1,2,1:0:0:0:
35,161,46673,6,0,L|27:205,2,45,2|2|4,1:0|0:0|0:1,0:0:0:0:
191,247,46981,1,2,0:0:0:0:
275,215,47135,1,8,0:0:0:0:
311,135,47289,5,0,0:0:0:0:
307,119,47365,1,0,0:0:0:0:
303,103,47442,2,0,L|295:43,1,45,2|0,0:3|0:0,0:0:0:0:
400,168,47596,2,0,L|408:108,1,45
288,180,47750,2,0,L|280:120,1,45,2|0,0:3|0:0,0:0:0:0:
385,245,47904,2,0,L|393:185,1,45
252,288,48058,6,0,P|204:288|144:272,1,90,4|2,1:1|0:0,0:0:0:0:
108,208,48365,1,8,0:0:0:0:
104,192,48519,1,0,0:0:0:0:
176,96,48673,1,0,0:0:0:0:
172,112,48827,1,2,0:0:0:0:
64,88,48981,1,8,0:0:0:0:
188,204,49135,1,0,0:0:0:0:
188,204,49212,1,2,0:0:0:0:
188,204,49289,6,0,P|236:196|280:172,1,90,4|2,1:1|0:0,0:0:0:0:
336,112,49596,1,8,0:0:0:0:
344,96,49750,1,0,0:0:0:0:
424,132,49904,1,0,0:0:0:0:
432,148,50058,1,2,0:0:0:0:
480,32,50212,1,8,0:0:0:0:
488,16,50365,1,0,0:0:0:0:
364,184,50519,6,0,L|372:280,1,90,4|2,1:0|0:0,0:0:0:0:
380,364,50827,1,8,0:0:0:0:
383,381,50981,1,0,0:0:0:0:
284,300,51135,1,0,0:0:0:0:
281,283,51289,1,2,0:0:0:0:
188,384,51442,1,2,1:0:0:0:
44,264,51596,6,0,L|-4:260,2,45,2|0|4,1:0|0:0|0:1,0:0:0:0:
168,212,51904,1,2,0:0:0:0:
52,148,52058,1,8,0:0:0:0:
152,96,52212,5,2,0:0:0:0:
148,80,52289,1,0,0:0:0:0:
144,64,52365,2,0,L|140:0,1,45,2|0,0:3|0:0,0:0:0:0:
228,60,52519,2,0,L|232:-4,1,45
308,164,52673,6,0,L|304:100,1,45,2|0,0:3|0:0,0:0:0:0:
396,168,52827,2,0,L|400:104,1,45
472,48,52981,5,4,1:0:0:0:
304,68,53135,1,2,0:0:0:0:
484,132,53289,1,8,0:0:0:0:
308,164,53442,1,0,0:0:0:0:
480,216,53596,1,0,0:0:0:0:
288,256,53750,1,2,0:0:0:0:
408,356,53904,2,0,L|404:244,1,90,8|0,0:0|0:0,0:0:0:0:
404,266,54135,1,2,0:0:0:0:
404,266,54212,5,4,1:1:0:0:
480,216,54365,1,2,0:0:0:0:
300,340,54519,2,0,P|252:332|208:300,1,90,8|0,0:0|0:0,0:0:0:0:
184,224,54827,1,0,0:0:0:0:
204,136,54981,1,2,0:0:0:0:
288,108,55135,1,8,0:0:0:0:
372,144,55289,1,0,0:0:0:0:
300,224,55442,5,4,1:0:0:0:
120,68,55596,1,2,0:0:0:0:
372,144,55750,1,8,0:0:0:0:
128,168,55904,1,0,0:0:0:0:
128,168,55981,1,0,0:0:0:0:
128,168,56058,1,0,0:0:0:0:
260,20,56212,1,2,0:0:0:0:
232,352,56365,1,2,1:0:0:0:
208,152,56519,6,0,L|220:84,2,45,2|0|4,1:0|0:0|0:1,0:0:0:0:
280,216,56827,1,2,0:0:0:0:
196,72,56981,1,8,0:0:0:0:
344,112,57135,5,0,0:0:0:0:
360,108,57212,1,0,0:0:0:0:
376,104,57289,2,0,L|420:92,1,45,2|0,0:3|0:0,0:0:0:0:
280,216,57442,2,0,L|324:228,1,45,0|0,0:3|0:0,0:0:0:0:
196,72,57596,2,0,L|240:60,1,45,2|0,0:3|0:0,0:0:0:0:
88,176,57750,2,0,L|152:180,1,45
16,96,57904,5,4,1:1:0:0:
156,208,58058,1,2,0:0:0:0:
80,40,58212,1,8,0:0:0:0:
220,152,58366,1,0,0:0:0:0:
164,12,58519,1,0,0:0:0:0:
156,208,58673,1,2,0:0:0:0:
80,40,58827,1,8,0:0:0:0:
66,217,58981,1,0,0:0:0:0:
66,217,59058,1,2,0:0:0:0:
66,217,59135,6,0,L|174:205,1,90,4|2,1:1|0:0,0:0:0:0:
308,165,59442,2,0,L|204:149,1,90,8|0,0:0|0:0,0:0:0:0:
248,240,59750,1,0,0:0:0:0:
276,80,59904,1,2,0:0:0:0:
360,232,60058,2,0,L|464:216,1,90,8|0,0:0|0:0,0:0:0:0:
504,116,60365,5,4,1:1:0:0:
348,312,60519,2,0,L|268:296,1,45,2|2,0:0|0:0,0:0:0:0:
248,240,60673,1,10,0:0:0:0:
456,304,60827,1,2,0:0:0:0:
204,316,60981,2,0,L|92:292,1,90,8|2,0:0|0:0,0:0:0:0:
336,258,61289,2,0,L|224:234,1,90,8|2,0:0|0:0,0:0:0:0:
204,228,61519,1,2,0:0:0:0:
204,228,61596,5,6,0:0:0:0:
348,160,61750,1,0,0:0:0:0:
112,208,61904,1,2,0:0:0:0:
288,104,62058,1,8,0:0:0:0:
168,32,62212,6,0,L|172:136,1,90,6|0,0:0|0:0,0:0:0:0:
171,121,62442,1,0,0:0:0:0:
171,121,62519,1,10,0:0:0:0:
112,208,62673,1,0,0:0:0:0:
288,104,62827,5,12,0:0:0:0:
268,220,62981,2,0,L|256:292,2,45,0|0|8,0:0|0:0|0:0,0:0:0:0:
171,121,63289,5,4,0:0:0:0:
352,185,63442,2,0,L|428:201,2,45,0|0|8,0:0|0:0|0:0,0:0:0:0:
144,224,63750,5,4,0:0:0:0:
308,380,63904,1,0,0:0:0:0:
308,380,63981,1,0,0:0:0:0:
308,380,64058,6,0,L|315:335,1,45,12|0,0:1|0:0,0:0:0:0:
200,340,64212,2,0,L|194:295,1,45,2|0,2:0|0:0,0:0:0:0:
268,220,64365,5,2,2:0:0:0:
271,203,64442,1,0,0:0:0:0:
211,148,64519,5,2,2:0:0:0:
208,131,64596,1,0,0:0:0:0:
280,90,64673,5,8,0:0:0:0:
282,73,64750,1,0,0:0:0:0:
212,34,64827,6,0,L|204:2,4,22.5
292,312,65135,1,10,0:0:0:0:
136,92,65289,6,0,P|56:96|0:184,1,180,6|8,0:0|0:0,0:0:0:0:
8,276,65750,1,0,0:0:0:0:
116,368,65904,2,0,L|104:176,1,180,2|8,0:2|0:0,0:0:0:0:
216,52,66365,1,0,0:0:0:0:
216,52,66442,1,2,0:0:0:0:
216,52,66519,6,0,L|204:244,1,180,4|8,0:1|0:0,0:0:0:0:
192,340,66981,1,2,0:2:0:0:
288,232,67135,2,0,P|340:232|388:256,1,90,2|2,0:2|0:0,0:0:0:0:
408,328,67442,1,8,0:0:0:0:
440,104,67596,1,0,0:0:0:0:
216,52,67750,6,0,P|132:80|56:156,1,180,4|8,1:1|0:0,0:0:0:0:
32,264,68212,1,0,0:0:0:0:
184,224,68365,2,0,P|156:268|138:316,1,90,0|2,1:0|0:0,0:0:0:0:
328,288,68673,2,0,P|336:340|352:388,1,90,8|0,1:2|0:0,0:0:0:0:
404,196,68981,5,4,1:1:0:0:
240,288,69135,1,2,0:0:0:0:
464,308,69289,1,8,0:0:0:0:
308,144,69443,1,0,0:0:0:0:
308,144,69520,1,0,0:0:0:0:
308,144,69596,6,0,L|300:92,1,45,2|0,0:3|0:0,0:0:0:0:
440,48,69750,2,0,L|432:100,1,45
320,236,69904,2,0,L|312:184,1,45,2|0,0:3|0:0,0:0:0:0:
452,140,70058,2,0,L|444:192,1,45
316,344,70212,6,0,B|254:333|254:333|200:348|200:348|136:340,1,180,4|8,1:1|0:0,0:0:0:0:
92,264,70673,1,0,0:0:0:0:
198,44,70827,2,0,B|181:104|181:104|190:159|190:159|175:222,1,180,2|8,0:2|0:0,0:0:0:0:
100,172,71288,1,0,0:0:0:0:
100,172,71365,1,2,0:0:0:0:
100,172,71442,5,4,0:1:0:0:
276,200,71596,2,0,P|328:184|384:148,1,90,2|8,0:0|0:0,0:0:0:0:
424,80,71904,1,0,0:0:0:0:
424,80,72058,1,0,0:0:0:0:
232,32,72212,1,2,0:0:0:0:
232,32,72289,1,0,0:0:0:0:
232,32,72365,2,0,L|240:128,1,90,8|0,0:0|0:0,0:0:0:0:
440,264,72673,6,0,L|448:168,1,90,4|2,1:1|0:0,0:0:0:0:
283,289,72981,2,0,L|275:193,1,90,8|0,0:0|0:0,0:0:0:0:
360,344,73289,1,0,1:0:0:0:
240,196,73442,1,2,0:0:0:0:
440,264,73596,1,8,1:2:0:0:
168,224,73750,1,0,0:0:0:0:
148,224,73827,1,2,0:0:0:0:
132,228,73904,6,0,P|84:248|48:288,1,90,4|8,1:1|0:0,0:0:0:0:
80,364,74212,1,8,1:2:0:0:
240,196,74365,1,2,0:0:0:0:
176,336,74519,1,8,1:2:0:0:
308,260,74673,1,8,0:0:0:0:
324,252,74750,1,0,0:0:0:0:
340,244,74827,6,0,L|400:260,1,45,6|0,1:3|0:0,0:0:0:0:
192,328,74981,2,0,L|235:340,1,45,4|0,1:3|0:0,0:0:0:0:
148,224,75135,5,4,1:1:0:0:
312,160,75289,1,2,0:0:0:0:
320,144,75365,1,0,0:0:0:0:
324,128,75442,2,0,P|320:76|296:28,1,90,8|0,0:0|0:0,0:0:0:0:
220,108,75750,1,0,0:0:0:0:
412,64,75904,1,2,0:0:0:0:
220,108,76058,1,8,0:0:0:0:
400,176,76212,1,0,0:0:0:0:
392,192,76288,1,2,0:0:0:0:
388,208,76365,6,0,P|392:260|416:308,1,90,4|2,0:1|0:0,0:0:0:0:
484,180,76673,1,8,0:0:0:0:
336,344,76827,1,0,0:0:0:0:
488,360,76981,2,0,P|504:318|506:273,1,90,0|2,0:0|0:0,0:0:0:0:
506,273,77212,1,0,0:0:0:0:
506,273,77289,1,8,0:0:0:0:
484,180,77442,1,0,0:0:0:0:
252,300,77596,6,0,B|202:319|163:300|163:300|120:284|74:304,1,180,4|8,1:1|0:0,0:0:0:0:
127,382,78058,1,0,0:0:0:0:
204,224,78212,2,0,P|204:164|196:112,1,90,0|2,0:0|0:0,0:0:0:0:
128,84,78519,1,2,1:0:0:0:
360,156,78673,6,0,L|412:144,2,45,2|0|4,1:0|0:0|0:1,0:0:0:0:
204,224,78981,1,2,0:0:0:0:
340,292,79135,1,8,0:0:0:0:
288,196,79289,5,0,0:0:0:0:
284,180,79365,1,0,0:0:0:0:
280,164,79442,2,0,L|284:100,1,45,2|0,0:3|0:0,0:0:0:0:
188,24,79596,2,0,L|190:68,1,45,2|0,0:0|0:0,0:0:0:0:
316,96,79750,2,0,L|320:32,1,45,2|0,0:3|0:0,0:0:0:0:
168,104,79904,2,0,L|170:148,1,45
264,304,80058,6,0,P|364:276|396:184,1,180,4|8,1:1|0:0,0:0:0:0:
388,124,80519,1,0,0:0:0:0:
92,64,80673,2,0,L|100:260,1,180,2|8,0:0|0:0,0:0:0:0:
3,320,81135,1,0,0:0:0:0:
3,320,81212,1,2,0:0:0:0:
3,320,81289,6,0,P|67:284|171:324,1,180,4|8,0:1|0:0,0:0:0:0:
264,376,81750,1,0,0:0:0:0:
264,376,81827,1,0,0:0:0:0:
264,376,81904,2,0,P|312:380|368:360,1,90,0|2,0:0|0:0,0:0:0:0:
428,292,82212,1,8,1:2:0:0:
240,224,82365,1,0,1:0:0:0:
404,72,82519,6,0,L|400:176,1,90,4|2,1:1|0:0,0:0:0:0:
428,292,82827,1,8,0:0:0:0:
284,132,82981,1,2,0:0:0:0:
428,292,83135,1,8,1:2:0:0:
284,132,83289,2,0,L|288:68,1,45,2|2,0:0|0:0,0:0:0:0:
367,39,83443,1,10,1:2:0:0:
189,135,83596,2,0,L|193:199,1,45,2|0,0:0|0:0,0:0:0:0:
272,228,83750,5,4,1:1:0:0:
88,284,83904,1,8,0:0:0:0:
328,352,84058,1,8,0:0:0:0:
188,312,84212,1,0,0:0:0:0:
188,312,84289,1,0,0:0:0:0:
188,312,84365,2,0,L|192:248,1,45,8|0,1:2|0:0,0:0:0:0:
192,180,84519,1,2,0:0:0:0:
328,352,84673,5,8,1:2:0:0:
440,128,84827,1,8,0:0:0:0:
448,284,84981,6,0,L|452:324,24,30,4|0|0|0|0|0|0|0|0|0|0|0|0|0|0|0|0|0|0|0|0|0|0|0|0,0:0|0:0|0:0|0:0|0:0|0:0|0:0|0:0|0:0|0:0|0:0|0:0|0:0|0:0|0:0|0:0|0:0|0:0|0:0|0:0|0:0|0:0|0:0|0:0|0:0,0:0:0:0:
400,176,86519,6,0,L|396:140,4,22.5
324,244,86827,6,0,L|322:268,6,15
220,140,87135,6,0,L|217:124,8,11.25
156,308,87442,6,0,P|108:300|60:272,1,90,6|0,0:0|0:0,0:0:0:0:
20,204,87750,1,8,0:0:0:0:
16,180,87904,1,0,0:0:0:0:
192,224,88058,2,0,P|240:216|288:188,1,90,2|0,0:2|0:0,0:0:0:0:
328,120,88366,1,8,0:0:0:0:
332,96,88520,1,0,0:0:0:0:
96,28,88673,5,4,1:2:0:0:
104,116,88827,1,2,0:0:0:0:
112,204,88981,1,8,1:2:0:0:
208,108,89135,5,2,0:0:0:0:
8,132,89289,1,2,1:2:0:0:
208,124,89442,1,0,0:0:0:0:
8,120,89596,1,8,1:2:0:0:
212,208,89750,5,0,0:0:0:0:
212,208,89827,1,0,0:0:0:0:
212,208,89904,2,0,P|263:202|320:172,1,90,2|0,0:0|0:0,0:0:0:0:
352,96,90212,1,8,0:0:0:0:
160,136,90365,1,0,0:0:0:0:
160,136,90442,1,0,0:0:0:0:
160,136,90519,2,0,P|108:134|49:109,1,90,2|0,0:2|0:0,0:0:0:0:
10,36,90827,1,8,0:0:0:0:
240,36,90981,6,0,L|244:104,2,45,0|2|4,1:0|0:0|1:0,0:0:0:0:
352,96,91289,1,0,0:0:0:0:
296,196,91442,1,8,0:0:0:0:
392,248,91596,1,2,0:0:0:0:
388,260,91673,1,0,0:0:0:0:
384,272,91750,6,0,L|388:340,1,45,2|0,0:3|0:0,0:0:0:0:
284,208,91904,2,0,L|280:276,1,45,4|0,0:0|0:0,0:0:0:0:
468,172,92058,2,0,L|488:240,1,45,12|0,0:0|0:0,0:0:0:0:
368,108,92212,2,0,L|372:176,1,45,4|0,0:0|0:0,0:0:0:0:
444,56,92365,5,12,1:2:0:0:
236,104,92519,1,0,0:0:0:0:
156,180,92673,2,0,P|112:180|60:160,1,90,8|0,0:0|0:0,0:0:0:0:
24,64,92981,5,2,0:2:0:0:
236,104,93135,1,0,0:0:0:0:
156,188,93289,2,0,P|112:188|60:168,1,90,8|0,0:0|0:0,0:0:0:0:
48,160,93519,1,2,0:0:0:0:
48,160,93596,5,4,1:2:0:0:
156,284,93750,1,2,0:0:0:0:
128,104,93904,1,8,1:2:0:0:
244,232,94058,1,0,0:0:0:0:
292,32,94212,1,0,1:0:0:0:
392,220,94365,1,2,0:0:0:0:
392,72,94519,2,0,P|432:60|496:60,1,90,8|0,1:2|0:0,0:0:0:0:
479,57,94750,1,0,0:0:0:0:
479,57,94827,5,6,0:0:0:0:
308,136,94981,1,0,0:0:0:0:
212,128,95135,2,0,P|167:126|124:113,1,90,10|0,0:0|0:0,0:0:0:0:
124,113,95366,1,0,0:0:0:0:
124,113,95442,1,2,0:0:0:0:
292,32,95596,1,0,0:0:0:0:
276,240,95750,1,10,0:0:0:0:
465,175,95904,1,0,0:0:0:0:
469,182,95981,1,2,0:0:0:0:
473,189,96058,6,0,L|478:120,1,45,4|0,0:0|2:0,0:0:0:0:
359,270,96212,2,0,L|365:201,1,45,0|0,0:0|2:0,0:0:0:0:
308,136,96365,1,0,0:0:0:0:
308,136,96442,1,0,0:0:0:0:
308,136,96519,1,0,0:0:0:0:
308,136,96596,1,0,0:0:0:0:
308,136,96673,6,0,L|314:91,1,45,2|0,0:0|2:0,0:0:0:0:
200,220,96827,6,0,L|206:175,1,45,2|0,0:0|2:0,0:0:0:0:
124,113,96981,6,0,L|130:68,1,45,2|0,0:0|2:0,0:0:0:0:
18,192,97135,6,0,L|24:147,1,45,2|0,0:0|2:0,0:0:0:0:
94,324,97289,6,0,L|109:197,1,90,4|2,1:1|0:0,0:0:0:0:
248,44,97596,2,0,L|258:172,1,90,8|0,0:2|0:0,0:0:0:0:
428,309,97904,2,0,L|440:184,1,90,0|2,0:2|0:0,0:0:0:0:
200,220,98211,2,0,L|210:348,1,90,8|0,0:0|0:0,0:0:0:0:
212,352,98442,1,2,0:0:0:0:
212,352,98519,5,4,0:1:0:0:
260,136,98673,1,2,0:0:0:0:
260,136,98750,1,0,0:0:0:0:
260,136,98827,1,8,0:0:0:0:
88,220,98981,1,0,0:0:0:0:
304,276,99135,1,0,0:0:0:0:
96,352,99289,1,2,0:0:0:0:
304,276,99442,2,0,P|360:276|392:288,1,90,8|0,0:0|0:0,0:0:0:0:
192,300,99750,6,0,P|172:296|144:276,2,45,4|0|2,0:2|0:0|0:0,0:0:0:0:
332,188,100058,1,8,0:0:0:0:
172,196,100212,1,2,0:0:0:0:
160,184,100289,1,2,0:0:0:0:
152,168,100365,1,2,0:0:0:0:
148,152,100442,1,2,0:0:0:0:
148,136,100519,1,2,0:0:0:0:
260,40,100673,1,10,0:0:0:0:
248,52,100750,1,2,0:0:0:0:
240,68,100826,1,2,0:0:0:0:
236,84,100903,1,2,0:0:0:0:
232,100,100981,6,0,P|236:132|248:164,1,45,4|0,0:0|0:0,0:0:0:0:
332,272,101135,2,0,P|354:294|384:312,1,45,2|0,0:0|0:0,0:0:0:0:
203,112,101289,6,0,P|217:140|240:166,1,45,8|0,0:0|0:0,0:0:0:0:
354,241,101443,2,0,P|384:254|417:261,1,45
180,133,101596,6,0,P|203:155|233:172,1,45,2|0,0:3|0:0,0:0:0:0:
365,204,101750,2,0,P|397:207|431:202,1,45,2|0,0:0|0:0,0:0:0:0:
165,161,101904,6,0,P|195:173|229:179,1,45,2|0,0:3|0:0,0:0:0:0:
363,166,102058,2,0,P|394:157|424:141,1,45
440,64,102212,5,4,1:2:0:0:
256,244,102365,1,2,0:0:0:0:
252,260,102442,1,0,0:0:0:0:
252,276,102519,2,0,P|260:324|280:368,1,90,8|0,0:0|0:0,0:0:0:0:
372,368,102827,1,0,0:0:0:0:
207,175,102981,1,2,0:0:0:0:
192,184,103058,1,0,0:0:0:0:
182,197,103135,2,0,P|157:238|144:285,1,90,8|0,0:0|0:0,0:0:0:0:
140,320,103365,1,2,0:0:0:0:
140,320,103442,5,4,0:1:0:0:
236,272,103596,1,2,0:0:0:0:
60,264,103750,1,8,0:0:0:0:
336,244,103904,1,0,0:0:0:0:
96,192,104058,1,0,0:0:0:0:
276,88,104212,1,2,0:0:0:0:
80,64,104365,6,0,L|89:108,1,45,8|0,0:0|0:0,0:0:0:0:
182,197,104519,2,0,L|191:152,1,45
196,56,104673,5,4,0:0:0:0:
220,20,104750,1,0,0:0:0:0:
264,4,104827,1,2,0:0:0:0:
308,12,104904,1,2,0:0:0:0:
348,36,104981,2,0,L|361:104,1,45,8|0,0:0|0:0,0:0:0:0:
336,200,105135,5,2,0:0:0:0:
334,203,105212,1,2,0:0:0:0:
332,207,105289,1,2,0:0:0:0:
331,211,105366,1,0,0:0:0:0:
329,214,105443,1,2,0:0:0:0:
328,218,105519,1,0,0:0:0:0:
313,260,105596,5,8,0:0:0:0:
336,298,105673,1,0,0:0:0:0:
376,317,105750,1,2,0:0:0:0:
420,311,105827,1,2,0:0:0:0:
457,286,105904,6,0,L|464:232,1,45,12|0,0:0|0:0,0:0:0:0:
400,116,106058,2,0,L|408:184,1,45,10|8,0:0|0:0,0:0:0:0:
504,168,106212,1,8,0:0:0:0:
288,180,106365,1,2,0:0:0:0:
288,180,106442,1,0,0:0:0:0:
288,180,106519,6,0,L|284:244,1,45
340,308,106673,1,2,0:0:0:0:
116,176,106827,1,8,0:0:0:0:
188,284,106981,2,0,L|184:220,1,45,0|8,0:0|0:0,0:0:0:0:
360,128,107135,6,0,B|296:164|216:132|216:132|256:56,1,202.500007724762,4|0,1:0|0:0,0:0:0:0:
264,64,107442,1,8,0:0:0:0:
496,200,107596,1,0,0:0:0:0:
360,128,107750,6,0,B|360:54|428:1|428:1|474:73,1,202.500007724762,6|0,1:2|0:0,0:0:0:0:
463,77,108058,1,8,0:0:0:0:
392,216,108212,1,0,0:0:0:0:
392,216,108289,1,2,0:0:0:0:
392,216,108365,6,0,P|336:212|304:196,1,90,4|2,0:1|0:0,0:0:0:0:
306,197,108596,1,0,0:0:0:0:
306,197,108673,1,8,0:0:0:0:
252,112,108827,1,0,0:0:0:0:
336,292,108981,1,0,0:0:0:0:
208,192,109135,1,2,0:0:0:0:
360,128,109289,1,8,0:0:0:0:
240,280,109442,1,0,0:0:0:0:
232,296,109519,1,0,0:0:0:0:
224,312,109596,6,0,L|216:360,2,45,2|0|2,0:0|0:0|0:0,0:0:0:0:
120,212,109904,1,8,0:0:0:0:
336,292,110058,1,0,0:0:0:0:
112,368,110212,1,2,0:0:0:0:
112,136,110365,1,2,0:0:0:0:
120,152,110442,1,0,0:0:0:0:
128,168,110519,2,0,L|120:216,3,45,8|2|2|2,0:0|0:0|0:0|0:0,0:0:0:0:
48,256,110827,5,4,0:0:0:0:
84,284,110904,1,0,0:0:0:0:
128,292,110981,1,2,0:0:0:0:
171,271,111058,1,0,0:0:0:0:
216,208,111135,5,10,0:0:0:0:
260,196,111212,1,0,0:0:0:0:
304,200,111289,1,2,0:0:0:0:
344,220,111365,1,2,0:0:0:0:
380,259,111442,6,0,L|384:319,1,45,8|0,0:0|0:0,0:0:0:0:
174,316,111596,2,0,L|170:256,1,45,2|0,0:0|0:0,0:0:0:0:
364,320,111750,2,0,L|368:380,1,45,8|0,0:0|0:0,0:0:0:0:
158,377,111904,2,0,L|154:317,1,45,2|0,0:0|0:0,0:0:0:0:
462,29,112058,6,0,B|455:249,1,202.500007724762,4|0,1:0|0:0,0:0:0:0:
455,305,112365,1,8,0:0:0:0:
270,121,112519,1,0,0:0:0:0:
364,320,112673,6,0,B|371:117,1,202.500007724762,6|0,1:2|0:0,0:0:0:0:
373,43,112980,1,8,0:0:0:0:
207,200,113135,1,0,0:0:0:0:
197,209,113212,1,2,0:0:0:0:
186,217,113289,6,0,L|88:208,1,90,4|2,0:1|0:0,0:0:0:0:
72,101,113596,1,8,0:0:0:0:
138,298,113750,1,0,0:0:0:0:
270,121,113904,1,2,0:0:0:0:
292,301,114058,2,0,L|281:366,2,45,2|2|8,0:0|0:0|0:0,0:0:0:0:
512,210,114365,1,10,0:0:0:0:
437,168,114519,5,4,0:1:0:0:
433,181,114596,1,2,0:0:0:0:
429,194,114673,1,2,0:0:0:0:
425,207,114750,1,2,0:0:0:0:
424,218,114827,2,0,L|440:314,1,90,8|2,0:0|0:0,0:0:0:0:
452,354,115058,1,0,0:0:0:0:
452,354,115135,5,4,0:1:0:0:
312,208,115289,1,2,0:0:0:0:
216,312,115442,2,0,L|104:324,1,90,0|2,0:0|0:0,0:0:0:0:
96,300,115673,1,0,0:0:0:0:
96,300,115750,5,4,0:0:0:0:
168,184,115904,1,2,0:0:0:0:
168,176,115981,1,2,0:0:0:0:
168,168,116058,2,0,L|148:64,1,90,8|0,0:0|0:0,0:0:0:0:
340,0,116365,5,8,0:0:0:0:
428,44,116519,1,2,0:0:0:0:
476,132,116673,1,8,0:0:0:0:
436,224,116827,1,2,0:0:0:0:
368,140,116981,6,0,P|284:88|196:144,1,180,6|8,0:0|0:0,0:0:0:0:
168,200,117442,1,0,0:0:0:0:
232,352,117596,2,0,B|240:284|240:284|272:244|272:244|288:160,1,180,2|8,0:2|0:0,0:0:0:0:
336,328,118058,1,0,0:0:0:0:
336,328,118135,1,2,0:0:0:0:
336,328,118212,5,2,0:2:0:0:
168,200,118365,1,2,0:0:0:0:
96,268,118519,2,0,P|36:268|4:252,1,90,8|0,0:0|0:0,0:0:0:0:
48,96,118827,1,0,0:0:0:0:
48,96,118904,1,0,0:0:0:0:
48,96,118981,2,0,L|60:32,1,45,2|0,0:0|0:0,0:0:0:0:
92,168,119135,1,8,0:0:0:0:
124,12,119289,1,0,0:0:0:0:
168,200,119442,6,0,P|223:197|284:168,1,90,2|2,1:2|0:0,0:0:0:0:
320,44,119750,1,8,0:0:0:0:
204,88,119904,1,0,0:0:0:0:
424,112,120058,2,0,P|379:145|314:162,1,90,2|2,0:2|0:0,0:0:0:0:
236,8,120365,1,2,1:0:0:0:
88,248,120519,6,0,P|60:248|20:236,2,45,0|0|4,1:0|0:0|1:1,0:0:0:0:
155,170,120827,1,2,0:0:0:0:
296,352,120981,1,8,0:0:0:0:
220,280,121135,1,0,0:0:0:0:
208,292,121212,1,0,0:0:0:0:
192,304,121289,6,0,P|164:308|124:304,1,45,2|0,0:3|0:0,0:0:0:0:
280,120,121442,2,0,P|271:93|268:53,1,45,2|0,0:0|0:0,0:0:0:0:
192,196,121596,6,0,P|167:181|139:152,1,45,2|0,0:3|0:0,0:0:0:0:
384,120,121750,2,0,P|394:93|417:61,1,45
356,288,121904,5,4,1:2:0:0:
148,128,122058,1,2,0:0:0:0:
240,264,122212,1,8,0:0:0:0:
32,104,122365,1,0,0:0:0:0:
16,248,122519,2,0,P|88:232|124:212,1,90,2|2,0:2|0:0,0:0:0:0:
188,52,122827,1,8,0:0:0:0:
344,164,122981,1,0,0:0:0:0:
336,152,123058,1,2,0:0:0:0:
328,140,123135,6,0,P|372:138|416:147,1,90,2|2,0:2|0:0,0:0:0:0:
480,212,123442,1,8,0:0:0:0:
208,216,123596,5,0,0:0:0:0:
220,136,123750,1,0,0:0:0:0:
248,352,123904,5,2,0:0:0:0:
236,344,123981,1,0,0:0:0:0:
224,340,124058,2,0,P|160:336|120:348,1,90,8|0,0:0|0:0,0:0:0:0:
324,316,124365,6,0,P|372:312|436:284,1,90,4|2,1:2|0:0,0:0:0:0:
480,212,124673,1,8,0:0:0:0:
388,44,124827,1,0,0:0:0:0:
220,136,124981,1,0,1:2:0:0:
376,180,125135,5,2,0:0:0:0:
176,260,125289,1,8,1:2:0:0:
284,297,125442,1,0,0:0:0:0:
288,305,125519,1,2,0:0:0:0:
292,313,125596,6,0,L|296:221,1,90,4|2,1:2|0:0,0:0:0:0:
192,64,125904,2,0,L|196:156,1,90,8|2,0:0|0:0,0:0:0:0:
195,153,126135,1,0,0:0:0:0:
195,153,126212,6,0,L|136:148,1,45,2|0,0:3|0:0,0:0:0:0:
272,40,126365,2,0,L|213:35,1,45,2|0,0:0|0:0,0:0:0:0:
68,120,126519,2,0,L|127:125,1,45,2|0,0:3|0:0,0:0:0:0:
296,224,126673,2,0,L|237:219,1,45,2|0,0:0|0:0,0:0:0:0:
40,240,126827,5,2,0:0:0:0:
164,348,126981,1,2,0:0:0:0:
168,332,127058,1,0,0:0:0:0:
172,316,127135,2,0,P|172:268|160:216,1,90,8|0,0:0|0:0,0:0:0:0:
44,344,127442,1,0,0:0:0:0:
251,220,127596,1,2,0:0:0:0:
40,240,127750,1,8,0:0:0:0:
284,304,127904,1,0,0:0:0:0:
300,304,127981,1,2,0:0:0:0:
316,304,128058,6,0,P|360:296|424:292,1,90,2|2,0:2|0:0,0:0:0:0:
504,216,128365,1,8,0:0:0:0:
432,312,128519,1,2,0:0:0:0:
376,208,128673,2,0,P|376:160|384:104,1,90,0|2,0:0|0:0,0:0:0:0:
468,72,128981,1,8,0:0:0:0:
304,16,129135,1,0,0:0:0:0:
304,16,129212,1,0,0:0:0:0:
304,16,129289,5,4,1:0:0:0:
500,0,129442,1,2,0:0:0:0:
300,104,129596,2,0,P|252:100|192:76,1,90,8|0,0:0|0:0,0:0:0:0:
48,32,129904,1,0,1:2:0:0:
192,56,130058,1,2,0:0:0:0:
0,96,130212,1,2,1:0:0:0:
152,312,130365,6,0,L|148:376,2,45,2|2|4,1:0|0:0|0:1,0:0:0:0:
156,148,130673,1,2,0:0:0:0:
292,255,130827,1,8,0:0:0:0:
36,236,130981,5,0,0:0:0:0:
36,236,131058,1,0,0:0:0:0:
36,236,131135,2,0,L|44:167,1,45,2|0,0:3|0:0,0:0:0:0:
220,231,131289,2,0,L|160:238,1,45
52,315,131442,2,0,L|59:247,1,45,2|0,0:3|0:0,0:0:0:0:
292,255,131596,2,0,L|232:263,1,45
144,368,131750,5,4,1:2:0:0:
156,148,131904,1,2,0:0:0:0:
172,344,132058,1,8,0:0:0:0:
180,112,132212,2,0,L|176:56,2,45,0|0|8,0:0|0:0|1:2,0:0:0:0:
16,192,132519,1,2,0:0:0:0:
268,136,132673,2,0,P|312:128|372:136,1,90,8|2,0:0|0:0,0:0:0:0:
356,131,132904,1,2,0:0:0:0:
356,131,132981,5,4,1:2:0:0:
416,244,133135,1,2,0:0:0:0:
416,244,133212,1,2,0:0:0:0:
416,244,133289,1,8,0:0:0:0:
452,68,133442,1,2,1:2:0:0:
488,304,133596,1,8,1:2:0:0:
316,304,133750,5,2,0:0:0:0:
316,304,133827,1,2,0:0:0:0:
316,304,133904,2,0,L|304:184,1,90,8|2,0:0|0:0,0:0:0:0:
216,176,134212,5,4,1:2:0:0:
392,74,134365,1,2,0:0:0:0:
116,136,134519,1,8,1:2:0:0:
444,168,134673,5,2,0:0:0:0:
168,44,134827,1,8,1:2:0:0:
392,74,134981,6,0,L|377:129,1,45,2|2,0:0|0:0,0:0:0:0:
281,220,135134,1,8,1:2:0:0:
268,76,135289,2,0,L|282:131,1,45,2|2,0:0|0:0,0:0:0:0:
379,222,135442,1,8,1:2:0:0:
155,170,135596,5,2,0:0:0:0:
312,328,135750,1,8,0:0:0:0:
216,280,135904,1,2,0:0:0:0:
204,292,135981,1,0,0:0:0:0:
192,304,136058,6,0,P|164:308|124:304,1,45,8|0,1:2|0:0,0:0:0:0:
192,196,136212,6,0,P|167:181|139:152,1,45,8|0,0:0|0:0,0:0:0:0:
280,120,136365,6,0,P|271:93|268:53,1,45,8|0,1:2|0:0,0:0:0:0:
384,120,136519,6,0,P|394:93|417:61,1,45,12|0,0:0|0:0,0:0:0:0:
326,255,136673,5,4,0:0:0:0:
