osu file format v14

[General]
AudioFilename: nmk - sola.mp3
AudioLeadIn: 0
PreviewTime: 87442
Countdown: 0
SampleSet: Normal
StackLeniency: 0.7
Mode: 0
LetterboxInBreaks: 0
WidescreenStoryboard: 0

[Editor]
Bookmarks: 11135,18519,23442,27596,33289,43135,52365,60365,65289,75135,87442,97289,107135,114519,116981,126827,136673
DistanceSpacing: 0.9
BeatDivisor: 4
GridSize: 32
TimelineZoom: 2.1

[Metadata]
Title:sola
TitleUnicode:sola
Artist:nmk
ArtistUnicode:nmk
Creator:Yales
Version:Lunatic
Source:BMS
Tags:Touhou 東方音弾遊戯6 taketori hishou 竹取飛翔 ~ Lunatic Princess Veridian PolkaMocha
BeatmapID:1045000
BeatmapSetID:427407

[Difficulty]
HPDrainRate:6
CircleSize:4
OverallDifficulty:8
ApproachRate:9
SliderMultiplier:1.7
SliderTickRate:1

[Events]
//Background and Video events
0,0,"bg.jpg",0,0
//Break Periods
//Storyboard Layer 0 (Background)
//Storyboard Layer 1 (Fail)
//Storyboard Layer 2 (Pass)
//Storyboard Layer 3 (Foreground)
//Storyboard Sound Samples

[TimingPoints]
1289,307.692307692308,4,2,2,15,1,0
1289,-200,4,2,2,15,0,0
11135,-133.333333333333,4,2,2,25,0,0
20365,-133.333333333333,4,2,2,45,0,0
20981,-133.333333333333,4,2,2,25,0,0
23135,-66.6666666666667,4,1,3,40,0,0
23442,-100,4,1,3,60,0,1
23519,-100,4,2,2,60,0,0
41904,-100,4,1,2,60,0,0
42981,-100,4,2,2,60,0,0
43135,-100,4,2,2,60,0,0
61596,-100,4,1,2,60,0,0
65289,-100,4,1,3,60,0,1
65365,-100,4,2,2,60,0,0
75135,-100,4,2,2,60,0,1
75212,-100,4,2,2,60,0,0
86673,-100,4,2,2,5,0,0
86827,-100,4,2,2,60,0,0
86981,-100,4,2,2,5,0,0
87135,-100,4,2,2,60,0,0
87289,-100,4,2,2,5,0,0
87442,-100,4,1,3,60,0,1
87519,-100,4,2,2,60,0,1
96058,-100,4,1,2,60,0,0
96673,-100,4,2,2,60,0,0
97289,-100,4,2,2,60,0,1
100904,-100,4,2,2,60,0,0
100981,-100,4,2,2,60,0,1
105904,-100,4,2,2,60,0,0
107135,-100,4,2,2,60,0,1
108058,-100,4,2,2,60,0,0
110827,-100,4,2,2,60,0,1
111981,-100,4,2,2,60,0,0
112058,-100,4,2,2,60,0,1
112981,-100,4,2,2,60,0,0
116981,-100,4,1,3,60,0,1
117058,-100,4,2,2,60,0,0
126827,-100,4,1,3,60,0,1
126904,-100,4,2,2,60,0,0
131750,-100,4,2,2,60,0,1
136596,-100,4,2,2,60,0,0
136673,-100,4,1,3,60,0,1
136750,-100,4,1,3,60,0,0

[Colours]
Combo1 : 130,165,191
Combo2 : 255,70,70
Combo3 : 128,128,192
Combo4 : 199,113,208

[HitObjects]
156,132,1289,6,0,L|152:184,1,42.5,2|0,0:0|0:0,0:0:0:0:
108,248,1596,1,0,0:0:0:0:
108,248,1750,2,0,B|204:248,1,85,2|2,0:0|0:0,0:0:0:0:
280,220,2212,1,0,0:0:0:0:
280,220,2365,1,0,0:0:0:0:
280,220,2519,6,0,L|288:316,1,85,2|0,0:0|0:0,0:0:0:0:
220,352,2981,1,2,0:0:0:0:
372,340,3135,1,0,0:0:0:0:
372,340,3442,1,2,0:0:0:0:
372,340,3750,6,0,L|468:344,1,85,2|2,1:2|0:0,0:0:0:0:
120,280,4365,2,0,L|24:284,1,85,2|0,1:2|0:0,0:0:0:0:
372,12,4981,6,0,P|371:40|376:64,1,42.5,2|0,1:2|0:0,0:0:0:0:
420,180,5289,2,0,P|424:160|416:128,1,42.5,2|0,1:2|0:0,0:0:0:0:
300,136,5596,2,0,P|336:132|356:124,1,42.5,0|0,1:0|0:0,0:0:0:0:
492,56,5904,2,0,P|456:60|436:68,1,42.5,2|0,1:2|0:0,0:0:0:0:
300,136,6212,6,0,L|204:128,1,85,4|0,1:0|0:0,0:0:0:0:
8,188,6673,2,0,L|104:180,1,85,0|2,0:0|0:0,0:0:0:0:
215,128,7135,2,0,L|167:124,1,42.5,0|2,0:0|0:0,0:0:0:0:
272,56,7442,6,0,L|402:41,1,127.5,4|0,1:0|0:0,0:0:0:0:
398,41,8058,1,2,0:0:0:0:
172,124,8365,1,0,0:0:0:0:
104,80,8519,1,6,1:2:0:0:
388,120,9442,6,0,L|391:173,1,42.5,2|2,0:0|1:2,0:0:0:0:
304,48,9904,5,2,0:0:0:0:
316,280,10135,1,0,0:0:0:0:
236,192,10365,6,0,L|100:188,1,127.5,0|2,0:0|0:0,0:0:0:0:
28,184,10981,1,0,0:0:0:0:
108,188,11135,6,0,L|115:102,1,63.7500024318696,4|0,0:0|0:0,0:0:0:0:
230,255,11442,2,0,L|237:169,1,63.7500024318696,2|2,0:0|0:0,0:0:0:0:
245,69,11750,1,8,0:0:0:0:
317,43,11904,1,0,0:0:0:0:
387,73,12058,1,2,0:0:0:0:
389,149,12212,1,0,0:0:0:0:
369,271,12365,6,0,P|421:268|500:223,1,127.500004863739,6|2,0:0|0:0,0:0:0:0:
498,158,12827,1,2,0:0:0:0:
317,209,12981,2,0,L|330:347,1,127.500004863739,8|2,0:0|0:0,0:0:0:0:
256,359,13442,1,0,0:0:0:0:
17,284,13596,6,0,P|47:279|87:284,1,63.7500024318696,6|0,0:0|0:0,0:0:0:0:
80,111,13904,2,0,P|106:126|133:155,1,63.7500024318696,2|0,0:0|0:0,0:0:0:0:
256,22,14212,2,0,P|266:50|268:90,1,63.7500024318696,6|0,0:0|0:0,0:0:0:0:
410,59,14519,1,2,0:0:0:0:
410,59,14673,1,0,0:0:0:0:
447,236,14827,6,0,P|465:210|476:180,1,63.7500024318696,6|0,0:0|0:0,0:0:0:0:
347,203,15135,2,0,P|344:171|331:138,1,63.7500024318696,6|0,0:0|0:0,0:0:0:0:
242,244,15442,2,0,P|219:221|192:204,1,63.7500024318696,6|0,0:0|0:0,0:0:0:0:
207,335,15750,2,0,P|175:331|143:336,1,63.7500024318696,6|0,0:0|0:0,0:0:0:0:
391,265,16058,6,0,P|328:275|279:314,1,127.500004863739,4|2,0:0|0:0,0:0:0:0:
341,365,16519,1,2,0:0:0:0:
144,335,16673,2,0,P|81:324|32:285,1,127.500004863739,8|2,0:0|0:0,0:0:0:0:
43,207,17134,1,8,0:0:0:0:
135,93,17289,6,0,L|129:233,1,127.500004863739,4|2,0:0|0:0,0:0:0:0:
199,261,17750,1,0,0:0:0:0:
243,118,17904,2,0,P|293:107|381:115,1,127.500004863739,8|0,0:0|0:0,0:0:0:0:
441,135,18365,1,0,0:0:0:0:
470,213,18519,5,12,0:0:0:0:
468,225,18596,1,0,0:0:0:0:
467,237,18673,1,0,0:0:0:0:
465,249,18750,1,0,0:0:0:0:
464,260,18827,1,2,0:0:0:0:
463,273,18904,1,0,0:0:0:0:
461,285,18981,1,0,0:0:0:0:
461,296,19058,1,0,0:0:0:0:
459,309,19135,6,0,L|476:364,7,31.8750012159348,8|0|0|0|2|0|0|0,0:0|0:0|0:0|0:0|0:0|0:0|0:0|0:0,0:0:0:0:
372,348,19750,2,0,L|355:402,7,31.8750012159348,8|0|0|0|2|2|2|2,0:0|0:0|0:0|0:0|0:0|0:0|0:0|0:0,0:0:0:0:
272,350,20365,6,0,L|264:320,3,31.8750012159348,8|0|0|0,0:0|0:0|0:0|0:0,0:0:0:0:
176,352,20673,2,0,L|167:382,3,31.8750012159348,8|0|0|0,0:0|0:0|0:0|0:0,0:0:0:0:
100,316,20981,5,12,0:0:0:0:
256,192,21058,12,2,23135,0:0:0:0:
376,240,23442,6,0,L|380:136,2,85,2|0|8,0:0|0:0|0:0,0:0:0:0:
372,348,23904,1,0,0:0:0:0:
308,308,24058,1,0,0:0:0:0:
232,312,24212,1,2,0:0:0:0:
176,364,24365,1,8,0:0:0:0:
100,300,24519,1,0,0:0:0:0:
92,312,24596,1,2,0:0:0:0:
84,324,24673,6,0,L|80:220,1,85,4|2,0:1|0:0,0:0:0:0:
80,144,24981,1,8,0:0:0:0:
208,72,25135,1,0,0:0:0:0:
208,72,25212,1,0,0:0:0:0:
208,72,25289,2,0,L|204:176,1,85,0|2,0:0|0:0,0:0:0:0:
352,164,25596,1,8,0:0:0:0:
204,240,25750,1,0,0:0:0:0:
320,264,25904,6,0,P|376:256|440:264,1,85,4|2,0:1|0:0,0:0:0:0:
500,296,26212,1,8,0:0:0:0:
484,176,26365,1,0,0:0:0:0:
476,188,26442,1,0,0:0:0:0:
468,200,26519,2,0,L|464:115,1,85,0|2,0:0|0:0,0:0:0:0:
500,40,26827,1,2,1:0:0:0:
268,88,26981,2,0,L|216:76,2,42.5,2|2|4,1:0|0:0|0:1,0:0:0:0:
368,64,27289,5,2,0:0:0:0:
366,140,27442,1,8,0:0:0:0:
298,172,27596,1,0,0:0:0:0:
300,184,27673,1,0,0:0:0:0:
303,196,27750,1,2,0:3:0:0:
228,244,27904,1,0,0:0:0:0:
226,256,27981,1,0,0:0:0:0:
225,268,28058,1,2,0:3:0:0:
290,307,28212,1,0,0:0:0:0:
176,184,28365,6,0,P|130:175|85:179,1,85,4|2,2:1|0:0,0:0:0:0:
3,218,28673,1,8,0:0:0:0:
3,218,28827,1,0,0:0:0:0:
3,218,28981,1,0,0:0:0:0:
44,305,29135,1,2,0:0:0:0:
130,271,29289,1,8,0:0:0:0:
92,177,29442,1,0,0:0:0:0:
92,177,29519,1,2,0:0:0:0:
92,177,29596,6,0,L|98:71,1,85,4|2,0:1|0:0,0:0:0:0:
212,27,29904,1,8,0:0:0:0:
288,24,30058,1,0,0:0:0:0:
348,71,30212,1,0,0:0:0:0:
355,146,30365,1,2,0:0:0:0:
353,158,30442,1,0,0:0:0:0:
352,170,30519,2,0,L|342:227,2,42.5,8|0|0,0:0|0:0|0:0,0:0:0:0:
420,106,30827,6,0,P|459:108|517:133,1,85,4|2,0:1|0:0,0:0:0:0:
278,251,31135,2,0,P|235:248|196:233,1,85,8|0,0:0|0:0,0:0:0:0:
156,112,31442,1,0,0:0:0:0:
194,46,31596,1,2,0:0:0:0:
269,34,31750,1,2,1:0:0:0:
352,170,31904,2,0,L|336:241,2,42.5,2|2|4,1:0|0:0|1:0,0:0:0:0:
415,257,32212,1,2,0:0:0:0:
415,257,32289,1,2,0:0:0:0:
415,257,32365,5,6,1:0:0:0:
435,168,32519,1,0,0:0:0:0:
278,251,32673,5,2,1:0:0:0:
290,335,32827,1,2,0:0:0:0:
140,266,32981,5,2,1:0:0:0:
153,161,33135,1,2,0:0:0:0:
155,173,33212,1,0,0:0:0:0:
157,185,33289,6,0,L|264:188,1,85,6|2,1:2|0:0,0:0:0:0:
262,94,33596,2,0,L|369:97,1,85,8|0,0:0|0:0,0:0:0:0:
447,99,33904,1,0,0:0:0:0:
447,99,34058,1,2,0:0:0:0:
336,188,34212,1,8,0:0:0:0:
471,233,34365,1,0,0:0:0:0:
471,233,34442,1,2,0:0:0:0:
471,233,34519,6,0,L|465:338,1,85,4|2,0:1|0:0,0:0:0:0:
336,188,34827,2,0,L|342:293,1,85,8|0,0:0|0:0,0:0:0:0:
212,244,35135,2,0,L|206:349,1,85,0|2,0:0|0:0,0:0:0:0:
77,199,35443,2,0,L|83:304,1,85,8|0,0:0|0:0,0:0:0:0:
81,283,35673,1,0,0:0:0:0:
81,283,35750,5,4,0:1:0:0:
132,137,35904,2,0,L|126:71,2,42.5,2|0|8,0:0|0:0|0:0,0:0:0:0:
125,18,36212,1,0,0:0:0:0:
227,148,36365,2,0,L|339:135,1,85,0|2,0:0|0:0,0:0:0:0:
405,130,36673,1,2,1:0:0:0:
246,63,36827,2,0,L|186:56,2,42.5,2|2|4,1:0|0:0|0:1,0:0:0:0:
374,58,37135,5,0,0:0:0:0:
405,130,37289,1,8,0:0:0:0:
378,201,37442,1,0,0:0:0:0:
382,212,37519,1,0,0:0:0:0:
386,223,37596,1,2,0:3:0:0:
473,250,37750,1,2,0:0:0:0:
469,261,37827,1,0,0:0:0:0:
465,272,37904,1,2,0:3:0:0:
443,345,38058,1,2,0:0:0:0:
321,276,38212,6,0,P|270:280|215:305,1,85,4|2,0:1|0:0,0:0:0:0:
164,346,38519,1,8,0:0:0:0:
31,213,38673,1,0,0:0:0:0:
111,237,38827,2,0,P|142:243|175:237,2,42.5,0|0|2,0:0|0:0|0:0,0:0:0:0:
224,214,39135,1,8,0:0:0:0:
267,151,39289,1,0,0:0:0:0:
265,138,39365,1,2,0:0:0:0:
263,125,39442,5,4,0:1:0:0:
308,63,39596,1,2,0:0:0:0:
384,62,39750,1,8,0:0:0:0:
451,98,39904,1,0,0:0:0:0:
470,172,40058,2,0,L|458:269,1,85,8|2,0:0|0:0,0:0:0:0:
459,256,40289,1,0,0:0:0:0:
459,256,40365,1,8,0:0:0:0:
512,337,40519,1,2,0:0:0:0:
374,270,40673,6,0,P|317:263|258:274,1,85,4|2,0:1|0:0,0:0:0:0:
200,331,40981,2,0,P|143:338|84:327,1,85,8|0,0:0|0:0,0:0:0:0:
33,260,41289,2,0,P|26:203|37:144,1,85,0|2,0:0|0:0,0:0:0:0:
63,70,41596,1,8,0:0:0:0:
137,151,41750,1,0,0:0:0:0:
137,151,41827,1,2,0:0:0:0:
137,151,41904,6,0,L|238:148,1,85,4|0,0:0|0:0,0:0:0:0:
311,138,42135,1,0,0:0:0:0:
324,130,42212,2,0,L|221:123,1,85,8|0,0:0|0:0,0:0:0:0:
405,160,42519,2,0,L|474:153,2,42.5,8|0|4,0:0|0:0|0:0,0:0:0:0:
477,84,42827,1,0,0:0:0:0:
338,210,42981,1,0,0:0:0:0:
334,222,43058,1,0,0:0:0:0:
331,234,43135,6,0,L|355:354,1,85,4|2,1:0|0:0,0:0:0:0:
203,360,43442,1,8,0:0:0:0:
129,380,43596,1,2,0:0:0:0:
57,353,43750,1,0,0:0:0:0:
21,284,43904,1,2,0:0:0:0:
34,208,44058,1,8,0:0:0:0:
90,156,44212,1,0,0:0:0:0:
87,143,44289,1,2,0:0:0:0:
83,130,44365,6,0,L|86:21,1,85,4|2,1:0|0:0,0:0:0:0:
188,128,44673,1,8,0:0:0:0:
219,199,44827,1,0,0:0:0:0:
291,224,44981,1,0,0:0:0:0:
363,194,45135,1,2,0:0:0:0:
402,128,45289,1,8,0:0:0:0:
392,52,45443,1,0,0:0:0:0:
403,44,45520,1,2,0:0:0:0:
414,37,45596,6,0,L|519:35,1,85,4|2,1:1|0:0,0:0:0:0:
305,32,45904,1,8,0:0:0:0:
230,56,46058,1,0,0:0:0:0:
197,124,46212,1,0,0:0:0:0:
219,199,46366,1,2,0:0:0:0:
281,245,46520,1,2,1:0:0:0:
427,278,46673,2,0,L|479:262,2,42.5,2|2|4,1:0|0:0|0:1,0:0:0:0:
359,160,46981,5,2,0:0:0:0:
282,155,47135,1,8,0:0:0:0:
219,199,47289,1,0,0:0:0:0:
208,207,47366,1,0,0:0:0:0:
197,215,47443,1,2,0:3:0:0:
158,149,47597,1,0,0:0:0:0:
147,141,47674,1,0,0:0:0:0:
136,133,47751,1,2,0:3:0:0:
109,210,47904,1,0,0:0:0:0:
98,218,47981,1,0,0:0:0:0:
86,227,48058,6,0,L|-10:252,1,85,4|2,1:1|0:0,0:0:0:0:
169,293,48365,2,0,L|265:318,1,85,8|0,0:0|0:0,0:0:0:0:
114,361,48673,2,0,L|18:386,1,85,0|2,0:0|0:0,0:0:0:0:
294,249,48981,2,0,L|390:274,1,85,8|0,0:0|0:0,0:0:0:0:
376,270,49212,1,2,0:0:0:0:
376,270,49289,5,4,1:1:0:0:
446,240,49442,1,2,0:0:0:0:
469,167,49596,1,8,0:0:0:0:
452,92,49750,1,0,0:0:0:0:
387,50,49904,2,0,L|395:1,2,42.5,0|0|2,0:0|0:0|0:0,0:0:0:0:
372,171,50212,1,8,0:0:0:0:
287,81,50365,1,0,0:0:0:0:
287,81,50442,1,0,0:0:0:0:
287,81,50519,6,0,P|231:65|165:67,1,85,4|2,1:0|0:0,0:0:0:0:
62,146,50827,1,8,0:0:0:0:
229,146,50981,1,0,0:0:0:0:
4,81,51135,2,0,P|60:65|126:67,1,85,0|2,0:0|0:0,0:0:0:0:
148,210,51442,1,2,1:0:0:0:
148,210,51596,2,0,L|141:269,2,42.5,2|0|4,1:0|0:0|0:1,0:0:0:0:
311,149,51904,5,2,0:0:0:0:
387,154,52058,1,8,0:0:0:0:
451,194,52212,1,2,0:0:0:0:
457,205,52289,1,0,0:0:0:0:
460,217,52365,1,2,0:3:0:0:
480,290,52519,1,0,0:0:0:0:
481,302,52596,1,0,0:0:0:0:
480,314,52672,1,2,0:3:0:0:
436,377,52827,1,0,0:0:0:0:
284,312,52981,6,0,P|232:304|175:313,1,85,4|2,1:0|0:0,0:0:0:0:
102,349,53289,1,8,0:0:0:0:
130,278,53442,1,0,0:0:0:0:
120,202,53596,1,0,0:0:0:0:
68,145,53750,1,2,0:0:0:0:
179,29,53904,1,8,0:0:0:0:
154,101,54058,1,0,0:0:0:0:
154,101,54135,1,2,0:0:0:0:
154,101,54212,6,0,P|207:120|259:119,1,85,4|2,1:1|0:0,0:0:0:0:
318,75,54519,2,0,P|371:56|423:57,1,85,8|0,0:0|0:0,0:0:0:0:
491,85,54827,1,0,0:0:0:0:
507,177,54981,1,2,0:0:0:0:
507,177,55058,1,0,0:0:0:0:
507,177,55135,2,0,L|496:276,1,85,8|0,0:0|0:0,0:0:0:0:
400,358,55442,6,0,L|391:254,1,85,4|2,1:0|0:0,0:0:0:0:
359,169,55750,1,8,0:0:0:0:
315,232,55904,1,0,0:0:0:0:
242,255,56058,1,0,0:0:0:0:
171,226,56212,1,2,0:0:0:0:
136,158,56365,1,2,1:0:0:0:
164,24,56519,2,0,L|151:86,2,42.5,2|0|4,1:0|0:0|0:1,0:0:0:0:
264,91,56827,5,2,0:0:0:0:
338,114,56981,1,8,0:0:0:0:
396,64,57135,1,0,0:0:0:0:
409,64,57212,1,0,0:0:0:0:
420,70,57289,1,2,0:3:0:0:
486,106,57442,1,0,0:3:0:0:
494,116,57519,1,0,0:0:0:0:
498,128,57596,1,2,0:3:0:0:
493,204,57750,1,0,0:0:0:0:
322,280,57904,6,0,P|272:268|232:250,1,85,4|2,1:1|0:0,0:0:0:0:
173,130,58212,1,8,0:0:0:0:
175,53,58365,1,0,0:0:0:0:
241,15,58519,1,0,0:0:0:0:
308,51,58673,1,2,0:0:0:0:
314,127,58827,1,8,0:0:0:0:
250,169,58981,1,0,0:0:0:0:
250,169,59058,1,2,0:0:0:0:
250,169,59135,5,4,1:1:0:0:
241,92,59289,1,2,0:0:0:0:
308,51,59442,1,8,0:0:0:0:
377,82,59596,1,0,0:0:0:0:
387,157,59750,1,0,0:0:0:0:
336,214,59904,1,2,0:0:0:0:
309,285,60058,2,0,P|318:336|342:382,1,85,8|0,0:0|0:0,0:0:0:0:
468,305,60365,6,0,P|484:265|490:223,1,85,4|2,1:1|0:0,0:0:0:0:
490,223,60596,1,2,0:0:0:0:
490,223,60673,1,10,0:0:0:0:
387,157,60827,1,2,0:0:0:0:
512,100,60981,1,8,0:0:0:0:
377,17,61135,1,2,0:0:0:0:
475,20,61289,1,8,0:0:0:0:
314,95,61442,1,2,0:0:0:0:
314,95,61519,1,2,0:0:0:0:
314,95,61596,6,0,P|256:94|199:79,1,85,6|0,0:0|0:0,0:0:0:0:
141,82,61904,2,0,P|83:83|26:98,1,85,2|8,0:0|0:0,0:0:0:0:
13,162,62212,1,6,0:0:0:0:
9,252,62365,1,0,0:0:0:0:
9,252,62442,1,0,0:0:0:0:
9,252,62519,1,10,0:0:0:0:
83,291,62673,1,0,0:0:0:0:
184,192,62827,5,12,0:0:0:0:
230,293,62981,2,0,L|218:351,2,42.5,0|0|8,0:0|0:0|0:0,0:0:0:0:
261,166,63289,5,4,0:0:0:0:
311,312,63442,2,0,L|298:371,2,42.5,0|0|8,0:0|0:0|0:0,0:0:0:0:
336,186,63750,1,4,0:0:0:0:
383,271,63904,5,0,0:0:0:0:
395,274,63981,1,0,0:0:0:0:
407,275,64058,2,0,P|436:273|458:267,3,42.5,12|0|2|0,0:1|0:0|2:0|0:0,0:0:0:0:
491,207,64365,2,0,P|508:182|514:162,3,42.5,2|0|2|0,2:0|0:0|2:0|0:0,0:0:0:0:
498,94,64673,1,8,0:0:0:0:
494,81,64750,1,0,0:0:0:0:
486,70,64827,6,0,L|474:53,2,21.25,0|0|0,0:0|0:0|0:0,0:0:0:0:
401,43,64981,6,0,P|351:46|303:69,1,85,0|10,0:0|0:0,0:0:0:0:
46,136,65289,6,0,P|135:113|225:164,1,170,6|8,0:0|0:0,0:0:0:0:
351,193,65750,1,0,0:0:0:0:
226,231,65904,2,0,L|247:43,1,170,2|8,0:2|0:0,0:0:0:0:
351,193,66365,1,0,0:0:0:0:
351,193,66442,1,2,0:0:0:0:
351,193,66519,6,0,L|372:381,1,170,4|8,0:1|0:0,0:0:0:0:
445,244,66981,1,2,0:2:0:0:
266,312,67135,2,0,P|221:317|171:299,1,85,2|2,0:2|0:0,0:0:0:0:
134,200,67442,1,8,0:0:0:0:
93,369,67596,1,0,0:0:0:0:
15,292,67750,6,0,P|1:199|24:98,1,170,4|8,1:1|0:0,0:0:0:0:
134,200,68212,1,0,0:0:0:0:
123,112,68365,2,0,P|151:77|200:50,1,85,0|2,1:0|0:0,0:0:0:0:
216,153,68673,2,0,P|260:144|315:154,1,85,8|0,1:2|0:0,0:0:0:0:
261,249,68981,6,0,P|326:285|367:380,1,170,4|8,1:1|0:0,0:0:0:0:
502,279,69442,1,0,0:0:0:0:
502,279,69519,1,0,0:0:0:0:
502,279,69596,2,0,L|506:226,3,42.5,2|0|0|0,0:3|0:0|0:0|0:0,0:0:0:0:
412,230,69904,2,0,L|408:177,3,42.5,2|0|0|0,0:3|0:0|0:0|0:0,0:0:0:0:
493,130,70212,6,0,P|404:151|303:115,1,170,4|8,1:1|0:0,0:0:0:0:
83,73,70673,1,0,0:0:0:0:
83,73,70750,1,0,0:0:0:0:
83,73,70827,6,0,P|164:53|246:74,1,170,2|8,0:2|0:0,0:0:0:0:
258,177,71289,1,0,0:0:0:0:
262,189,71365,1,2,0:0:0:0:
266,201,71442,6,0,L|243:389,1,170,4|8,0:1|0:0,0:0:0:0:
84,322,71904,1,0,0:0:0:0:
84,322,72058,2,0,L|77:225,1,85,0|2,0:0|0:0,0:0:0:0:
170,187,72365,1,8,0:0:0:0:
3,283,72519,1,0,0:0:0:0:
245,369,72673,6,0,P|311:358|407:289,1,170,4|8,1:1|0:0,0:0:0:0:
439,377,73135,1,0,0:0:0:0:
504,310,73289,2,0,P|497:269|483:220,1,85,0|2,1:0|0:0,0:0:0:0:
376,208,73596,2,0,P|383:167|397:118,1,85,8|0,1:2|0:0,0:0:0:0:
497,50,73904,5,4,1:1:0:0:
394,125,74058,1,8,0:0:0:0:
291,49,74212,1,8,1:2:0:0:
189,124,74365,1,2,0:0:0:0:
78,59,74519,1,8,1:2:0:0:
26,175,74673,1,8,0:0:0:0:
24,187,74750,1,0,0:0:0:0:
23,199,74827,6,0,L|36:268,1,42.5,6|0,1:3|0:0,0:0:0:0:
131,252,74981,2,0,L|118:321,1,42.5,4|0,1:3|0:0,0:0:0:0:
32,352,75135,6,0,P|130:336|215:382,1,170,4|8,1:1|0:0,0:0:0:0:
244,237,75596,1,0,0:0:0:0:
295,312,75750,2,0,P|394:312|471:253,1,170,0|8,0:0|0:0,0:0:0:0:
282,119,76212,1,0,0:0:0:0:
278,131,76288,1,2,0:0:0:0:
274,143,76365,6,0,L|297:331,1,170,4|8,0:1|0:0,0:0:0:0:
410,196,76827,1,0,0:0:0:0:
201,240,76981,2,0,P|152:234|108:220,1,85,0|2,0:0|0:0,0:0:0:0:
117,223,77212,1,0,0:0:0:0:
117,223,77289,1,8,0:0:0:0:
242,73,77442,1,0,0:0:0:0:
0,76,77596,6,0,P|86:63|184:114,1,170,4|8,1:1|0:0,0:0:0:0:
214,166,78058,1,0,0:0:0:0:
38,277,78212,2,0,L|47:182,1,85,0|2,0:0|0:0,0:0:0:0:
189,366,78519,2,0,L|180:271,1,85,2|2,1:0|1:0,0:0:0:0:
180,281,78750,1,0,0:0:0:0:
180,281,78827,6,0,P|286:254|358:280,1,170,4|8,0:1|0:0,0:0:0:0:
467,319,79289,1,0,0:0:0:0:
455,323,79365,1,0,0:0:0:0:
443,326,79442,2,0,P|421:326|393:319,3,42.5,2|0|2|0,0:3|0:0|0:0|0:0,0:0:0:0:
341,270,79750,2,0,P|333:243|333:210,3,42.5,2|0|0|0,0:3|0:0|0:0|0:0,0:0:0:0:
317,204,80058,6,0,L|340:10,1,170,4|8,1:1|0:0,0:0:0:0:
198,145,80519,1,0,0:0:0:0:
198,145,80596,1,0,0:0:0:0:
198,145,80673,2,0,L|221:339,1,170,2|8,0:0|0:0,0:0:0:0:
92,210,81135,1,0,0:0:0:0:
92,210,81212,1,2,0:0:0:0:
92,210,81289,6,0,L|115:16,1,170,4|8,0:1|0:0,0:0:0:0:
6,187,81750,1,0,0:0:0:0:
6,187,81904,2,0,L|21:292,1,85,0|2,0:0|0:0,0:0:0:0:
138,370,82212,1,8,1:2:0:0:
138,370,82365,1,0,1:0:0:0:
138,370,82519,6,0,P|219:339|323:359,1,170,4|8,1:1|0:0,0:0:0:0:
478,261,82981,1,2,0:0:0:0:
398,285,83135,2,0,P|355:273|312:239,1,85,8|2,1:2|0:0,0:0:0:0:
275,175,83442,2,0,P|266:131|276:77,1,85,10|2,1:2|0:0,0:0:0:0:
345,18,83750,5,4,1:1:0:0:
271,91,83904,1,8,0:0:0:0:
366,126,84058,1,8,0:0:0:0:
194,205,84212,5,0,0:0:0:0:
194,205,84289,1,0,0:0:0:0:
194,205,84365,2,0,L|132:194,1,42.5,8|0,1:2|0:0,0:0:0:0:
63,274,84519,2,0,L|125:263,1,42.5,2|0,0:0|0:0,0:0:0:0:
205,290,84673,1,8,1:2:0:0:
100,354,84827,1,8,0:0:0:0:
246,378,84981,5,4,0:0:0:0:
256,192,85058,12,0,86212,0:0:0:0:
370,233,86519,6,0,L|357:319,1,85,0|0,0:0|0:0,0:0:0:0:
384,214,86827,6,0,L|371:300,1,85,0|0,0:0|0:0,0:0:0:0:
401,197,87135,6,0,L|388:283,1,85,0|0,0:0|0:0,0:0:0:0:
204,118,87442,6,0,P|170:91|132:72,1,85,6|0,0:0|0:0,0:0:0:0:
111,197,87750,1,8,0:0:0:0:
111,197,87904,1,0,0:0:0:0:
308,118,88058,2,0,P|341:91|379:72,1,85,2|0,0:2|0:0,0:0:0:0:
401,197,88366,1,8,0:0:0:0:
255,20,88520,1,0,0:0:0:0:
255,20,88596,1,0,0:0:0:0:
255,20,88673,5,4,1:2:0:0:
204,118,88827,1,2,0:0:0:0:
274,203,88981,1,8,1:2:0:0:
219,299,89135,1,2,0:0:0:0:
308,363,89289,2,0,P|363:367|410:350,1,85,2|0,1:2|0:0,0:0:0:0:
457,270,89596,1,8,1:2:0:0:
382,190,89750,1,0,0:0:0:0:
378,177,89827,1,0,0:0:0:0:
374,164,89904,6,0,L|392:50,1,85,2|0,0:0|0:0,0:0:0:0:
507,113,90212,1,8,0:0:0:0:
507,113,90365,1,0,0:0:0:0:
274,203,90519,2,0,L|256:89,1,85,2|0,0:2|0:0,0:0:0:0:
141,152,90827,1,8,0:0:0:0:
257,30,90981,1,0,1:0:0:0:
257,30,91058,1,2,0:0:0:0:
257,30,91135,6,0,B|160:72|182:0|89:33,1,170,4|8,1:0|0:0,0:0:0:0:
38,158,91596,1,2,0:0:0:0:
43,169,91673,1,0,0:0:0:0:
47,180,91750,2,0,L|36:253,3,42.5,2|0|4|0,0:3|0:0|0:0|0:0,0:0:0:0:
143,243,92058,2,0,L|154:316,3,42.5,12|0|4|0,0:0|0:0|0:0|0:0,0:0:0:0:
103,345,92365,6,0,P|162:328|257:336,1,127.5,12|0,1:2|0:0,0:0:0:0:
248,337,92673,2,0,P|297:349|343:346,1,85,8|0,0:0|0:0,0:0:0:0:
512,260,92981,2,0,P|453:243|358:251,1,127.5,2|0,0:2|0:0,0:0:0:0:
367,252,93289,2,0,P|317:264|271:261,1,85,8|0,0:0|0:0,0:0:0:0:
258,256,93519,1,2,0:0:0:0:
258,256,93596,6,0,L|254:172,1,85,4|2,1:2|0:0,0:0:0:0:
342,143,93904,2,0,L|338:59,1,85,8|0,1:2|0:0,0:0:0:0:
158,172,94212,2,0,L|154:88,1,85,0|2,1:0|0:0,0:0:0:0:
154,88,94442,1,0,0:0:0:0:
154,88,94519,1,8,1:2:0:0:
72,201,94673,1,0,0:0:0:0:
72,201,94750,1,0,0:0:0:0:
72,201,94827,6,0,L|76:285,1,85,6|0,0:0|0:0,0:0:0:0:
87,382,95135,1,10,0:0:0:0:
87,382,95289,1,0,0:0:0:0:
257,171,95442,2,0,L|252:266,1,85,2|0,0:0|0:0,0:0:0:0:
242,344,95750,1,10,0:0:0:0:
368,291,95904,1,0,0:0:0:0:
373,302,95981,1,2,0:0:0:0:
378,313,96058,6,0,L|388:243,3,42.5,4|0|0|0,0:0|2:0|0:0|2:0,0:0:0:0:
487,225,96365,1,0,0:0:0:0:
487,225,96442,1,0,0:0:0:0:
487,225,96519,1,0,0:0:0:0:
487,225,96596,1,0,0:0:0:0:
487,225,96673,6,0,L|493:180,1,42.5,2|0,0:0|2:0,0:0:0:0:
390,241,96827,6,0,L|396:196,1,42.5,2|0,0:0|2:0,0:0:0:0:
292,262,96981,6,0,L|298:217,1,42.5,2|0,0:0|2:0,0:0:0:0:
198,283,97135,6,0,L|204:238,1,42.5,2|0,0:0|2:0,0:0:0:0:
151,171,97289,6,0,P|104:172|36:155,1,85,4|2,1:1|0:0,0:0:0:0:
14,78,97596,1,8,0:2:0:0:
14,78,97750,1,0,0:0:0:0:
184,96,97904,2,0,P|231:97|299:80,1,85,0|2,0:2|0:0,0:0:0:0:
378,15,98211,1,8,0:0:0:0:
358,97,98365,1,0,0:0:0:0:
358,97,98442,1,2,0:0:0:0:
358,97,98519,5,4,0:1:0:0:
432,137,98673,1,2,0:0:0:0:
432,137,98750,1,0,0:0:0:0:
432,137,98827,2,0,P|460:176|479:234,1,85,8|0,0:0|0:0,0:0:0:0:
443,282,99135,1,0,0:0:0:0:
365,291,99289,1,2,0:0:0:0:
297,255,99442,2,0,P|243:246|181:266,1,85,8|0,0:0|0:0,0:0:0:0:
104,306,99750,6,0,P|133:303|179:289,2,42.5,4|0|2,0:2|0:0|0:0,0:0:0:0:
23,277,100058,1,8,0:0:0:0:
2,194,100212,1,2,0:0:0:0:
21,111,100365,1,2,0:0:0:0:
122,190,100519,1,2,0:0:0:0:
122,190,100596,1,0,0:0:0:0:
122,190,100673,1,10,0:0:0:0:
122,190,100750,1,2,0:0:0:0:
122,190,100827,1,2,0:0:0:0:
122,190,100904,1,2,0:0:0:0:
122,190,100981,6,0,L|114:135,3,42.5,4|0|2|0,0:0|0:0|0:0|0:0,0:0:0:0:
205,201,101289,6,0,L|197:256,3,42.5,8|0|0|0,0:0|0:0|0:0|0:0,0:0:0:0:
289,170,101596,6,0,L|281:115,3,42.5,2|0|2|0,0:3|0:0|0:0|0:0,0:0:0:0:
365,221,101904,6,0,L|357:276,3,42.5,2|0|0|0,0:3|0:0|0:0|0:0,0:0:0:0:
418,151,102212,6,0,L|515:146,2,85,4|2|8,1:2|0:0|0:0,0:0:0:0:
344,68,102673,1,0,0:0:0:0:
205,201,102827,2,0,L|108:196,2,85,0|2|8,0:0|0:0|0:0,0:0:0:0:
282,127,103288,1,0,0:0:0:0:
118,103,103442,6,0,L|21:108,1,85,4|2,0:1|0:0,0:0:0:0:
205,201,103750,2,0,L|290:206,1,85,8|0,0:0|0:0,0:0:0:0:
116,274,104058,2,0,L|19:279,1,85,0|2,0:0|0:0,0:0:0:0:
203,359,104366,2,0,L|287:363,1,85,8|0,0:0|0:0,0:0:0:0:
322,371,104596,1,0,0:0:0:0:
322,371,104673,6,0,L|329:313,2,42.5,4|0|2,0:0|0:0|0:0,0:0:0:0:
339,240,104981,1,8,0:0:0:0:
413,281,105135,1,2,0:0:0:0:
491,248,105289,1,2,0:0:0:0:
511,165,105442,1,2,0:0:0:0:
511,165,105519,1,0,0:0:0:0:
511,165,105596,2,0,L|497:107,3,42.5,8|0|2|2,0:0|0:0|0:0|0:0,0:0:0:0:
510,81,105904,5,12,0:0:0:0:
256,192,105981,12,0,106981,0:0:0:0:
196,253,107135,6,0,P|152:251|101:229,1,85,4|0,1:0|0:0,0:0:0:0:
61,153,107442,1,8,0:0:0:0:
61,153,107596,1,0,0:0:0:0:
281,163,107750,2,0,L|276:265,1,85,6|0,1:2|0:0,0:0:0:0:
269,356,108058,1,8,0:0:0:0:
363,274,108212,1,0,0:0:0:0:
363,274,108289,1,2,0:0:0:0:
363,274,108365,5,4,0:1:0:0:
421,341,108519,1,2,0:0:0:0:
421,341,108596,1,0,0:0:0:0:
421,341,108673,2,0,P|471:329|525:291,1,85,8|0,0:0|0:0,0:0:0:0:
465,110,108981,1,0,0:0:0:0:
506,230,109135,1,2,0:0:0:0:
418,169,109289,2,0,P|368:181|314:219,1,85,8|0,0:0|0:0,0:0:0:0:
198,248,109596,6,0,P|159:246|135:239,2,42.5,2|0|2,0:0|0:0|0:0,0:0:0:0:
71,223,109904,1,8,0:0:0:0:
43,151,110058,1,0,0:0:0:0:
71,79,110212,1,2,0:0:0:0:
182,136,110365,1,2,0:0:0:0:
182,136,110442,1,0,0:0:0:0:
182,136,110519,1,8,0:0:0:0:
182,136,110596,1,2,0:0:0:0:
182,136,110673,1,2,0:0:0:0:
182,136,110750,1,2,0:0:0:0:
182,136,110827,6,0,L|191:70,3,42.5,4|0|2|0,0:0|0:0|0:0|0:0,0:0:0:0:
269,147,111135,6,0,L|278:81,3,42.5,10|0|2|2,0:0|0:0|0:0|0:0,0:0:0:0:
359,161,111442,6,0,L|368:95,3,42.5,8|0|2|0,0:0|0:0|0:0|0:0,0:0:0:0:
448,174,111750,6,0,L|457:108,3,42.5,8|0|2|0,0:0|0:0|0:0|0:0,0:0:0:0:
464,50,112058,6,0,P|411:39|357:48,1,85,4|0,1:0|0:0,0:0:0:0:
104,85,112365,2,0,P|145:95|187:93,1,85,8|0,0:0|0:0,0:0:0:0:
208,0,112673,1,6,1:2:0:0:
22,42,112827,1,0,0:0:0:0:
22,42,112981,2,0,L|26:143,1,85,8|0,0:0|0:0,0:0:0:0:
25,126,113212,1,2,0:0:0:0:
25,126,113289,5,4,0:1:0:0:
42,223,113442,1,2,0:0:0:0:
107,182,113596,1,8,0:0:0:0:
182,196,113750,1,0,0:0:0:0:
230,255,113904,2,0,L|220:353,1,85,2|2,0:0|0:0,0:0:0:0:
221,339,114135,1,2,0:0:0:0:
221,339,114212,1,8,0:0:0:0:
333,369,114365,1,10,0:0:0:0:
371,268,114519,5,4,0:1:0:0:
371,268,114596,1,2,0:0:0:0:
371,268,114673,1,2,0:0:0:0:
371,268,114750,1,2,0:0:0:0:
371,268,114827,2,0,L|361:170,1,85,8|2,0:0|0:0,0:0:0:0:
422,110,115135,1,4,0:1:0:0:
281,140,115289,1,2,0:0:0:0:
435,26,115442,1,0,0:0:0:0:
233,61,115596,1,2,0:0:0:0:
224,70,115673,1,0,0:0:0:0:
215,79,115750,6,0,L|130:59,1,85,4|2,0:0|0:0,0:0:0:0:
43,105,116058,1,8,0:0:0:0:
109,143,116212,1,0,0:0:0:0:
141,211,116365,2,0,P|152:267|155:323,2,85,8|2|8,0:0|0:0|0:0,0:0:0:0:
282,174,116827,1,2,0:0:0:0:
275,184,116904,1,0,0:0:0:0:
270,196,116981,6,0,P|249:262|254:384,1,170,6|8,0:0|0:0,0:0:0:0:
387,374,117442,1,0,0:0:0:0:
371,252,117596,2,0,L|341:44,1,170,2|8,0:2|0:0,0:0:0:0:
481,146,118058,1,0,0:0:0:0:
481,146,118135,1,2,0:0:0:0:
481,146,118212,6,0,L|451:354,1,170,2|8,0:2|0:0,0:0:0:0:
387,374,118673,1,0,0:0:0:0:
371,252,118827,2,0,P|328:247|286:252,1,85,0|2,0:0|0:0,0:0:0:0:
286,252,119058,1,0,0:0:0:0:
286,252,119135,1,8,0:0:0:0:
170,185,119289,1,0,0:0:0:0:
24,319,119442,6,0,P|112:326|193:268,1,170,2|8,1:2|0:0,0:0:0:0:
281,147,119904,1,0,0:0:0:0:
281,147,120058,2,0,L|268:51,1,85,2|2,0:2|0:0,0:0:0:0:
371,252,120365,2,0,L|384:156,1,85,2|0,1:0|1:0,0:0:0:0:
409,147,120596,1,0,0:0:0:0:
409,147,120673,5,4,1:1:0:0:
485,237,120827,1,2,0:0:0:0:
485,237,120981,1,8,0:0:0:0:
422,338,121135,1,0,0:0:0:0:
422,338,121289,1,2,0:3:0:0:
306,309,121442,1,2,0:0:0:0:
306,309,121596,1,2,0:3:0:0:
298,191,121750,1,0,0:0:0:0:
298,191,121827,1,0,0:0:0:0:
298,191,121904,6,0,P|242:183|187:185,1,85,4|2,1:2|0:0,0:0:0:0:
64,266,122212,2,0,P|106:264|148:257,1,85,8|0,0:0|0:0,0:0:0:0:
182,149,122519,2,0,L|207:355,1,170,2|8,0:2|0:0,0:0:0:0:
298,191,122981,1,0,0:0:0:0:
298,191,123058,1,2,0:0:0:0:
298,191,123135,6,0,L|307:-9,1,170,2|8,0:2|0:0,0:0:0:0:
399,146,123596,1,0,0:0:0:0:
399,146,123750,1,0,0:0:0:0:
214,73,123904,1,2,0:0:0:0:
214,73,123981,1,0,0:0:0:0:
214,73,124058,2,0,P|158:76|118:95,1,85,8|0,0:0|0:0,0:0:0:0:
0,166,124365,6,0,P|98:158|162:224,1,170,4|8,1:2|0:0,0:0:0:0:
173,352,124827,1,0,0:0:0:0:
211,271,124981,2,0,P|231:219|265:170,1,85,0|2,1:2|0:0,0:0:0:0:
350,352,125289,2,0,P|330:300|296:251,1,85,8|0,1:2|0:0,0:0:0:0:
402,107,125596,5,4,1:2:0:0:
376,179,125750,1,2,0:0:0:0:
397,252,125904,1,8,0:0:0:0:
470,188,126058,1,2,0:0:0:0:
470,188,126135,1,0,0:0:0:0:
470,188,126212,6,0,L|484:137,1,42.5,2|0,0:3|0:0,0:0:0:0:
402,107,126365,2,0,L|410:55,1,42.5,2|0,0:0|0:0,0:0:0:0:
297,153,126519,2,0,L|300:93,1,42.5,2|0,0:3|0:0,0:0:0:0:
199,107,126673,2,0,L|189:38,1,42.5,2|0,0:0|0:0,0:0:0:0:
159,183,126827,6,0,P|68:190|-19:247,1,170,2|8,0:0|0:0,0:0:0:0:
221,275,127289,1,0,0:0:0:0:
221,275,127365,1,0,0:0:0:0:
221,275,127442,2,0,L|194:72,1,170,0|8,0:0|0:0,0:0:0:0:
331,188,127904,1,0,0:0:0:0:
331,188,127981,1,2,0:0:0:0:
331,188,128058,6,0,L|304:391,1,170,2|8,0:2|0:0,0:0:0:0:
446,207,128519,1,2,0:0:0:0:
446,207,128673,2,0,L|430:115,1,85,0|2,0:0|0:0,0:0:0:0:
466,13,128981,1,8,0:0:0:0:
366,71,129135,1,0,0:0:0:0:
243,79,129289,6,0,P|135:71|60:30,1,170,4|8,1:0|0:0,0:0:0:0:
80,44,129750,1,0,0:0:0:0:
28,156,129904,2,0,L|-5:255,1,85,0|2,1:2|0:0,0:0:0:0:
177,157,130212,1,2,1:0:0:0:
106,230,130365,2,0,L|115:277,1,42.5,2|2,1:0|0:0,0:0:0:0:
103,355,130519,5,4,0:1:0:0:
103,355,130673,1,2,0:0:0:0:
266,319,130827,1,8,0:0:0:0:
266,319,130981,1,0,0:0:0:0:
177,157,131135,1,2,0:3:0:0:
177,157,131289,1,0,0:0:0:0:
340,61,131442,1,2,0:3:0:0:
340,61,131596,1,0,0:0:0:0:
271,115,131750,6,0,L|279:214,1,85,4|2,1:2|0:0,0:0:0:0:
216,342,132058,2,0,L|224:243,1,85,8|0,0:0|0:0,0:0:0:0:
350,234,132365,1,8,1:2:0:0:
161,206,132519,1,2,0:0:0:0:
343,152,132673,2,0,P|385:149|426:138,1,85,8|2,0:0|0:0,0:0:0:0:
426,138,132904,1,2,0:0:0:0:
426,138,132981,5,4,1:2:0:0:
455,59,133135,1,2,0:0:0:0:
275,102,133289,5,8,0:0:0:0:
270,16,133443,1,2,1:2:0:0:
161,206,133596,5,8,1:2:0:0:
133,124,133750,1,2,0:0:0:0:
0,147,133904,5,8,0:0:0:0:
20,330,134058,1,2,0:0:0:0:
20,330,134135,1,0,0:0:0:0:
20,330,134212,6,0,L|10:225,1,85,4|2,1:2|0:0,0:0:0:0:
103,315,134520,2,0,L|93:210,1,85,8|2,1:2|0:0,0:0:0:0:
155,50,134827,6,0,L|145:154,1,85,8|2,1:2|0:0,0:0:0:0:
238,64,135135,2,0,L|228:168,1,85,8|2,1:2|0:0,0:0:0:0:
242,181,135365,1,2,0:0:0:0:
242,181,135442,5,8,1:2:0:0:
405,132,135596,1,2,0:0:0:0:
321,141,135750,5,8,0:0:0:0:
489,173,135904,1,2,0:0:0:0:
405,132,136058,5,8,1:2:0:0:
512,265,136212,1,8,0:0:0:0:
489,173,136365,5,8,1:2:0:0:
436,335,136519,1,12,0:0:0:0:
352,58,136673,5,4,0:0:0:0:
