osu file format v14

[General]
AudioFilename: nmk - sola.mp3
AudioLeadIn: 0
PreviewTime: 87442
Countdown: 0
SampleSet: Soft
StackLeniency: 0.7
Mode: 0
LetterboxInBreaks: 0
WidescreenStoryboard: 0

[Editor]
Bookmarks: 11135,18519,23442,27596,33289,43135,52365,60365,65289,75135,87442,97289,107135,114519,116981,126827,136673
DistanceSpacing: 1
BeatDivisor: 4
GridSize: 4
TimelineZoom: 1

[Metadata]
Title:sola
TitleUnicode:sola
Artist:nmk
ArtistUnicode:nmk
Creator:Yales
Version:Hard
Source:BMS
Tags:Touhou 東方音弾遊戯6 taketori hishou 竹取飛翔 ~ Lunatic Princess Veridian PolkaMocha
BeatmapID:927328
BeatmapSetID:427407

[Difficulty]
HPDrainRate:5
CircleSize:4
OverallDifficulty:6
ApproachRate:7
SliderMultiplier:1.5
SliderTickRate:1

[Events]
//Background and Video events
0,0,"bg.jpg",0,0
//Break Periods
2,63027,64389
//Storyboard Layer 0 (Background)
//Storyboard Layer 1 (Fail)
//Storyboard Layer 2 (Pass)
//Storyboard Layer 3 (Foreground)
//Storyboard Sound Samples

[TimingPoints]
1289,307.692307692308,4,2,2,15,1,0
1289,-133.333333333333,4,2,2,15,0,0
11135,-100,4,2,2,25,0,0
20365,-100,4,2,2,45,0,0
20981,-100,4,2,2,25,0,0
23135,-100,4,1,3,40,0,0
23442,-100,4,1,3,60,0,1
23519,-100,4,2,2,60,0,0
41904,-100,4,1,2,60,0,0
42981,-100,4,2,2,60,0,0
61596,-100,4,1,2,60,0,0
65289,-100,4,1,3,60,0,1
65365,-100,4,2,2,60,0,0
75135,-100,4,2,2,60,0,1
75212,-100,4,2,2,60,0,0
86673,-100,4,2,2,5,0,0
86827,-100,4,2,2,60,0,0
86981,-100,4,2,2,5,0,0
87135,-100,4,2,2,60,0,0
87289,-100,4,2,2,5,0,0
87442,-100,4,1,3,60,0,1
87519,-100,4,2,2,60,0,1
96058,-100,4,1,2,60,0,0
96673,-100,4,2,2,60,0,0
97289,-100,4,2,2,60,0,1
100904,-100,4,2,2,60,0,0
100981,-100,4,2,2,60,0,1
105904,-100,4,2,2,60,0,0
107135,-100,4,2,2,60,0,1
108058,-100,4,2,2,60,0,0
110827,-100,4,2,2,60,0,1
111981,-100,4,2,2,60,0,0
112058,-100,4,2,2,60,0,1
112981,-100,4,2,2,60,0,0
116981,-100,4,1,3,60,0,1
117058,-100,4,2,2,60,0,0
126827,-100,4,1,3,60,0,1
126904,-100,4,2,2,60,0,0
131750,-100,4,2,2,60,0,1
136596,-100,4,2,2,60,0,0
136673,-100,4,1,3,60,0,1
136750,-100,4,1,3,60,0,0

[Colours]
Combo1 : 130,165,191
Combo2 : 255,70,70
Combo3 : 128,128,192
Combo4 : 199,113,208

[HitObjects]
108,304,1289,6,0,L|96:180,1,112.500004291535,2|0,0:0|0:0,0:0:0:0:
32,144,1750,1,2,0:0:0:0:
188,112,2058,1,2,0:0:0:0:
240,168,2212,2,0,L|236:244,1,56.2500021457673,0|0,0:0|0:0,0:0:0:0:
280,292,2519,6,0,P|336:288|392:260,1,112.500004291535,2|0,0:0|0:0,0:0:0:0:
452,220,2981,1,2,0:0:0:0:
452,220,3135,1,0,0:0:0:0:
324,132,3442,1,2,0:0:0:0:
464,56,3750,5,2,1:2:0:0:
324,132,4058,1,2,0:0:0:0:
464,56,4365,1,2,1:2:0:0:
324,132,4673,1,0,0:0:0:0:
324,132,4981,6,0,P|288:136|248:136,1,56.2500021457673,2|0,1:2|0:0,0:0:0:0:
280,60,5289,2,0,P|244:56|204:56,1,56.2500021457673,2|0,1:2|0:0,0:0:0:0:
184,124,5596,2,0,P|148:128|108:128,1,56.2500021457673,0|0,1:0|0:0,0:0:0:0:
108,52,5904,2,0,P|72:48|32:48,1,56.2500021457673,2|0,1:2|0:0,0:0:0:0:
16,120,6212,5,4,1:0:0:0:
92,260,6519,2,0,L|76:336,1,56.2500021457673,0|0,0:0|0:0,0:0:0:0:
260,320,6981,2,0,L|332:328,2,56.2500021457673,2|0|2,0:0|0:0|0:0,0:0:0:0:
196,272,7442,5,4,1:0:0:0:
388,20,8058,1,2,0:0:0:0:
284,140,8365,5,0,0:0:0:0:
336,80,8519,1,6,1:2:0:0:
76,292,9442,2,0,L|64:224,1,56.2500021457673,2|2,0:0|1:2,0:0:0:0:
168,116,9904,2,0,L|160:224,2,84.3750032186509,2|0|0,0:0|0:0|0:0,0:0:0:0:
448,152,11135,6,0,P|408:160|352:152,1,75,4|0,0:0|0:0,0:0:0:0:
320,108,11442,2,0,P|280:100|224:108,1,75,2|2,0:0|0:0,0:0:0:0:
216,172,11750,2,0,P|176:180|120:172,1,75,8|0,0:0|0:0,0:0:0:0:
72,144,12058,1,2,0:0:0:0:
84,292,12365,6,0,L|92:372,2,75,6|0|2,0:0|0:0|0:0,0:0:0:0:
152,256,12827,1,2,0:0:0:0:
212,300,12981,2,0,P|288:296|344:232,1,150,8|2,0:0|0:0,0:0:0:0:
344,164,13442,1,0,0:0:0:0:
368,236,13596,6,0,P|377:160|323:94,1,150,6|2,0:0|0:0,0:0:0:0:
256,81,14057,1,0,0:0:0:0:
332,76,14212,2,0,P|259:53|184:94,1,150,6|2,0:0|0:0,0:0:0:0:
164,152,14673,1,0,0:0:0:0:
140,224,14827,6,0,P|68:228|-4:172,1,150,6|6,0:0|0:0,0:0:0:0:
16,112,15289,1,0,0:0:0:0:
52,48,15442,2,0,P|116:48|140:60,1,75,6|0,0:0|0:0,0:0:0:0:
194,81,15750,2,0,P|258:81|282:69,1,75,6|0,0:0|0:0,0:0:0:0:
340,48,16058,6,0,P|444:48|488:84,1,150,4|2,0:0|0:0,0:0:0:0:
488,148,16519,1,2,0:0:0:0:
456,216,16673,2,0,P|408:228|372:228,1,75,8|0,0:0|0:0,0:0:0:0:
336,172,16981,2,0,P|288:160|252:160,1,75,2|8,0:0|0:0,0:0:0:0:
224,224,17289,6,0,L|201:75,1,150,4|2,0:0|0:0,0:0:0:0:
256,24,17750,1,0,0:0:0:0:
201,75,17904,2,0,P|137:103|49:79,1,150,8|0,0:0|0:0,0:0:0:0:
8,32,18365,1,0,0:0:0:0:
28,108,18519,6,0,L|8:168,7,37.5,12|0|0|0|2|0|0|0,0:0|0:0|0:0|0:0|0:0|0:0|0:0|0:0,0:0:0:0:
48,176,19135,2,0,L|68:236,7,37.5,8|0|0|0|2|0|0|0,0:0|0:0|0:0|0:0|0:0|0:0|0:0|0:0,0:0:0:0:
32,248,19750,2,0,L|12:308,7,37.5,8|0|0|0|2|2|2|2,0:0|0:0|0:0|0:0|0:0|0:0|0:0|0:0,0:0:0:0:
40,324,20365,6,0,P|64:332|96:328,3,37.5,8|0|0|0,0:0|0:0|0:0|0:0,0:0:0:0:
120,324,20673,2,0,P|144:316|176:320,3,37.5,8|0|0|0,0:0|0:0|0:0|0:0,0:0:0:0:
200,320,20981,5,12,0:0:0:0:
256,192,21058,12,2,23135,0:0:0:0:
360,264,23442,6,0,P|376:172|352:100,1,150,2|8,0:0|0:0,0:0:0:0:
300,72,23904,1,0,0:0:0:0:
224,64,24058,2,0,P|180:68|144:84,1,75,0|2,0:0|0:0,0:0:0:0:
76,76,24365,2,0,P|56:132|56:168,1,75,8|0,0:0|0:0,0:0:0:0:
72,220,24673,6,0,P|136:240|236:200,1,150,4|8,0:1|0:0,0:0:0:0:
276,176,25135,1,0,0:0:0:0:
344,144,25289,2,0,P|400:148|440:168,1,75,0|2,0:0|0:0,0:0:0:0:
492,156,25596,2,0,P|512:204|512:236,1,75,8|0,0:0|0:0,0:0:0:0:
476,292,25904,6,0,P|404:304|320:264,1,150,4|8,0:1|0:0,0:0:0:0:
296,212,26365,1,0,0:0:0:0:
284,136,26519,2,0,L|296:56,1,75,0|2,0:0|0:0,0:0:0:0:
356,16,26827,1,2,1:0:0:0:
228,32,26981,2,0,L|164:12,2,37.5,2|2|4,1:0|0:0|0:1,0:0:0:0:
368,116,27442,5,8,0:0:0:0:
196,156,27750,1,2,0:3:0:0:
340,224,28058,1,2,0:3:0:0:
256,348,28365,6,0,B|240:300|256:272|256:272|272:240|260:192,1,150,4|8,2:1|0:0,0:0:0:0:
196,156,28827,1,0,0:0:0:0:
268,176,28981,2,0,P|312:180|360:164,1,75,0|2,0:0|0:0,0:0:0:0:
408,140,29289,2,0,P|452:136|500:152,1,75,8|0,0:0|0:0,0:0:0:0:
488,220,29596,6,0,L|500:40,1,150,4|8,0:1|0:0,0:0:0:0:
440,24,30058,1,0,0:0:0:0:
372,56,30212,2,0,P|320:56|292:48,1,75,0|2,0:0|0:0,0:0:0:0:
224,36,30519,2,0,P|172:36|144:44,1,75,8|0,0:0|0:0,0:0:0:0:
92,88,30827,5,4,0:1:0:0:
84,164,30981,1,2,0:0:0:0:
144,208,31135,2,0,P|152:276|144:312,1,75,8|0,0:0|0:0,0:0:0:0:
228,360,31442,2,0,P|227:322|235:286,1,75,0|2,0:0|0:0,0:0:0:0:
288,232,31750,1,2,1:0:0:0:
372,316,31904,2,0,L|408:304,2,37.5,2|2|4,1:0|0:0|1:0,0:0:0:0:
448,188,32365,5,6,1:0:0:0:
352,72,32673,1,2,1:0:0:0:
228,156,32981,1,2,1:0:0:0:
244,304,33289,6,0,P|172:316|100:284,1,150,6|8,1:2|0:0,0:0:0:0:
92,212,33750,1,0,0:0:0:0:
159,180,33904,2,0,P|211:168|239:144,1,75,0|2,0:0|0:0,0:0:0:0:
172,104,34212,2,0,P|120:92|92:68,1,75,8|0,0:0|0:0,0:0:0:0:
160,28,34519,6,0,P|260:20|316:48,1,150,4|8,0:1|0:0,0:0:0:0:
344,104,34981,1,0,0:0:0:0:
416,132,35135,2,0,P|456:140|508:132,2,75,0|2|8,0:0|0:0|0:0,0:0:0:0:
424,56,35596,1,0,0:0:0:0:
416,132,35750,6,0,L|392:304,1,150,4|8,0:1|0:0,0:0:0:0:
332,320,36212,1,0,0:0:0:0:
320,248,36365,2,0,L|296:76,1,150,0|2,0:0|1:0,0:0:0:0:
216,164,36827,2,0,L|204:208,2,37.5,2|2|4,1:0|0:0|0:1,0:0:0:0:
184,96,37135,1,0,0:0:0:0:
116,64,37289,6,0,P|72:64|32:72,1,75,8|0,0:0|0:0,0:0:0:0:
16,140,37596,2,0,P|15:183|23:224,1,75,2|2,0:3|0:0,0:0:0:0:
96,196,37904,2,0,P|96:240|88:280,1,75,2|2,0:3|0:0,0:0:0:0:
52,336,38212,6,0,P|128:308|204:356,1,150,4|8,0:1|0:0,0:0:0:0:
244,288,38673,1,0,0:0:0:0:
292,348,38827,2,0,P|344:356|380:344,1,75,0|2,0:0|0:0,0:0:0:0:
416,292,39135,2,0,P|468:284|504:296,1,75,8|0,0:0|0:0,0:0:0:0:
500,364,39442,6,0,L|508:196,1,150,4|8,0:1|0:0,0:0:0:0:
484,144,39904,1,0,0:0:0:0:
408,142,40058,2,0,L|416:310,1,150,8|8,0:0|0:0,0:0:0:0:
365,350,40519,1,2,0:0:0:0:
292,364,40673,6,0,P|208:368|132:336,1,150,4|8,0:1|0:0,0:0:0:0:
108,280,41135,1,0,0:0:0:0:
92,208,41289,2,0,P|88:160|96:116,1,75,0|2,0:0|0:0,0:0:0:0:
128,68,41596,2,0,P|164:56|224:52,1,75,8|0,0:0|0:0,0:0:0:0:
276,64,41904,5,4,0:0:0:0:
264,140,42058,2,0,L|256:192,2,37.5,0|0|8,0:0|0:0|0:0,0:0:0:0:
336,124,42365,1,0,0:0:0:0:
348,200,42519,2,0,L|356:252,2,37.5,8|0|4,0:0|0:0|0:0,0:0:0:0:
276,256,42827,2,0,L|144:248,1,112.5,0|0,0:0|0:0,0:0:0:0:
144,244,43135,6,0,L|136:324,1,75,4|2,1:0|0:0,0:0:0:0:
68,232,43442,2,0,L|75:157,1,75,8|2,0:0|0:0,0:0:0:0:
96,84,43750,2,0,P|152:88|180:100,1,75,0|2,0:0|0:0,0:0:0:0:
228,144,44058,2,0,P|284:140|312:128,1,75,8|0,0:0|0:0,0:0:0:0:
356,84,44365,6,0,P|444:80|512:120,1,150,4|8,1:0|0:0,0:0:0:0:
500,184,44827,1,0,0:0:0:0:
440,232,44981,2,0,P|388:228|356:204,1,75,0|2,0:0|0:0,0:0:0:0:
296,236,45289,2,0,P|258:235|225:251,1,75,8|0,0:0|0:0,0:0:0:0:
164,296,45596,6,0,P|100:300|64:292,1,75,4|2,1:1|0:0,0:0:0:0:
108,224,45904,2,0,P|56:185|33:156,1,75,8|0,0:0|0:0,0:0:0:0:
108,132,46212,2,0,P|92:69|94:32,1,75,0|2,0:0|0:0,0:0:0:0:
156,20,46519,1,2,1:0:0:0:
256,52,46673,2,0,L|312:40,2,37.5,2|2|4,1:0|0:0|0:1,0:0:0:0:
264,128,46981,5,2,0:0:0:0:
336,108,47135,2,0,P|380:100|428:108,1,75,8|0,0:0|0:0,0:0:0:0:
456,160,47442,2,0,P|464:204|456:252,1,75,2|0,0:3|0:0,0:0:0:0:
428,304,47750,2,0,P|384:312|336:304,1,75,2|0,0:3|0:0,0:0:0:0:
284,280,48058,6,0,P|232:288|200:304,1,75,4|2,1:1|0:0,0:0:0:0:
144,328,48365,2,0,P|106:324|71:311,1,75,8|0,0:0|0:0,0:0:0:0:
44,240,48673,2,0,P|36:188|40:152,1,75,0|2,0:0|0:0,0:0:0:0:
64,96,48981,1,8,0:0:0:0:
64,96,49135,1,0,0:0:0:0:
64,96,49289,6,0,L|220:104,1,150,4|8,1:1|0:0,0:0:0:0:
288,108,49750,1,0,0:0:0:0:
288,184,49904,2,0,L|280:276,1,75,0|2,0:0|0:0,0:0:0:0:
352,312,50212,1,8,0:0:0:0:
352,312,50365,1,0,0:0:0:0:
352,312,50519,6,0,P|400:300|440:272,1,75,4|2,1:0|0:0,0:0:0:0:
416,212,50827,2,0,P|445:171|457:124,1,75,8|0,0:0|0:0,0:0:0:0:
396,100,51135,2,0,P|392:50|371:6,1,75,0|2,0:0|0:0,0:0:0:0:
308,20,51442,1,2,1:0:0:0:
244,96,51596,2,0,L|200:88,2,37.5,2|0|4,1:0|0:0|0:1,0:0:0:0:
224,168,51904,5,2,0:0:0:0:
152,148,52058,2,0,L|64:132,1,75,8|2,0:0|0:0,0:0:0:0:
4,144,52365,1,2,0:3:0:0:
36,212,52519,2,0,L|88:220,2,37.5,0|0|2,0:0|0:0|0:3,0:0:0:0:
36,288,52827,1,0,0:0:0:0:
112,284,52981,6,0,P|160:276|200:280,1,75,4|2,1:0|0:0,0:0:0:0:
256,304,53289,2,0,P|304:312|344:308,1,75,8|0,0:0|0:0,0:0:0:0:
400,284,53596,2,0,P|424:248|440:200,1,75,0|2,0:0|0:0,0:0:0:0:
448,144,53904,2,0,P|452:100|444:52,1,75,8|0,0:0|0:0,0:0:0:0:
376,44,54212,6,0,L|220:52,1,150,4|8,1:1|0:0,0:0:0:0:
164,92,54673,1,0,0:0:0:0:
104,136,54827,2,0,L|196:132,1,75,0|2,0:0|0:0,0:0:0:0:
240,180,55135,2,0,L|332:176,1,75,8|0,0:0|0:0,0:0:0:0:
384,256,55442,6,0,L|292:252,1,75,4|2,1:0|0:0,0:0:0:0:
256,304,55750,2,0,L|164:300,1,75,8|0,0:0|0:0,0:0:0:0:
140,240,56058,2,0,L|48:236,1,75,0|2,0:0|0:0,0:0:0:0:
8,288,56365,1,2,1:0:0:0:
12,184,56519,2,0,L|20:136,2,37.5,2|0|4,1:0|0:0|0:1,0:0:0:0:
92,160,56827,5,2,0:0:0:0:
164,136,56981,2,0,P|212:136|248:152,1,75,8|0,0:0|0:0,0:0:0:0:
299,187,57289,2,0,P|347:183|379:167,1,75,2|0,0:3|0:3,0:0:0:0:
420,116,57596,1,2,0:3:0:0:
285,38,57904,6,0,L|301:206,1,150,4|8,1:1|0:0,0:0:0:0:
308,260,58365,1,0,0:0:0:0:
244,300,58519,2,0,P|200:304|152:292,1,75,0|2,0:0|0:0,0:0:0:0:
116,244,58827,2,0,P|72:240|24:252,1,75,8|0,0:0|0:0,0:0:0:0:
20,320,59135,6,0,L|36:152,1,150,4|8,1:1|0:0,0:0:0:0:
44,96,59596,1,0,0:0:0:0:
44,96,59750,2,0,P|104:104|136:120,1,75,0|2,0:0|0:0,0:0:0:0:
188,136,60058,2,0,P|248:128|280:112,1,75,8|0,0:0|0:0,0:0:0:0:
320,80,60365,5,4,1:1:0:0:
256,192,60442,12,12,62827,0:0:0:0:
368,60,65289,6,0,L|360:228,1,150,6|8,0:0|0:0,0:0:0:0:
332,280,65750,1,0,0:0:0:0:
264,248,65904,2,0,L|256:80,1,150,2|8,0:2|0:0,0:0:0:0:
200,48,66365,1,0,0:0:0:0:
156,108,66519,6,0,P|80:124|-8:92,1,150,4|8,0:1|0:0,0:0:0:0:
16,28,66981,1,2,0:2:0:0:
16,28,67135,1,2,0:2:0:0:
32,192,67442,2,0,L|20:284,1,75,8|0,0:0|0:0,0:0:0:0:
76,320,67750,6,0,P|160:332|240:292,1,150,4|8,1:1|0:0,0:0:0:0:
276,260,68212,1,0,0:0:0:0:
344,232,68365,2,0,P|400:228|444:240,1,75,0|2,1:0|0:0,0:0:0:0:
400,312,68673,2,0,P|448:333|475:364,1,75,8|0,1:2|0:0,0:0:0:0:
500,284,68981,6,0,L|492:116,2,150,4|8|2,1:1|0:0|0:3,0:0:0:0:
328,264,69904,2,0,P|276:268|236:284,1,75,2|0,0:3|0:0,0:0:0:0:
196,324,70212,6,0,P|164:244|152:164,1,150,4|8,1:1|0:0,0:0:0:0:
183,98,70673,1,0,0:0:0:0:
120,36,70827,2,0,P|88:116|76:196,1,150,2|8,0:2|0:0,0:0:0:0:
64,256,71289,1,0,0:0:0:0:
112,324,71442,5,4,0:1:0:0:
112,324,71750,2,0,L|208:312,2,75,8|0|0,0:0|0:0|0:0,0:0:0:0:
244,252,72365,2,0,L|340:240,1,75,8|0,0:0|0:0,0:0:0:0:
352,176,72673,6,0,L|536:156,1,150,4|8,1:1|0:0,0:0:0:0:
496,84,73135,1,0,0:0:0:0:
420,72,73289,2,0,L|336:64,1,75,0|2,1:0|0:0,0:0:0:0:
276,92,73596,2,0,L|192:84,1,75,8|0,1:2|0:0,0:0:0:0:
256,192,73904,12,4,75135,1:1:0:0:
336,208,75750,6,0,L|340:48,1,150,0|8,0:0|0:0,0:0:0:0:
264,56,76212,1,0,0:0:0:0:
252,128,76365,2,0,L|80:120,1,150,4|8,0:1|0:0,0:0:0:0:
28,116,76827,1,0,0:0:0:0:
28,116,76981,1,0,0:0:0:0:
28,268,77289,1,8,0:0:0:0:
28,268,77442,1,0,0:0:0:0:
28,268,77596,6,0,L|200:260,1,150,4|8,1:1|0:0,0:0:0:0:
224,320,78058,1,0,0:0:0:0:
300,312,78212,2,0,L|400:304,1,75,0|2,0:0|0:0,0:0:0:0:
424,360,78519,2,0,L|524:352,1,75,2|2,1:0|1:0,0:0:0:0:
484,280,78827,6,0,L|476:104,2,150,4|8|2,0:1|0:0|0:3,0:0:0:0:
360,192,79750,2,0,L|356:100,1,75,2|0,0:3|0:0,0:0:0:0:
284,136,80058,6,0,P|184:124|116:156,1,150,4|8,1:1|0:0,0:0:0:0:
96,200,80519,1,0,0:0:0:0:
96,276,80673,2,0,L|104:364,2,75,2|0|8,0:0|0:0|0:0,0:0:0:0:
44,136,81289,5,4,0:1:0:0:
44,136,81596,2,0,L|52:48,2,75,8|0|0,0:0|0:0|0:0,0:0:0:0:
180,200,82212,2,0,P|232:200|276:184,1,75,8|0,1:2|1:0,0:0:0:0:
308,144,82519,6,0,P|396:136|464:160,1,150,4|8,1:1|0:0,0:0:0:0:
480,224,82981,1,2,0:0:0:0:
480,224,83135,2,0,P|480:260|468:316,1,75,8|2,1:2|0:0,0:0:0:0:
404,364,83442,2,0,P|397:327|397:289,1,75,10|2,1:2|0:0,0:0:0:0:
328,260,83750,6,0,L|152:272,1,150,4|8,1:1|0:0,0:0:0:0:
36,320,84365,1,8,1:2:0:0:
24,172,84673,1,8,1:2:0:0:
256,192,84981,12,0,86212,0:0:0:0:
72,64,86519,6,0,L|80:160,1,75,0|0,0:0|0:0,0:0:0:0:
80,48,86827,6,0,L|88:144,1,75,0|0,0:0|0:0,0:0:0:0:
88,32,87135,6,0,L|96:128,1,75,0|0,0:0|0:0,0:0:0:0:
92,228,87442,6,0,P|140:200|164:164,2,75,6|0|8,0:0|0:0|0:0,0:0:0:0:
28,192,87904,1,0,0:0:0:0:
24,268,88058,2,0,P|44:316|68:344,2,75,2|0|8,0:2|0:0|0:0,0:0:0:0:
92,132,88673,6,0,P|132:108|176:104,1,75,4|2,1:2|0:0,0:0:0:0:
212,156,88981,2,0,P|243:176|279:185,1,75,8|2,1:2|0:0,0:0:0:0:
328,128,89289,2,0,P|359:107|395:98,1,75,2|0,1:2|0:0,0:0:0:0:
464,128,89596,1,8,1:2:0:0:
408,268,89904,6,0,P|360:240|336:204,2,75,2|0|8,0:0|0:0|0:0,0:0:0:0:
472,232,90366,1,0,0:0:0:0:
476,308,90520,2,0,P|456:356|432:384,2,75,2|0|8,0:2|0:0|0:0,0:0:0:0:
408,268,90981,1,0,1:0:0:0:
376,336,91135,6,0,P|316:352|220:340,1,150,4|8,1:0|0:0,0:0:0:0:
176,292,91596,1,2,0:0:0:0:
176,292,91750,2,0,P|168:256|168:200,1,75,2|4,0:3|0:0,0:0:0:0:
244,204,92058,2,0,P|252:164|252:112,1,75,12|4,0:0|0:0,0:0:0:0:
184,92,92365,6,0,P|268:112|344:88,1,150,12|8,1:2|0:0,0:0:0:0:
392,56,92827,1,0,0:0:0:0:
404,132,92981,2,0,P|408:184|420:228,2,75,2|0|8,0:2|0:0|0:0,0:0:0:0:
456,272,93596,6,0,P|416:284|376:272,1,75,4|2,1:2|0:0,0:0:0:0:
332,220,93904,2,0,P|292:208|252:220,1,75,8|0,1:2|0:0,0:0:0:0:
212,272,94212,2,0,P|172:284|132:272,1,75,0|2,1:0|0:0,0:0:0:0:
80,232,94519,1,8,1:2:0:0:
228,184,94827,6,0,P|244:272|220:348,1,150,6|10,0:0|0:0,0:0:0:0:
156,200,95442,2,0,P|141:127|157:54,1,150,2|10,0:0|0:0,0:0:0:0:
228,28,95904,1,0,0:0:0:0:
284,80,96058,6,0,L|464:60,1,150,4|0,0:0|0:0,0:0:0:0:
492,108,96519,1,0,0:0:0:0:
436,156,96673,2,0,L|456:260,1,75,2|2,0:0|0:0,0:0:0:0:
436,303,96981,2,0,L|456:199,1,75,2|2,0:0|0:0,0:0:0:0:
360,212,97289,6,0,P|284:192|192:228,1,150,4|8,1:1|0:2,0:0:0:0:
176,276,97750,1,0,0:0:0:0:
176,276,97904,2,0,P|100:296|8:260,1,150,0|8,0:2|0:0,0:0:0:0:
20,204,98365,1,0,0:0:0:0:
20,204,98519,6,0,L|40:84,2,112.5,4|0|0,0:1|0:0|0:0,0:0:0:0:
96,208,99135,2,0,L|112:116,1,75,0|2,0:0|0:0,0:0:0:0:
128,60,99442,1,8,0:0:0:0:
213,183,99750,6,0,P|249:187|269:179,2,37.5,4|0|2,0:2|0:0|0:0,0:0:0:0:
241,111,100058,1,8,0:0:0:0:
297,251,100365,2,0,P|333:255|353:247,2,37.5,2|2|2,0:0|0:0|0:0,0:0:0:0:
325,179,100673,1,10,0:0:0:0:
446,91,100981,6,0,L|454:223,1,112.5,4|0,0:0|0:0,0:0:0:0:
477,213,101289,6,0,L|469:345,1,112.5,8|0,0:0|0:0,0:0:0:0:
482,348,101596,6,0,P|406:352|362:332,1,112.5,2|0,0:3|0:0,0:0:0:0:
348,329,101904,6,0,P|272:325|228:345,1,112.5,2|0,0:3|0:0,0:0:0:0:
217,352,102212,5,4,1:2:0:0:
287,188,102519,2,0,L|287:84,1,75,8|0,0:0|0:0,0:0:0:0:
211,108,102827,2,0,L|207:280,1,150,0|8,0:0|0:0,0:0:0:0:
135,272,103289,1,0,0:0:0:0:
79,224,103442,6,0,L|-13:220,2,75,4|2|8,0:1|0:0|0:0,0:0:0:0:
135,172,103904,1,0,0:0:0:0:
135,172,104058,2,0,L|135:84,2,75,0|2|8,0:0|0:0|0:0,0:0:0:0:
275,232,104673,6,0,P|303:236|327:228,2,37.5,4|0|2,0:0|0:0|0:0,0:0:0:0:
231,172,104981,1,8,0:0:0:0:
91,232,105289,2,0,P|63:236|39:228,2,37.5,2|0|2,0:0|0:0|0:0,0:0:0:0:
135,172,105597,1,8,0:0:0:0:
221,293,105904,6,0,L|206:394,1,75,12|10,0:0|0:0,0:0:0:0:
284,354,106212,2,0,P|368:334|436:360,1,150,8|0,0:0|0:0,0:0:0:0:
492,316,106673,1,2,0:0:0:0:
476,244,106827,1,8,0:0:0:0:
500,172,106981,1,0,0:0:0:0:
488,100,107135,6,0,P|440:104|396:96,1,75,4|0,1:0|0:0,0:0:0:0:
300,92,107442,2,0,P|300:43|312:0,1,75,8|0,0:0|0:0,0:0:0:0:
384,24,107750,2,0,L|372:192,1,150,6|8,1:2|0:0,0:0:0:0:
284,284,108365,6,0,L|294:158,2,112.5,4|0|0,0:1|0:0|0:0,0:0:0:0:
216,320,108981,2,0,P|192:320|132:300,1,75,0|2,0:0|0:0,0:0:0:0:
88,252,109289,1,8,0:0:0:0:
96,100,109596,6,0,L|108:52,2,37.5,2|0|2,0:0|0:0|0:0,0:0:0:0:
80,176,109904,1,8,0:0:0:0:
220,136,110212,2,0,L|232:88,2,37.5,2|0|2,0:0|0:0|0:0,0:0:0:0:
204,212,110520,1,8,0:0:0:0:
344,160,110827,6,0,P|408:164|463:204,1,112.5,4|0,0:0|0:0,0:0:0:0:
463,211,111135,6,0,P|459:275|419:330,1,112.5,10|2,0:0|0:0,0:0:0:0:
411,329,111442,6,0,P|347:325|292:285,1,112.5,8|0,0:0|0:0,0:0:0:0:
288,282,111750,6,0,P|224:286|169:326,1,112.5,8|0,0:0|0:0,0:0:0:0:
164,329,112058,5,4,1:0:0:0:
148,185,112365,2,0,P|143:140|136:88,1,75,8|0,0:0|0:0,0:0:0:0:
223,150,112673,2,0,P|222:76|233:-15,1,150,6|8,1:2|0:0,0:0:0:0:
112,96,113289,6,0,P|68:104|28:124,1,75,4|2,0:1|0:0,0:0:0:0:
24,188,113596,2,0,P|28:244|40:280,1,75,8|0,0:0|0:0,0:0:0:0:
108,280,113904,2,0,P|168:304|184:328,1,75,2|2,0:0|0:0,0:0:0:0:
112,356,114212,1,8,0:0:0:0:
180,216,114519,6,0,P|232:160|312:136,1,150,4|8,0:1|0:0,0:0:0:0:
376,140,114981,1,2,0:0:0:0:
376,140,115135,2,0,P|424:144|456:168,1,75,4|2,0:1|0:0,0:0:0:0:
480,224,115442,2,0,P|480:280|464:312,1,75,0|2,0:0|0:0,0:0:0:0:
420,352,115750,5,4,0:0:0:0:
364,304,115904,1,2,0:0:0:0:
364,304,115981,1,2,0:0:0:0:
364,304,116058,2,0,P|312:292|272:300,1,75,8|0,0:0|0:0,0:0:0:0:
228,336,116365,2,0,P|176:348|136:340,1,75,8|2,0:0|0:0,0:0:0:0:
80,340,116673,1,8,0:0:0:0:
32,284,116827,1,2,0:0:0:0:
48,212,116981,5,6,0:0:0:0:
180,272,117289,2,0,L|88:264,1,75,8|0,0:0|0:0,0:0:0:0:
120,192,117596,2,0,L|276:208,1,150,2|8,0:2|0:0,0:0:0:0:
344,216,118058,1,0,0:0:0:0:
292,272,118212,2,0,L|308:108,1,150,2|8,0:2|0:0,0:0:0:0:
316,48,118673,1,0,0:0:0:0:
316,48,118827,1,0,0:0:0:0:
192,132,119135,2,0,P|136:128|96:112,1,75,8|0,0:0|0:0,0:0:0:0:
92,52,119442,6,0,L|77:201,1,150,2|8,1:2|0:0,0:0:0:0:
64,276,119904,1,0,0:0:0:0:
136,256,120058,2,0,P|180:256|220:264,1,75,2|2,0:2|0:0,0:0:0:0:
192,336,120365,2,0,P|236:336|276:328,1,75,2|0,1:0|1:0,0:0:0:0:
288,260,120673,6,0,B|293:197|293:197|280:164|280:164|284:100,1,150,4|8,1:1|0:0,0:0:0:0:
280,36,121135,1,0,0:0:0:0:
344,76,121289,2,0,P|416:92|512:44,1,150,2|2,0:3|0:3,0:0:0:0:
472,160,121750,1,0,0:0:0:0:
472,160,121904,6,0,L|484:328,1,150,4|8,1:2|0:0,0:0:0:0:
412,336,122365,1,0,0:0:0:0:
388,264,122519,2,0,L|400:96,1,150,2|8,0:2|0:0,0:0:0:0:
332,76,122981,1,0,0:0:0:0:
276,128,123135,6,0,P|188:132|124:96,1,150,2|8,0:2|0:0,0:0:0:0:
88,44,123596,1,0,0:0:0:0:
88,44,123750,1,0,0:0:0:0:
92,196,124058,2,0,L|96:296,1,75,8|0,0:0|0:0,0:0:0:0:
168,292,124365,6,0,P|256:288|320:324,1,150,4|8,1:2|0:0,0:0:0:0:
380,352,124827,1,0,0:0:0:0:
380,352,124981,2,0,P|436:352|468:340,1,75,0|2,1:2|0:0,0:0:0:0:
416,280,125289,2,0,P|456:264|488:240,1,75,8|0,1:2|0:0,0:0:0:0:
504,172,125596,5,4,1:2:0:0:
464,108,125750,1,2,0:0:0:0:
464,108,125827,1,0,0:0:0:0:
464,108,125904,2,0,L|364:116,1,75,8|2,0:0|0:0,0:0:0:0:
328,56,126212,1,2,0:3:0:0:
264,164,126365,1,2,0:0:0:0:
224,48,126519,1,2,0:3:0:0:
140,104,126827,5,2,0:0:0:0:
140,104,127135,2,0,L|144:208,1,75,8|0,0:0|0:0,0:0:0:0:
168,252,127442,2,0,L|340:240,1,150,0|8,0:0|0:0,0:0:0:0:
392,232,127904,1,0,0:0:0:0:
392,232,128058,6,0,L|396:336,2,75,2|2|8,0:2|0:0|0:0,0:0:0:0:
392,156,128519,1,2,0:0:0:0:
392,156,128673,1,0,0:0:0:0:
268,72,128981,2,0,P|216:68|176:80,1,75,8|0,0:0|0:0,0:0:0:0:
132,116,129289,6,0,P|112:196|148:288,1,150,4|8,1:0|0:0,0:0:0:0:
176,320,129750,1,0,0:0:0:0:
248,340,129904,2,0,P|296:332|340:312,1,75,0|2,1:2|0:0,0:0:0:0:
376,268,130212,2,0,P|392:224|396:172,1,75,2|2,1:0|1:0,0:0:0:0:
388,120,130519,5,4,0:1:0:0:
388,120,130673,1,2,0:0:0:0:
328,72,130827,1,8,0:0:0:0:
328,72,130981,1,0,0:0:0:0:
252,60,131135,2,0,P|176:72|112:128,1,150,2|2,0:3|0:3,0:0:0:0:
120,196,131596,1,0,0:0:0:0:
220,292,131750,6,0,L|308:284,1,75,4|2,1:2|0:0,0:0:0:0:
400,304,132058,2,0,L|404:212,1,75,8|0,0:0|0:0,0:0:0:0:
324,132,132365,2,0,L|328:224,1,75,8|2,1:2|0:0,0:0:0:0:
228,300,132673,1,8,0:0:0:0:
228,300,132827,1,2,0:0:0:0:
228,300,132981,6,0,L|236:136,1,150,4|8,1:2|0:0,0:0:0:0:
240,76,133442,1,2,1:2:0:0:
240,76,133596,1,8,1:2:0:0:
384,112,133904,2,0,P|328:120|296:112,1,75,8|2,0:0|0:0,0:0:0:0:
240,76,134212,5,4,1:2:0:0:
189,129,134365,1,2,0:0:0:0:
203,203,134519,1,8,1:2:0:0:
274,230,134673,1,2,0:0:0:0:
337,190,134827,1,8,1:2:0:0:
413,181,134981,1,2,0:0:0:0:
465,235,135135,1,8,1:2:0:0:
454,308,135289,1,2,0:0:0:0:
392,348,135442,5,8,1:2:0:0:
256,192,135519,12,4,136673,0:0:0:0:
