osu file format v14

[General]
AudioFilename: audio.mp3
AudioLeadIn: 0
PreviewTime: 23288
Countdown: 0
SampleSet: Soft
StackLeniency: 0.7
Mode: 0
LetterboxInBreaks: 0
WidescreenStoryboard: 0

[Editor]
DistanceSpacing: 1.2
BeatDivisor: 4
GridSize: 16
TimelineZoom: 2

[Metadata]
Title:sola
TitleUnicode:sola
Artist:nmk
ArtistUnicode:nmk
Creator:Morinaga
Version:Easy
Source:BMS
Tags:Touhou 東方音弾遊戯6 taketori hishou 竹取飛翔 ~ lunatic princess artcore Dailycare Regou Down Cellina Reana Yuria
BeatmapID:1526960
BeatmapSetID:723024

[Difficulty]
HPDrainRate:2
CircleSize:2.4
OverallDifficulty:2
ApproachRate:3.2
SliderMultiplier:0.799999999999999
SliderTickRate:1

[Events]
//Background and Video events
0,0,"33333.jpg",0,0
//Break Periods
2,21104,21950
2,62950,63796
//Storyboard Layer 0 (Background)
//Storyboard Layer 1 (Fail)
//Storyboard Layer 2 (Pass)
//Storyboard Layer 3 (Foreground)
//Storyboard Sound Samples

[TimingPoints]
11058,307.692307692308,4,2,0,57,1,0
11058,-100,4,2,0,57,0,0
18442,-100,4,2,11,68,0,0
23365,-100,4,2,12,75,0,0
23519,-100,4,2,11,75,0,0
33211,-100,4,2,12,75,0,0
33365,-100,4,2,11,75,0,0
43058,-100,4,2,12,68,0,0
43211,-100,4,2,11,68,0,0
52904,-100,4,2,12,68,0,0
53058,-100,4,2,11,68,0,0
65211,-100,4,2,99,75,0,0
86134,-100,4,2,99,20,0,0
87365,-100,4,2,12,88,0,1
87442,-100,4,2,11,88,0,1
97211,-100,4,2,12,93,0,1
97288,-100,4,2,11,93,0,1
99673,-100,4,2,11,88,0,1
102134,-100,4,2,11,93,0,1
104596,-100,4,2,11,88,0,1
106750,-100,4,2,11,88,0,0
107058,-100,4,2,12,93,0,1
107134,-100,4,2,11,93,0,1
116904,-100,4,2,99,75,0,0
136673,-100,4,2,99,20,0,0
138904,-100,4,2,99,10,0,0

[Colours]
Combo1 : 251,168,168
Combo2 : 181,201,238
Combo3 : 222,184,235
Combo4 : 238,251,198

[HitObjects]
395,260,11058,6,0,P|329:280|247:228,1,160,4|0,0:3|1:0,0:0:0:0:
77,315,12288,2,0,P|92:247|178:202,1,160,4|0,0:3|1:0,0:0:0:0:
188,11,13519,2,0,P|238:58|234:155,1,160,4|0,0:3|1:0,0:0:0:0:
166,203,14442,5,0,3:0:0:0:
253,237,14750,2,0,P|330:223|424:213,1,160,0|2,0:0|1:2,0:0:0:0:
479,146,15673,1,2,0:0:0:0:
504,238,15981,6,0,P|516:279|450:373,1,160,4|0,0:3|1:0,0:0:0:0:
312,253,17211,2,0,P|300:212|366:118,1,160,4|0,0:3|1:0,0:0:0:0:
323,31,18134,1,4,0:3:0:0:
242,82,18442,6,0,P|147:99|66:113,2,160,4|8|8,0:3|0:0|0:0,0:0:0:0:
432,58,20288,2,0,P|452:97|451:140,1,79.9999999999999,8|8,0:0|0:0,0:0:0:0:
408,218,20904,1,4,0:0:0:0:
408,218,23365,6,0,P|296:203|200:288,1,240,14|10,0:0|0:0,0:0:0:0:
159,365,24596,2,0,P|148:325|104:202,1,160,6|2,0:0|0:0,0:0:0:0:
34,152,25519,1,10,0:0:0:0:
75,65,25827,2,0,P|107:56|221:114,1,160,6|2,0:0|0:0,0:0:0:0:
304,67,26750,2,0,P|315:108|300:158,1,79.9999999999999,10|0,0:0|0:0,0:0:0:0:
401,166,27365,2,0,P|377:216|353:234,2,79.9999999999999,10|2|10,0:1|0:1|0:1,0:0:0:0:
485,120,28288,6,0,P|458:177|499:347,1,240,6|10,0:0|0:0,0:0:0:0:
401,364,29519,2,0,P|361:354|233:339,1,160,6|2,0:0|0:0,0:0:0:0:
148,354,30442,1,10,0:0:0:0:
62,309,30750,2,0,P|39:256|78:163,1,160,4|0,0:0|0:0,0:0:0:0:
167,140,31673,1,10,0:0:0:0:
236,206,31981,2,0,L|323:190,1,79.9999999999999,8|10,0:0|0:1,0:0:0:0:
371,269,32596,2,0,L|449:254,1,79.9999999999999,2|10,0:1|0:1,0:0:0:0:
508,178,33211,6,0,P|512:134|361:27,1,240,14|10,0:0|0:0,0:0:0:0:
302,87,34442,2,0,P|220:77|124:72,1,160,6|2,0:0|0:0,0:0:0:0:
55,32,35365,1,10,0:0:0:0:
10,117,35673,2,0,P|25:169|24:291,1,160,6|2,0:0|0:0,0:0:0:0:
98,338,36596,2,0,P|119:287|119:259,1,79.9999999999999,10|0,0:0|0:0,0:0:0:0:
213,281,37211,2,0,P|209:229|189:195,2,79.9999999999999,10|2|10,0:1|0:1|0:1,0:0:0:0:
283,346,38134,6,0,P|346:368|472:264,1,240,6|10,0:0|0:0,0:0:0:0:
451,176,39365,2,0,P|387:136|300:155,1,160,6|2,0:0|0:0,0:0:0:0:
241,219,40288,1,10,0:0:0:0:
149,188,40596,6,0,P|139:103|129:26,1,160,4|0,0:0|0:0,0:0:0:0:
224,44,41519,1,8,0:0:0:0:
318,60,41827,2,0,P|375:48|451:42,2,120,10|10|10,0:1|0:1|0:1,0:0:0:0:
255,133,43058,5,14,0:0:0:0:
165,167,43365,2,0,P|123:162|81:152,2,79.9999999999999,8|0|8,0:0|0:0|0:0,0:0:0:0:
238,228,44288,5,4,0:0:0:0:
328,262,44595,2,0,P|370:257|412:247,2,79.9999999999999,8|0|8,0:0|0:0|0:0,0:0:0:0:
252,321,45519,5,4,0:0:0:0:
162,355,45826,2,0,P|120:350|78:340,1,79.9999999999999,8|0,0:0|0:0,0:0:0:0:
8,281,46442,2,0,L|2:240,1,40,8|4,0:0|0:0,0:0:0:0:
53,106,47058,2,0,L|66:19,2,79.9999999999999,10|6|10,0:0|0:0|0:0,0:0:0:0:
131,161,47981,5,6,0:0:0:0:
226,165,48288,2,0,P|274:147|310:121,2,79.9999999999999,8|0|8,0:0|0:0|0:0,0:0:0:0:
175,246,49211,5,4,0:0:0:0:
268,267,49518,2,0,P|318:257|358:238,2,79.9999999999999,8|0|8,0:0|0:0|0:0,0:0:0:0:
201,337,50442,5,4,0:0:0:0:
289,374,50750,2,0,P|340:373|382:361,1,79.9999999999999,8|0,0:0|0:0,0:0:0:0:
457,330,51365,2,0,L|513:341,1,40,8|4,0:0|0:0,0:0:0:0:
448,201,51981,2,0,L|530:185,2,79.9999999999999,10|10|10,0:0|0:0|0:0,0:0:0:0:
366,149,52904,5,14,0:0:0:0:
285,96,53211,2,0,L|276:14,2,79.9999999999999,8|0|8,0:0|0:0|0:0,0:0:0:0:
278,191,54134,5,4,0:0:0:0:
197,244,54442,2,0,L|188:326,2,79.9999999999999,8|0|8,0:0|0:0|0:0,0:0:0:0:
192,147,55365,5,4,0:0:0:0:
111,94,55673,2,0,L|102:12,1,79.9999999999999,8|0,0:0|0:0,0:0:0:0:
13,51,56288,2,0,L|6:94,1,40,8|4,0:0|0:0,0:0:0:0:
68,221,56904,2,0,P|36:239|-22:238,2,79.9999999999999,10|6|10,0:0|0:0|0:0,0:0:0:0:
160,245,57827,5,6,0:0:0:0:
133,152,58134,2,0,P|133:115|163:65,2,79.9999999999999,8|0|8,0:0|0:0|0:0,0:0:0:0:
228,135,59058,5,4,0:0:0:0:
294,65,59365,2,0,P|326:47|384:47,2,79.9999999999999,8|0|8,0:0|0:0|0:0,0:0:0:0:
357,137,60288,6,0,P|399:157|418:264,1,160,8|8,0:0|0:0,0:0:0:0:
349,325,61211,1,8,0:0:0:0:
262,284,61519,2,0,P|213:292|174:305,1,79.9999999999999,8|4,0:0|0:0,0:0:0:0:
146,331,61981,2,0,P|81:342|30:316,1,120,8|8,0:0|0:0,0:0:0:0:
1,228,62750,1,2,0:3:0:0:
1,228,65211,6,0,P|15:142|23:65,2,160,6|2|2,0:1|0:1|0:1,0:0:0:0:
47,312,66750,2,0,P|83:297|142:297,1,79.9999999999999,8|2,0:0|0:1,0:0:0:0:
215,321,67365,1,10,0:1:0:0:
306,291,67673,2,0,P|335:246|301:135,1,160,2|2,0:1|0:1,0:0:0:0:
225,109,68596,2,0,L|128:125,1,79.9999999999999,10|2,0:1|0:0,0:0:0:0:
78,53,69211,2,0,L|0:39,2,79.9999999999999,10|2|10,0:0|0:0|0:1,0:0:0:0:
171,32,70134,6,0,P|230:46|322:-3,2,160,2|2|2,0:1|0:1|0:1,0:0:0:0:
146,122,71673,2,0,P|135:159|135:205,1,79.9999999999999,8|2,0:0|0:1,0:0:0:0:
175,287,72288,1,10,0:1:0:0:
259,241,72596,2,0,P|313:238|398:302,1,160,2|2,0:1|0:1,0:0:0:0:
476,349,73519,2,0,P|491:311|483:264,1,79.9999999999999,10|8,0:1|0:0,0:0:0:0:
424,199,74134,2,0,P|409:162|413:122,2,79.9999999999999,8|8|10,0:0|0:0|0:1,0:0:0:0:
506,149,75058,6,0,P|523:101|476:4,2,160,6|2|2,0:1|0:1|0:1,0:0:0:0:
413,122,76596,2,0,P|371:115|324:116,1,79.9999999999999,8|2,0:0|0:1,0:0:0:0:
242,146,77211,1,10,0:1:0:0:
181,71,77519,2,0,P|150:98|30:91,1,160,2|2,0:1|0:1,0:0:0:0:
11,188,78442,2,0,L|26:284,1,79.9999999999999,10|2,0:1|0:0,0:0:0:0:
117,285,79058,2,0,L|104:205,2,79.9999999999999,10|2|10,0:0|0:0|0:1,0:0:0:0:
208,313,79981,6,0,P|176:360|65:364,2,160,2|2|2,0:1|0:1|0:1,0:0:0:0:
292,267,81519,2,0,P|331:271|382:289,1,79.9999999999999,8|2,0:0|0:1,0:0:0:0:
451,334,82134,1,10,0:1:0:0:
512,259,82442,6,0,P|525:219|459:115,1,160,2|10,0:1|0:1,0:0:0:0:
378,100,83365,1,10,0:1:0:0:
309,166,83673,2,0,L|149:150,1,160,10|10,0:1|0:1,0:0:0:0:
59,183,84596,1,10,0:1:0:0:
5,103,84904,1,14,0:1:0:0:
5,103,86134,6,0,P|93:125|210:32,1,240,2|2,0:1|0:1,0:0:0:0:
300,24,87365,6,0,P|311:62|313:110,1,79.9999999999999,14|10,0:0|0:0,0:0:0:0:
402,139,87981,2,0,P|385:175|356:213,1,79.9999999999999,2|10,0:0|0:0,0:0:0:0:
397,296,88596,2,0,P|331:258|248:275,1,160,6|2,0:0|0:0,0:0:0:0:
190,346,89519,1,10,0:0:0:0:
105,299,89827,6,0,L|19:288,1,79.9999999999999,6|10,0:0|0:0,0:0:0:0:
4,195,90442,2,0,L|83:205,1,79.9999999999999,2|10,0:0|0:0,0:0:0:0:
176,230,91058,2,0,P|230:175|385:200,1,240,6|10,0:0|0:0,0:0:0:0:
442,267,92288,6,0,P|468:234|472:191,1,79.9999999999999,6|10,0:0|0:0,0:0:0:0:
501,105,92904,2,0,P|485:65|450:41,1,79.9999999999999,2|10,0:0|0:0,0:0:0:0:
366,7,93519,2,0,P|300:65|224:51,1,160,6|2,0:0|0:0,0:0:0:0:
137,45,94442,1,10,0:0:0:0:
64,107,94750,6,0,L|56:194,1,79.9999999999999,6|10,0:0|0:0,0:0:0:0:
133,244,95365,2,0,L|125:331,1,79.9999999999999,2|10,0:0|0:0,0:0:0:0:
206,376,95981,2,0,P|260:334|363:352,1,160,8|8,0:0|0:0,0:0:0:0:
427,287,96904,1,2,0:3:0:0:
340,244,97211,6,0,P|327:208|327:162,1,79.9999999999999,14|10,0:0|0:1,0:0:0:0:
240,123,97827,2,0,P|264:93|304:70,1,79.9999999999999,2|10,0:0|0:1,0:0:0:0:
372,9,98442,2,0,P|419:58|520:41,1,160,6|2,0:1|0:1,0:0:0:0:
512,148,99365,1,10,0:1:0:0:
432,202,99673,6,0,P|416:265|400:370,1,160,6|2,0:0|0:0,0:0:0:0:
317,312,100596,1,10,0:0:0:0:
236,364,100904,2,0,P|252:300|268:196,1,160,6|2,0:0|0:0,0:0:0:0:
226,119,101827,1,10,0:0:0:0:
175,200,102134,6,0,P|129:219|89:220,1,79.9999999999999,6|10,0:0|0:1,0:0:0:0:
4,237,102750,2,0,P|10:187|29:152,1,79.9999999999999,2|10,0:0|0:1,0:0:0:0:
13,65,103365,2,0,P|69:50|169:95,1,160,6|2,0:1|0:1,0:0:0:0:
251,52,104288,1,10,0:1:0:0:
327,109,104596,6,0,P|380:103|493:77,1,160,6|2,0:0|0:0,0:0:0:0:
501,174,105519,1,10,0:0:0:0:
421,227,105827,2,0,P|368:233|255:259,1,160,8|8,0:0|0:0,0:0:0:0:
169,237,106750,1,2,0:3:0:0:
88,289,107058,6,0,P|77:234|79:205,1,79.9999999999999,14|10,0:0|0:1,0:0:0:0:
148,144,107673,2,0,P|159:89|157:60,1,79.9999999999999,2|10,0:0|0:1,0:0:0:0:
68,30,108288,2,0,P|21:56|0:156,1,160,6|2,0:1|0:1,0:0:0:0:
78,210,109211,1,10,0:1:0:0:
148,144,109519,6,0,P|221:129|305:113,1,160,6|6,0:0|0:0,0:0:0:0:
395,146,110442,1,10,0:0:0:0:
473,91,110750,2,0,P|491:133|485:173,1,79.9999999999999,6|10,0:0|0:0,0:0:0:0:
423,237,111365,2,0,P|405:279|411:319,1,79.9999999999999,10|10,0:0|0:0,0:0:0:0:
329,366,111981,6,0,P|312:314|312:280,1,79.9999999999999,6|10,0:0|0:1,0:0:0:0:
265,204,112596,2,0,P|285:153|307:127,1,79.9999999999999,2|10,0:0|0:1,0:0:0:0:
288,38,113211,2,0,P|337:84|439:79,1,160,6|2,0:1|0:1,0:0:0:0:
505,32,114134,1,10,0:1:0:0:
511,127,114442,6,0,P|504:171|502:213,1,79.9999999999999,10|10,0:1|0:1,0:0:0:0:
507,302,115058,1,10,0:1:0:0:
421,344,115365,2,0,P|398:340|337:337,1,79.9999999999999,10|6,0:1|0:1,0:0:0:0:
162,266,116288,2,0,P|157:226|148:179,1,79.9999999999999,10|10,0:0|0:0,0:0:0:0:
229,135,116904,6,0,P|228:53|158:11,2,160,6|2|2,0:1|0:1|0:1,0:0:0:0:
320,163,118442,2,0,P|365:151|415:142,1,79.9999999999999,8|2,0:0|0:1,0:0:0:0:
490,119,119058,1,10,0:1:0:0:
494,215,119365,2,0,P|516:255|465:365,1,160,2|2,0:1|0:1,0:0:0:0:
386,375,120288,1,10,0:1:0:0:
308,318,120596,2,0,P|266:312|145:301,1,160,2|2,0:0|0:0,0:0:0:0:
54,319,121519,1,10,0:1:0:0:
32,225,121827,6,0,P|20:175|-13:62,2,160,2|2|2,0:1|0:1|0:1,0:0:0:0:
126,209,123365,2,0,P|177:197|220:184,1,79.9999999999999,8|2,0:0|0:1,0:0:0:0:
277,127,123981,1,10,0:1:0:0:
231,42,124288,2,0,P|304:34|369:102,1,160,2|2,0:1|0:1,0:0:0:0:
454,131,125211,1,10,0:1:0:0:
399,210,125519,2,0,L|387:302,1,79.9999999999999,8|8,0:0|0:0,0:0:0:0:
483,301,126134,2,0,L|495:209,1,79.9999999999999,8|10,0:0|0:1,0:0:0:0:
454,131,126750,6,0,P|394:183|308:165,2,160,6|2|2,0:1|0:1|0:1,0:0:0:0:
444,35,128288,2,0,P|404:26|358:20,1,79.9999999999999,8|2,0:0|0:1,0:0:0:0:
280,67,128904,1,10,0:1:0:0:
188,40,129211,2,0,P|158:75|159:193,1,160,2|2,0:1|0:1,0:0:0:0:
206,265,130134,1,10,0:1:0:0:
192,360,130442,2,0,P|251:344|366:340,1,160,2|2,0:0|0:0,0:0:0:0:
443,356,131365,1,10,0:1:0:0:
508,285,131673,6,0,P|512:236|457:134,2,160,2|2|10,0:1|0:1|0:1,0:0:0:0:
443,356,133211,2,0,P|409:345|355:334,1,79.9999999999999,0|2,0:0|0:1,0:0:0:0:
312,255,133827,1,10,0:1:0:0:
223,290,134134,2,0,L|140:302,1,79.9999999999999,10|8,0:1|0:0,0:0:0:0:
102,214,134750,2,0,L|181:202,1,79.9999999999999,10|10,0:1|0:1,0:0:0:0:
270,167,135365,2,0,P|288:123|255:18,1,160,10|10,0:1|0:1,0:0:0:0:
176,72,136288,1,10,0:1:0:0:
81,53,136596,1,6,0:1:0:0:
256,192,136750,12,4,139058,0:1:0:0:
