osu file format v14

[General]
AudioFilename: audio.mp3
AudioLeadIn: 0
PreviewTime: 87366
Countdown: 0
SampleSet: Normal
StackLeniency: 0.7
Mode: 1
LetterboxInBreaks: 0
WidescreenStoryboard: 0

[Editor]
Bookmarks: 11135,20982,23443,43135,62828,65289,84982,87443,107135,116982,136674,139135
DistanceSpacing: 0.37
BeatDivisor: 4
GridSize: 32
TimelineZoom: 2.2

[Metadata]
Title:sola
TitleUnicode:sola
Artist:nmk
ArtistUnicode:nmk
Creator:Ak1o
Version:Inner Oni
Source:BMS
Tags:dnb
BeatmapID:1562772
BeatmapSetID:740805

[Difficulty]
HPDrainRate:6
CircleSize:2
OverallDifficulty:6.5
ApproachRate:10
SliderMultiplier:1.4
SliderTickRate:1

[Events]
//Background and Video events
0,0,"Konachan.com - 205440 sample.jpg",0,0
//Break Periods
//Storyboard Layer 0 (Background)
//Storyboard Layer 1 (Fail)
//Storyboard Layer 2 (Pass)
//Storyboard Layer 3 (Foreground)
//Storyboard Sound Samples

[TimingPoints]
59,307.692307692308,4,1,0,100,1,8
59,-128.205128205128,4,1,0,100,0,8
18520,-126.582278481013,4,1,0,100,0,8
18597,-125,4,1,0,100,0,8
18674,-123.456790123457,4,1,0,100,0,8
18751,-121.951219512195,4,1,0,100,0,8
18828,-120.481927710843,4,1,0,100,0,8
18905,-119.047619047619,4,1,0,100,0,8
18982,-117.647058823529,4,1,0,100,0,8
19059,-116.279069767442,4,1,0,100,0,8
19135,-114.942528735632,4,1,0,100,0,8
19212,-113.636363636364,4,1,0,100,0,8
19289,-112.359550561798,4,1,0,100,0,8
19366,-111.111111111111,4,1,0,100,0,8
19443,-109.89010989011,4,1,0,100,0,8
19520,-108.695652173913,4,1,0,100,0,8
19597,-107.52688172043,4,1,0,100,0,8
19674,-106.382978723404,4,1,0,100,0,8
19751,-105.263157894737,4,1,0,100,0,8
19828,-104.166666666667,4,1,0,100,0,8
19905,-103.092783505155,4,1,0,100,0,8
19982,-102.040816326531,4,1,0,100,0,8
20059,-101.010101010101,4,1,0,100,0,8
20136,-100,4,1,0,100,0,8
20213,-99.009900990099,4,1,0,100,0,8
20290,-98.0392156862745,4,1,0,100,0,8
20366,-97.0873786407767,4,1,0,100,0,8
20443,-96.1538461538461,4,1,0,100,0,8
20520,-95.2380952380952,4,1,0,100,0,8
20597,-94.3396226415094,4,1,0,100,0,8
20674,-93.4579439252336,4,1,0,100,0,8
20751,-92.5925925925926,4,1,0,100,0,8
20828,-91.743119266055,4,1,0,100,0,8
20905,-90.9090909090909,4,1,0,100,0,8
22212,-91.743119266055,4,1,0,100,0,8
22366,-92.5925925925926,4,1,0,100,0,8
22443,-93.4579439252336,4,1,0,100,0,8
22520,-94.3396226415094,4,1,0,100,0,8
22674,-95.2380952380952,4,1,0,100,0,8
22828,-96.1538461538461,4,1,0,100,0,8
22905,-97.0873786407767,4,1,0,100,0,8
22982,-98.0392156862745,4,1,0,100,0,8
23135,-99.009900990099,4,1,0,100,0,8
23443,-100,4,1,0,100,0,8
86520,-90.9090909090909,4,1,0,100,0,8
86828,-83.3333333333333,4,1,0,100,0,8
87135,-76.9230769230769,4,1,0,100,0,8
87443,-90.9090909090909,4,1,0,100,0,9
107135,-86.9565217391304,4,1,0,100,0,9
116520,-87.719298245614,4,1,0,100,0,9
116597,-88.4955752212389,4,1,0,100,0,9
116674,-89.2857142857143,4,1,0,100,0,9
116828,-90.0900900900901,4,1,0,100,0,9
116982,-90.9090909090909,4,1,0,100,0,8

[HitObjects]
256,192,9905,12,0,10982,0:0:0:0:
256,192,11135,5,4,0:0:0:0:
256,192,11443,1,0,0:0:0:0:
256,192,11597,1,0,0:0:0:0:
256,192,11751,1,8,0:0:0:0:
256,192,12059,1,0,0:0:0:0:
256,192,12366,1,8,0:0:0:0:
256,192,12674,1,8,0:0:0:0:
256,192,12828,1,8,0:0:0:0:
256,192,12982,1,0,0:0:0:0:
256,192,13135,1,0,0:0:0:0:
256,192,13289,1,8,0:0:0:0:
256,192,13597,1,0,0:0:0:0:
256,192,13905,1,8,0:0:0:0:
256,192,14059,1,0,0:0:0:0:
256,192,14212,1,8,0:0:0:0:
256,192,14520,1,0,0:0:0:0:
256,192,14674,1,8,0:0:0:0:
256,192,14982,1,0,0:0:0:0:
256,192,15135,1,8,0:0:0:0:
256,192,15289,1,0,0:0:0:0:
256,192,15443,1,8,0:0:0:0:
256,192,15597,1,8,0:0:0:0:
256,192,15751,1,0,0:0:0:0:
256,192,16059,1,12,0:0:0:0:
256,192,16366,1,0,0:0:0:0:
256,192,16520,1,0,0:0:0:0:
256,192,16674,1,8,0:0:0:0:
256,192,16828,1,0,0:0:0:0:
256,192,16982,1,0,0:0:0:0:
256,192,17135,1,8,0:0:0:0:
256,192,17289,1,0,0:0:0:0:
256,192,17597,1,0,0:0:0:0:
256,192,17751,1,0,0:0:0:0:
256,192,17905,1,8,0:0:0:0:
256,192,18059,1,0,0:0:0:0:
256,192,18212,1,8,0:0:0:0:
256,192,18366,1,8,0:0:0:0:
256,192,18520,1,8,0:0:0:0:
256,192,18597,1,0,0:0:0:0:
256,192,18674,1,0,0:0:0:0:
256,192,18751,1,0,0:0:0:0:
256,192,18828,1,0,0:0:0:0:
256,192,18905,1,0,0:0:0:0:
256,192,18982,1,0,0:0:0:0:
256,192,19059,1,0,0:0:0:0:
256,192,19135,1,8,0:0:0:0:
256,192,19212,1,8,0:0:0:0:
256,192,19289,1,0,0:0:0:0:
256,192,19366,1,0,0:0:0:0:
256,192,19443,1,0,0:0:0:0:
256,192,19520,1,0,0:0:0:0:
256,192,19597,1,0,0:0:0:0:
256,192,19674,1,0,0:0:0:0:
256,192,19751,1,8,0:0:0:0:
256,192,19828,1,8,0:0:0:0:
256,192,19905,1,8,0:0:0:0:
256,192,19982,1,8,0:0:0:0:
256,192,20059,1,0,0:0:0:0:
256,192,20135,1,0,0:0:0:0:
256,192,20212,1,0,0:0:0:0:
256,192,20289,1,0,0:0:0:0:
256,192,20366,1,8,0:0:0:0:
256,192,20443,1,8,0:0:0:0:
256,192,20520,1,0,0:0:0:0:
256,192,20597,1,0,0:0:0:0:
256,192,20674,1,8,0:0:0:0:
256,192,20751,1,0,0:0:0:0:
256,192,20828,1,8,0:0:0:0:
256,192,20905,1,8,0:0:0:0:
256,192,20982,2,0,L|416:192,3,154.000004699707
256,192,22212,1,8,0:0:0:0:
256,192,22366,1,8,0:0:0:0:
256,192,22443,1,0,0:0:0:0:
256,192,22520,1,0,0:0:0:0:
256,192,22674,1,8,0:0:0:0:
256,192,22828,1,0,0:0:0:0:
256,192,22905,1,0,0:0:0:0:
256,192,22982,1,0,0:0:0:0:
256,192,23135,1,12,0:0:0:0:
256,192,23443,5,12,0:0:0:0:
256,192,23597,1,0,0:0:0:0:
256,192,23751,1,8,0:0:0:0:
256,192,23905,1,0,0:0:0:0:
256,192,23982,1,0,0:0:0:0:
256,192,24059,1,8,0:0:0:0:
256,192,24135,1,8,0:0:0:0:
256,192,24212,1,0,0:0:0:0:
256,192,24366,1,8,0:0:0:0:
256,192,24520,1,8,0:0:0:0:
256,192,24597,1,0,0:0:0:0:
256,192,24674,1,0,0:0:0:0:
256,192,24828,1,0,0:0:0:0:
256,192,24905,1,0,0:0:0:0:
256,192,24982,1,8,0:0:0:0:
256,192,25135,1,8,0:0:0:0:
256,192,25212,1,0,0:0:0:0:
256,192,25289,1,8,0:0:0:0:
256,192,25366,1,8,0:0:0:0:
256,192,25443,1,0,0:0:0:0:
256,192,25597,1,8,0:0:0:0:
256,192,25674,1,8,0:0:0:0:
256,192,25751,1,0,0:0:0:0:
256,192,25905,1,0,0:0:0:0:
256,192,26059,1,0,0:0:0:0:
256,192,26212,1,8,0:0:0:0:
256,192,26366,1,0,0:0:0:0:
256,192,26443,1,0,0:0:0:0:
256,192,26520,1,8,0:0:0:0:
256,192,26597,1,8,0:0:0:0:
256,192,26674,1,0,0:0:0:0:
256,192,26828,1,8,0:0:0:0:
256,192,26905,1,0,0:0:0:0:
256,192,26982,1,8,0:0:0:0:
256,192,27135,1,0,0:0:0:0:
256,192,27289,1,0,0:0:0:0:
256,192,27366,1,0,0:0:0:0:
256,192,27443,1,8,0:0:0:0:
256,192,27597,1,0,0:0:0:0:
256,192,27674,1,0,0:0:0:0:
256,192,27751,1,8,0:0:0:0:
256,192,27905,1,0,0:0:0:0:
256,192,27982,1,0,0:0:0:0:
256,192,28059,1,8,0:0:0:0:
256,192,28135,1,0,0:0:0:0:
256,192,28212,1,8,0:0:0:0:
256,192,28289,1,8,0:0:0:0:
256,192,28366,1,0,0:0:0:0:
256,192,28520,1,0,0:0:0:0:
256,192,28674,1,8,0:0:0:0:
256,192,28828,1,0,0:0:0:0:
256,192,28905,1,0,0:0:0:0:
256,192,28982,1,8,0:0:0:0:
256,192,29059,1,8,0:0:0:0:
256,192,29135,1,0,0:0:0:0:
256,192,29289,1,8,0:0:0:0:
256,192,29443,1,8,0:0:0:0:
256,192,29520,1,0,0:0:0:0:
256,192,29597,1,0,0:0:0:0:
256,192,29751,1,0,0:0:0:0:
256,192,29828,1,0,0:0:0:0:
256,192,29905,1,8,0:0:0:0:
256,192,30059,1,0,0:0:0:0:
256,192,30135,1,0,0:0:0:0:
256,192,30212,1,8,0:0:0:0:
256,192,30289,1,0,0:0:0:0:
256,192,30366,1,8,0:0:0:0:
256,192,30520,1,8,0:0:0:0:
256,192,30597,1,8,0:0:0:0:
256,192,30674,1,0,0:0:0:0:
256,192,30828,1,0,0:0:0:0:
256,192,30982,1,0,0:0:0:0:
256,192,31135,1,8,0:0:0:0:
256,192,31289,1,0,0:0:0:0:
256,192,31366,1,0,0:0:0:0:
256,192,31443,1,8,0:0:0:0:
256,192,31520,1,8,0:0:0:0:
256,192,31597,1,0,0:0:0:0:
256,192,31751,1,8,0:0:0:0:
256,192,31828,1,0,0:0:0:0:
256,192,31905,1,8,0:0:0:0:
256,192,31982,1,0,0:0:0:0:
256,192,32059,1,0,0:0:0:0:
256,192,32212,1,0,0:0:0:0:
256,192,32289,1,0,0:0:0:0:
256,192,32366,1,8,0:0:0:0:
256,192,32443,1,8,0:0:0:0:
256,192,32520,1,0,0:0:0:0:
256,192,32597,1,0,0:0:0:0:
256,192,32674,1,8,0:0:0:0:
256,192,32751,1,0,0:0:0:0:
256,192,32828,1,0,0:0:0:0:
256,192,32905,1,8,0:0:0:0:
256,192,32982,1,8,0:0:0:0:
256,192,33135,1,0,0:0:0:0:
256,192,33289,1,12,0:0:0:0:
256,192,33443,1,0,0:0:0:0:
256,192,33597,1,8,0:0:0:0:
256,192,33674,1,8,0:0:0:0:
256,192,33751,1,0,0:0:0:0:
256,192,33905,1,8,0:0:0:0:
256,192,34059,1,0,0:0:0:0:
256,192,34135,1,0,0:0:0:0:
256,192,34212,1,8,0:0:0:0:
256,192,34289,1,8,0:0:0:0:
256,192,34366,1,0,0:0:0:0:
256,192,34520,1,0,0:0:0:0:
256,192,34674,1,0,0:0:0:0:
256,192,34751,1,0,0:0:0:0:
256,192,34828,1,8,0:0:0:0:
256,192,34982,1,0,0:0:0:0:
256,192,35135,1,8,0:0:0:0:
256,192,35212,1,0,0:0:0:0:
256,192,35289,1,0,0:0:0:0:
256,192,35366,1,0,0:0:0:0:
256,192,35443,1,8,0:0:0:0:
256,192,35597,1,0,0:0:0:0:
256,192,35751,1,8,0:0:0:0:
256,192,35905,1,0,0:0:0:0:
256,192,36059,1,8,0:0:0:0:
256,192,36135,1,8,0:0:0:0:
256,192,36212,1,0,0:0:0:0:
256,192,36366,1,8,0:0:0:0:
256,192,36520,1,0,0:0:0:0:
256,192,36597,1,0,0:0:0:0:
256,192,36674,1,8,0:0:0:0:
256,192,36751,1,0,0:0:0:0:
256,192,36828,1,8,0:0:0:0:
256,192,36905,1,0,0:0:0:0:
256,192,36982,1,0,0:0:0:0:
256,192,37135,1,0,0:0:0:0:
256,192,37289,1,8,0:0:0:0:
256,192,37366,1,8,0:0:0:0:
256,192,37443,1,0,0:0:0:0:
256,192,37597,1,8,0:0:0:0:
256,192,37674,1,0,0:0:0:0:
256,192,37751,1,0,0:0:0:0:
256,192,37828,1,0,0:0:0:0:
256,192,37905,1,8,0:0:0:0:
256,192,37982,1,8,0:0:0:0:
256,192,38059,1,8,0:0:0:0:
256,192,38135,1,0,0:0:0:0:
256,192,38212,1,8,0:0:0:0:
256,192,38366,1,0,0:0:0:0:
256,192,38520,1,8,0:0:0:0:
256,192,38597,1,8,0:0:0:0:
256,192,38674,1,0,0:0:0:0:
256,192,38828,1,8,0:0:0:0:
256,192,38982,1,0,0:0:0:0:
256,192,39059,1,0,0:0:0:0:
256,192,39135,1,8,0:0:0:0:
256,192,39212,1,8,0:0:0:0:
256,192,39289,1,0,0:0:0:0:
256,192,39443,1,0,0:0:0:0:
256,192,39597,1,0,0:0:0:0:
256,192,39674,1,0,0:0:0:0:
256,192,39751,1,8,0:0:0:0:
256,192,39905,1,0,0:0:0:0:
256,192,40058,1,8,0:0:0:0:
256,192,40135,1,8,0:0:0:0:
256,192,40212,1,0,0:0:0:0:
256,192,40289,1,0,0:0:0:0:
256,192,40366,1,8,0:0:0:0:
256,192,40520,1,8,0:0:0:0:
256,192,40674,1,0,0:0:0:0:
256,192,40828,1,0,0:0:0:0:
256,192,40982,1,8,0:0:0:0:
256,192,41135,1,8,0:0:0:0:
256,192,41212,1,0,0:0:0:0:
256,192,41289,1,0,0:0:0:0:
256,192,41443,1,0,0:0:0:0:
256,192,41597,1,8,0:0:0:0:
256,192,41751,1,0,0:0:0:0:
256,192,41828,1,0,0:0:0:0:
256,192,41905,1,8,0:0:0:0:
256,192,41982,1,8,0:0:0:0:
256,192,42059,1,0,0:0:0:0:
256,192,42135,1,0,0:0:0:0:
256,192,42212,1,8,0:0:0:0:
256,192,42366,1,8,0:0:0:0:
256,192,42443,1,0,0:0:0:0:
256,192,42520,1,0,0:0:0:0:
256,192,42597,1,8,0:0:0:0:
256,192,42674,1,8,0:0:0:0:
256,192,42751,1,0,0:0:0:0:
256,192,42828,1,8,0:0:0:0:
256,192,42982,1,8,0:0:0:0:
256,192,43135,5,4,0:0:0:0:
256,192,43289,1,0,0:0:0:0:
256,192,43443,1,8,0:0:0:0:
256,192,43520,1,8,0:0:0:0:
256,192,43597,1,0,0:0:0:0:
256,192,43751,1,8,0:0:0:0:
256,192,43905,1,0,0:0:0:0:
256,192,44059,1,8,0:0:0:0:
256,192,44135,1,0,0:0:0:0:
256,192,44212,1,0,0:0:0:0:
256,192,44366,1,8,0:0:0:0:
256,192,44520,1,0,0:0:0:0:
256,192,44674,1,8,0:0:0:0:
256,192,44828,1,0,0:0:0:0:
256,192,44905,1,0,0:0:0:0:
256,192,44982,1,8,0:0:0:0:
256,192,45135,1,0,0:0:0:0:
256,192,45212,1,0,0:0:0:0:
256,192,45289,1,8,0:0:0:0:
256,192,45443,1,0,0:0:0:0:
256,192,45597,1,8,0:0:0:0:
256,192,45751,1,0,0:0:0:0:
256,192,45905,1,8,0:0:0:0:
256,192,45982,1,8,0:0:0:0:
256,192,46059,1,0,0:0:0:0:
256,192,46212,1,8,0:0:0:0:
256,192,46366,1,0,0:0:0:0:
256,192,46443,1,0,0:0:0:0:
256,192,46520,1,8,0:0:0:0:
256,192,46597,1,0,0:0:0:0:
256,192,46674,1,8,0:0:0:0:
256,192,46828,1,0,0:0:0:0:
256,192,46982,1,0,0:0:0:0:
256,192,47059,1,0,0:0:0:0:
256,192,47135,1,8,0:0:0:0:
256,192,47289,1,0,0:0:0:0:
256,192,47366,1,0,0:0:0:0:
256,192,47443,1,8,0:0:0:0:
256,192,47520,1,0,0:0:0:0:
256,192,47597,1,8,0:0:0:0:
256,192,47674,1,8,0:0:0:0:
256,192,47751,1,8,0:0:0:0:
256,192,47828,1,0,0:0:0:0:
256,192,47905,1,8,0:0:0:0:
256,192,47982,1,8,0:0:0:0:
256,192,48059,1,0,0:0:0:0:
256,192,48212,1,0,0:0:0:0:
256,192,48366,1,8,0:0:0:0:
256,192,48443,1,8,0:0:0:0:
256,192,48520,1,0,0:0:0:0:
256,192,48674,1,8,0:0:0:0:
256,192,48828,1,0,0:0:0:0:
256,192,48905,1,0,0:0:0:0:
256,192,48982,1,8,0:0:0:0:
256,192,49059,1,0,0:0:0:0:
256,192,49135,1,0,0:0:0:0:
256,192,49289,1,8,0:0:0:0:
256,192,49443,1,0,0:0:0:0:
256,192,49597,1,8,0:0:0:0:
256,192,49751,1,0,0:0:0:0:
256,192,49828,1,0,0:0:0:0:
256,192,49905,1,8,0:0:0:0:
256,192,49982,1,8,0:0:0:0:
256,192,50059,1,0,0:0:0:0:
256,192,50135,1,0,0:0:0:0:
256,192,50212,1,8,0:0:0:0:
256,192,50366,1,0,0:0:0:0:
256,192,50520,1,8,0:0:0:0:
256,192,50674,1,0,0:0:0:0:
256,192,50828,1,8,0:0:0:0:
256,192,50905,1,8,0:0:0:0:
256,192,50982,1,0,0:0:0:0:
256,192,51135,1,8,0:0:0:0:
256,192,51289,1,0,0:0:0:0:
256,192,51366,1,0,0:0:0:0:
256,192,51443,1,8,0:0:0:0:
256,192,51520,1,0,0:0:0:0:
256,192,51597,1,8,0:0:0:0:
256,192,51674,1,8,0:0:0:0:
256,192,51751,1,0,0:0:0:0:
256,192,51905,1,0,0:0:0:0:
256,192,51982,1,0,0:0:0:0:
256,192,52059,1,8,0:0:0:0:
256,192,52135,1,8,0:0:0:0:
256,192,52212,1,0,0:0:0:0:
256,192,52289,1,0,0:0:0:0:
256,192,52366,1,8,0:0:0:0:
256,192,52443,1,0,0:0:0:0:
256,192,52520,1,0,0:0:0:0:
256,192,52597,1,8,0:0:0:0:
256,192,52674,1,8,0:0:0:0:
256,192,52751,1,0,0:0:0:0:
256,192,52828,1,0,0:0:0:0:
256,192,52982,1,12,0:0:0:0:
256,192,53135,1,0,0:0:0:0:
256,192,53289,1,8,0:0:0:0:
256,192,53366,1,8,0:0:0:0:
256,192,53443,1,0,0:0:0:0:
256,192,53520,1,0,0:0:0:0:
256,192,53597,1,8,0:0:0:0:
256,192,53751,1,0,0:0:0:0:
256,192,53828,1,0,0:0:0:0:
256,192,53905,1,8,0:0:0:0:
256,192,53982,1,8,0:0:0:0:
256,192,54059,1,0,0:0:0:0:
256,192,54212,1,8,0:0:0:0:
256,192,54366,1,0,0:0:0:0:
256,192,54520,1,8,0:0:0:0:
256,192,54674,1,0,0:0:0:0:
256,192,54751,1,0,0:0:0:0:
256,192,54828,1,8,0:0:0:0:
256,192,54905,1,0,0:0:0:0:
256,192,54982,1,0,0:0:0:0:
256,192,55059,1,0,0:0:0:0:
256,192,55135,1,8,0:0:0:0:
256,192,55212,1,8,0:0:0:0:
256,192,55289,1,0,0:0:0:0:
256,192,55443,1,8,0:0:0:0:
256,192,55597,1,0,0:0:0:0:
256,192,55751,1,8,0:0:0:0:
256,192,55828,1,0,0:0:0:0:
256,192,55905,1,0,0:0:0:0:
256,192,55982,1,0,0:0:0:0:
256,192,56059,1,8,0:0:0:0:
256,192,56212,1,0,0:0:0:0:
256,192,56289,1,0,0:0:0:0:
256,192,56366,1,8,0:0:0:0:
256,192,56443,1,0,0:0:0:0:
256,192,56520,1,8,0:0:0:0:
256,192,56674,1,0,0:0:0:0:
256,192,56828,1,0,0:0:0:0:
256,192,56905,1,0,0:0:0:0:
256,192,56982,1,8,0:0:0:0:
256,192,57059,1,8,0:0:0:0:
256,192,57135,1,0,0:0:0:0:
256,192,57212,1,0,0:0:0:0:
256,192,57289,1,8,0:0:0:0:
256,192,57443,1,0,0:0:0:0:
256,192,57520,1,0,0:0:0:0:
256,192,57597,1,8,0:0:0:0:
256,192,57674,1,0,0:0:0:0:
256,192,57751,1,8,0:0:0:0:
256,192,57828,1,8,0:0:0:0:
256,192,57905,1,8,0:0:0:0:
256,192,58059,1,0,0:0:0:0:
256,192,58212,1,8,0:0:0:0:
256,192,58289,1,8,0:0:0:0:
256,192,58366,1,0,0:0:0:0:
256,192,58520,1,8,0:0:0:0:
256,192,58597,1,0,0:0:0:0:
256,192,58674,1,0,0:0:0:0:
256,192,58751,1,0,0:0:0:0:
256,192,58828,1,8,0:0:0:0:
256,192,58905,1,8,0:0:0:0:
256,192,58982,1,0,0:0:0:0:
256,192,59059,1,0,0:0:0:0:
256,192,59135,1,8,0:0:0:0:
256,192,59289,1,0,0:0:0:0:
256,192,59443,1,8,0:0:0:0:
256,192,59520,1,0,0:0:0:0:
256,192,59597,1,0,0:0:0:0:
256,192,59751,1,8,0:0:0:0:
256,192,59828,1,0,0:0:0:0:
256,192,59905,1,0,0:0:0:0:
256,192,59982,1,0,0:0:0:0:
256,192,60059,1,8,0:0:0:0:
256,192,60135,1,8,0:0:0:0:
256,192,60212,1,8,0:0:0:0:
256,192,60289,1,0,0:0:0:0:
256,192,60366,1,8,0:0:0:0:
256,192,60520,1,0,0:0:0:0:
256,192,60597,1,0,0:0:0:0:
256,192,60674,1,0,0:0:0:0:
256,192,60828,1,0,0:0:0:0:
256,192,60982,1,8,0:0:0:0:
256,192,61135,1,0,0:0:0:0:
256,192,61289,1,8,0:0:0:0:
256,192,61366,1,8,0:0:0:0:
256,192,61443,1,0,0:0:0:0:
256,192,61520,1,0,0:0:0:0:
256,192,61597,1,0,0:0:0:0:
256,192,61751,1,0,0:0:0:0:
256,192,61905,1,0,0:0:0:0:
256,192,62059,1,8,0:0:0:0:
256,192,62135,1,0,0:0:0:0:
256,192,62212,1,0,0:0:0:0:
256,192,62366,1,0,0:0:0:0:
256,192,62520,1,8,0:0:0:0:
256,192,62828,1,12,0:0:0:0:
256,192,62982,1,8,0:0:0:0:
256,192,63059,1,8,0:0:0:0:
256,192,63135,1,0,0:0:0:0:
256,192,63289,1,8,0:0:0:0:
256,192,63443,1,0,0:0:0:0:
256,192,63520,1,8,0:0:0:0:
256,192,63597,1,0,0:0:0:0:
256,192,63674,1,0,0:0:0:0:
256,192,63751,1,8,0:0:0:0:
256,192,63905,1,8,0:0:0:0:
256,192,63982,1,8,0:0:0:0:
256,192,64059,1,0,0:0:0:0:
256,192,64135,1,0,0:0:0:0:
256,192,64212,1,8,0:0:0:0:
256,192,64289,1,8,0:0:0:0:
256,192,64366,1,0,0:0:0:0:
256,192,64443,1,8,0:0:0:0:
256,192,64520,1,0,0:0:0:0:
256,192,64597,1,0,0:0:0:0:
256,192,64674,1,8,0:0:0:0:
256,192,64751,1,8,0:0:0:0:
256,192,64828,1,0,0:0:0:0:
256,192,64879,1,0,0:0:0:0:
256,192,64930,1,0,0:0:0:0:
256,192,64982,1,8,0:0:0:0:
256,192,65135,1,8,0:0:0:0:
256,192,65289,5,12,0:0:0:0:
256,192,65443,1,0,0:0:0:0:
256,192,65520,1,0,0:0:0:0:
256,192,65597,1,8,0:0:0:0:
256,192,65751,1,8,0:0:0:0:
256,192,65905,1,0,0:0:0:0:
256,192,66059,1,0,0:0:0:0:
256,192,66135,1,0,0:0:0:0:
256,192,66212,1,8,0:0:0:0:
256,192,66366,1,0,0:0:0:0:
256,192,66520,1,8,0:0:0:0:
256,192,66674,1,0,0:0:0:0:
256,192,66751,1,0,0:0:0:0:
256,192,66828,1,0,0:0:0:0:
256,192,66982,1,8,0:0:0:0:
256,192,67059,1,0,0:0:0:0:
256,192,67135,1,8,0:0:0:0:
256,192,67289,1,0,0:0:0:0:
256,192,67443,1,8,0:0:0:0:
256,192,67520,1,0,0:0:0:0:
256,192,67597,1,0,0:0:0:0:
256,192,67674,1,0,0:0:0:0:
256,192,67751,1,8,0:0:0:0:
256,192,67905,1,0,0:0:0:0:
256,192,68059,1,0,0:0:0:0:
256,192,68212,1,8,0:0:0:0:
256,192,68289,1,0,0:0:0:0:
256,192,68366,1,8,0:0:0:0:
256,192,68443,1,8,0:0:0:0:
256,192,68520,1,0,0:0:0:0:
256,192,68597,1,0,0:0:0:0:
256,192,68674,1,8,0:0:0:0:
256,192,68828,1,0,0:0:0:0:
256,192,68982,1,8,0:0:0:0:
256,192,69135,1,8,0:0:0:0:
256,192,69212,1,0,0:0:0:0:
256,192,69289,1,0,0:0:0:0:
256,192,69443,1,0,0:0:0:0:
256,192,69597,1,8,0:0:0:0:
256,192,69751,1,8,0:0:0:0:
256,192,69828,1,8,0:0:0:0:
256,192,69905,1,0,0:0:0:0:
256,192,69982,1,8,0:0:0:0:
256,192,70059,1,8,0:0:0:0:
256,192,70135,1,8,0:0:0:0:
256,192,70212,1,0,0:0:0:0:
256,192,70366,1,0,0:0:0:0:
256,192,70443,1,0,0:0:0:0:
256,192,70520,1,8,0:0:0:0:
256,192,70674,1,8,0:0:0:0:
256,192,70828,1,0,0:0:0:0:
256,192,70982,1,0,0:0:0:0:
256,192,71059,1,0,0:0:0:0:
256,192,71135,1,8,0:0:0:0:
256,192,71289,1,0,0:0:0:0:
256,192,71443,1,8,0:0:0:0:
256,192,71597,1,0,0:0:0:0:
256,192,71674,1,0,0:0:0:0:
256,192,71751,1,0,0:0:0:0:
256,192,71905,1,0,0:0:0:0:
256,192,71982,1,0,0:0:0:0:
256,192,72059,1,8,0:0:0:0:
256,192,72212,1,0,0:0:0:0:
256,192,72366,1,8,0:0:0:0:
256,192,72443,1,8,0:0:0:0:
256,192,72520,1,0,0:0:0:0:
256,192,72597,1,0,0:0:0:0:
256,192,72674,1,8,0:0:0:0:
256,192,72828,1,0,0:0:0:0:
256,192,72982,1,0,0:0:0:0:
256,192,73135,1,8,0:0:0:0:
256,192,73212,1,0,0:0:0:0:
256,192,73289,1,8,0:0:0:0:
256,192,73366,1,8,0:0:0:0:
256,192,73443,1,0,0:0:0:0:
256,192,73520,1,0,0:0:0:0:
256,192,73597,1,8,0:0:0:0:
256,192,73751,1,0,0:0:0:0:
256,192,73905,1,8,0:0:0:0:
256,192,73982,1,8,0:0:0:0:
256,192,74059,1,0,0:0:0:0:
256,192,74135,1,0,0:0:0:0:
256,192,74212,1,8,0:0:0:0:
256,192,74289,1,0,0:0:0:0:
256,192,74366,1,0,0:0:0:0:
256,192,74520,1,0,0:0:0:0:
256,192,74597,1,0,0:0:0:0:
256,192,74674,1,8,0:0:0:0:
256,192,74751,1,8,0:0:0:0:
256,192,74828,1,0,0:0:0:0:
256,192,74905,1,8,0:0:0:0:
256,192,74982,1,8,0:0:0:0:
256,192,75135,1,12,0:0:0:0:
256,192,75289,1,0,0:0:0:0:
256,192,75366,1,0,0:0:0:0:
256,192,75443,1,8,0:0:0:0:
256,192,75520,1,0,0:0:0:0:
256,192,75597,1,8,0:0:0:0:
256,192,75751,1,0,0:0:0:0:
256,192,75905,1,0,0:0:0:0:
256,192,75982,1,0,0:0:0:0:
256,192,76059,1,8,0:0:0:0:
256,192,76135,1,8,0:0:0:0:
256,192,76212,1,0,0:0:0:0:
256,192,76366,1,8,0:0:0:0:
256,192,76520,1,0,0:0:0:0:
256,192,76597,1,0,0:0:0:0:
256,192,76674,1,0,0:0:0:0:
256,192,76828,1,8,0:0:0:0:
256,192,76905,1,0,0:0:0:0:
256,192,76982,1,8,0:0:0:0:
256,192,77135,1,0,0:0:0:0:
256,192,77289,1,8,0:0:0:0:
256,192,77366,1,0,0:0:0:0:
256,192,77443,1,0,0:0:0:0:
256,192,77520,1,0,0:0:0:0:
256,192,77597,1,8,0:0:0:0:
256,192,77751,1,0,0:0:0:0:
256,192,77905,1,8,0:0:0:0:
256,192,78059,1,8,0:0:0:0:
256,192,78135,1,0,0:0:0:0:
256,192,78212,1,8,0:0:0:0:
256,192,78289,1,8,0:0:0:0:
256,192,78366,1,0,0:0:0:0:
256,192,78443,1,0,0:0:0:0:
256,192,78520,1,8,0:0:0:0:
256,192,78674,1,0,0:0:0:0:
256,192,78828,1,8,0:0:0:0:
256,192,78905,1,0,0:0:0:0:
256,192,78982,1,8,0:0:0:0:
256,192,79058,1,0,0:0:0:0:
256,192,79135,1,0,0:0:0:0:
256,192,79289,1,0,0:0:0:0:
256,192,79443,1,8,0:0:0:0:
256,192,79520,1,0,0:0:0:0:
256,192,79597,1,8,0:0:0:0:
256,192,79674,1,8,0:0:0:0:
256,192,79751,1,0,0:0:0:0:
256,192,79828,1,8,0:0:0:0:
256,192,79905,1,8,0:0:0:0:
256,192,79981,1,8,0:0:0:0:
256,192,80058,1,0,0:0:0:0:
256,192,80212,1,0,0:0:0:0:
256,192,80289,1,0,0:0:0:0:
256,192,80366,1,8,0:0:0:0:
256,192,80443,1,0,0:0:0:0:
256,192,80520,1,8,0:0:0:0:
256,192,80674,1,0,0:0:0:0:
256,192,80828,1,0,0:0:0:0:
256,192,80905,1,0,0:0:0:0:
256,192,80982,1,8,0:0:0:0:
256,192,81059,1,8,0:0:0:0:
256,192,81135,1,0,0:0:0:0:
256,192,81289,1,8,0:0:0:0:
256,192,81443,1,0,0:0:0:0:
256,192,81520,1,0,0:0:0:0:
256,192,81597,1,0,0:0:0:0:
256,192,81751,1,0,0:0:0:0:
256,192,81828,1,0,0:0:0:0:
256,192,81905,1,8,0:0:0:0:
256,192,82059,1,0,0:0:0:0:
256,192,82135,1,0,0:0:0:0:
256,192,82212,1,8,0:0:0:0:
256,192,82289,1,8,0:0:0:0:
256,192,82366,1,0,0:0:0:0:
256,192,82443,1,0,0:0:0:0:
256,192,82520,1,8,0:0:0:0:
256,192,82674,1,0,0:0:0:0:
256,192,82828,1,8,0:0:0:0:
256,192,82982,1,0,0:0:0:0:
256,192,83059,1,0,0:0:0:0:
256,192,83135,1,8,0:0:0:0:
256,192,83212,1,0,0:0:0:0:
256,192,83289,1,8,0:0:0:0:
256,192,83366,1,0,0:0:0:0:
256,192,83443,1,0,0:0:0:0:
256,192,83520,1,0,0:0:0:0:
256,192,83597,1,8,0:0:0:0:
256,192,83674,1,0,0:0:0:0:
256,192,83751,1,8,0:0:0:0:
256,192,83905,1,8,0:0:0:0:
256,192,83982,1,8,0:0:0:0:
256,192,84059,1,0,0:0:0:0:
256,192,84135,1,0,0:0:0:0:
256,192,84212,1,8,0:0:0:0:
256,192,84289,1,0,0:0:0:0:
256,192,84366,1,8,0:0:0:0:
256,192,84443,1,8,0:0:0:0:
256,192,84520,1,0,0:0:0:0:
256,192,84597,1,0,0:0:0:0:
256,192,84674,1,8,0:0:0:0:
256,192,84828,1,8,0:0:0:0:
256,192,84982,1,4,0:0:0:0:
256,192,85135,2,0,L|352:192,6,70
256,192,86212,1,0,0:0:0:0:
256,192,86520,1,8,0:0:0:0:
256,192,86828,1,0,0:0:0:0:
256,192,87135,1,8,0:0:0:0:
256,192,87443,5,12,0:0:0:0:
256,192,87597,1,8,0:0:0:0:
256,192,87674,1,8,0:0:0:0:
256,192,87751,1,0,0:0:0:0:
256,192,87905,1,0,0:0:0:0:
256,192,87982,1,0,0:0:0:0:
256,192,88059,1,8,0:0:0:0:
256,192,88212,1,8,0:0:0:0:
256,192,88289,1,8,0:0:0:0:
256,192,88366,1,0,0:0:0:0:
256,192,88520,1,0,0:0:0:0:
256,192,88597,1,0,0:0:0:0:
256,192,88674,1,8,0:0:0:0:
256,192,88751,1,0,0:0:0:0:
256,192,88828,1,8,0:0:0:0:
256,192,88905,1,8,0:0:0:0:
256,192,88982,1,0,0:0:0:0:
256,192,89135,1,8,0:0:0:0:
256,192,89212,1,8,0:0:0:0:
256,192,89289,1,0,0:0:0:0:
256,192,89366,1,0,0:0:0:0:
256,192,89443,1,8,0:0:0:0:
256,192,89520,1,8,0:0:0:0:
256,192,89597,1,0,0:0:0:0:
256,192,89751,1,0,0:0:0:0:
256,192,89905,1,8,0:0:0:0:
256,192,89982,1,8,0:0:0:0:
256,192,90059,1,8,0:0:0:0:
256,192,90212,1,0,0:0:0:0:
256,192,90289,1,0,0:0:0:0:
256,192,90366,1,0,0:0:0:0:
256,192,90520,1,8,0:0:0:0:
256,192,90597,1,8,0:0:0:0:
256,192,90674,1,8,0:0:0:0:
256,192,90828,1,0,0:0:0:0:
256,192,90905,1,0,0:0:0:0:
256,192,90982,1,8,0:0:0:0:
256,192,91059,1,0,0:0:0:0:
256,192,91135,1,8,0:0:0:0:
256,192,91289,1,0,0:0:0:0:
256,192,91366,1,0,0:0:0:0:
256,192,91443,1,8,0:0:0:0:
256,192,91597,1,0,0:0:0:0:
256,192,91674,1,8,0:0:0:0:
256,192,91751,1,0,0:0:0:0:
256,192,91828,1,0,0:0:0:0:
256,192,91905,1,8,0:0:0:0:
256,192,91982,1,8,0:0:0:0:
256,192,92059,1,0,0:0:0:0:
256,192,92135,1,8,0:0:0:0:
256,192,92212,1,0,0:0:0:0:
256,192,92289,1,0,0:0:0:0:
256,192,92366,1,8,0:0:0:0:
256,192,92520,1,8,0:0:0:0:
256,192,92597,1,8,0:0:0:0:
256,192,92674,1,0,0:0:0:0:
256,192,92828,1,0,0:0:0:0:
256,192,92905,1,0,0:0:0:0:
256,192,92982,1,8,0:0:0:0:
256,192,93135,1,8,0:0:0:0:
256,192,93212,1,8,0:0:0:0:
256,192,93289,1,0,0:0:0:0:
256,192,93443,1,0,0:0:0:0:
256,192,93520,1,0,0:0:0:0:
256,192,93597,1,8,0:0:0:0:
256,192,93674,1,0,0:0:0:0:
256,192,93751,1,8,0:0:0:0:
256,192,93828,1,8,0:0:0:0:
256,192,93905,1,8,0:0:0:0:
256,192,94059,1,8,0:0:0:0:
256,192,94135,1,0,0:0:0:0:
256,192,94212,1,8,0:0:0:0:
256,192,94289,1,0,0:0:0:0:
256,192,94366,1,8,0:0:0:0:
256,192,94443,1,8,0:0:0:0:
256,192,94520,1,0,0:0:0:0:
256,192,94674,1,0,0:0:0:0:
256,192,94828,1,8,0:0:0:0:
256,192,94905,1,8,0:0:0:0:
256,192,94982,1,8,0:0:0:0:
256,192,95135,1,0,0:0:0:0:
256,192,95212,1,0,0:0:0:0:
256,192,95289,1,0,0:0:0:0:
256,192,95443,1,8,0:0:0:0:
256,192,95520,1,8,0:0:0:0:
256,192,95597,1,8,0:0:0:0:
256,192,95751,1,0,0:0:0:0:
256,192,95828,1,0,0:0:0:0:
256,192,95905,1,8,0:0:0:0:
256,192,95982,1,0,0:0:0:0:
256,192,96059,1,8,0:0:0:0:
256,192,96135,1,8,0:0:0:0:
256,192,96212,1,0,0:0:0:0:
256,192,96289,1,0,0:0:0:0:
256,192,96366,1,8,0:0:0:0:
256,192,96443,1,0,0:0:0:0:
256,192,96520,1,8,0:0:0:0:
256,192,96597,1,8,0:0:0:0:
256,192,96674,1,8,0:0:0:0:
256,192,96751,1,0,0:0:0:0:
256,192,96828,1,8,0:0:0:0:
256,192,96905,1,8,0:0:0:0:
256,192,96982,1,0,0:0:0:0:
256,192,97059,1,8,0:0:0:0:
256,192,97135,1,8,0:0:0:0:
256,192,97289,1,12,0:0:0:0:
256,192,97443,1,8,0:0:0:0:
256,192,97520,1,0,0:0:0:0:
256,192,97597,1,0,0:0:0:0:
256,192,97751,1,0,0:0:0:0:
256,192,97828,1,0,0:0:0:0:
256,192,97905,1,8,0:0:0:0:
256,192,98059,1,8,0:0:0:0:
256,192,98135,1,0,0:0:0:0:
256,192,98212,1,0,0:0:0:0:
256,192,98366,1,0,0:0:0:0:
256,192,98443,1,0,0:0:0:0:
256,192,98520,1,8,0:0:0:0:
256,192,98597,1,0,0:0:0:0:
256,192,98674,1,0,0:0:0:0:
256,192,98751,1,8,0:0:0:0:
256,192,98828,1,8,0:0:0:0:
256,192,98905,1,0,0:0:0:0:
256,192,98982,1,8,0:0:0:0:
256,192,99059,1,0,0:0:0:0:
256,192,99135,1,8,0:0:0:0:
256,192,99212,1,0,0:0:0:0:
256,192,99289,1,8,0:0:0:0:
256,192,99366,1,8,0:0:0:0:
256,192,99443,1,0,0:0:0:0:
256,192,99597,1,0,0:0:0:0:
256,192,99751,1,0,0:0:0:0:
256,192,99828,1,0,0:0:0:0:
256,192,99905,1,8,0:0:0:0:
256,192,99982,1,8,0:0:0:0:
256,192,100059,1,0,0:0:0:0:
256,192,100135,1,0,0:0:0:0:
256,192,100212,1,8,0:0:0:0:
256,192,100289,1,0,0:0:0:0:
256,192,100366,1,0,0:0:0:0:
256,192,100443,1,8,0:0:0:0:
256,192,100520,1,8,0:0:0:0:
256,192,100597,1,0,0:0:0:0:
256,192,100674,1,0,0:0:0:0:
256,192,100751,1,8,0:0:0:0:
256,192,100828,1,8,0:0:0:0:
256,192,100905,1,0,0:0:0:0:
256,192,100982,1,8,0:0:0:0:
256,192,101059,1,0,0:0:0:0:
256,192,101135,1,8,0:0:0:0:
256,192,101212,1,8,0:0:0:0:
256,192,101289,1,0,0:0:0:0:
256,192,101366,1,8,0:0:0:0:
256,192,101443,1,0,0:0:0:0:
256,192,101520,1,0,0:0:0:0:
256,192,101597,1,8,0:0:0:0:
256,192,101674,1,0,0:0:0:0:
256,192,101751,1,8,0:0:0:0:
256,192,101828,1,8,0:0:0:0:
256,192,101905,1,8,0:0:0:0:
256,192,101982,1,8,0:0:0:0:
256,192,102059,1,0,0:0:0:0:
256,192,102135,1,0,0:0:0:0:
256,192,102212,1,8,0:0:0:0:
256,192,102366,1,8,0:0:0:0:
256,192,102443,1,0,0:0:0:0:
256,192,102520,1,0,0:0:0:0:
256,192,102674,1,0,0:0:0:0:
256,192,102751,1,0,0:0:0:0:
256,192,102828,1,8,0:0:0:0:
256,192,102982,1,8,0:0:0:0:
256,192,103059,1,0,0:0:0:0:
256,192,103135,1,0,0:0:0:0:
256,192,103289,1,0,0:0:0:0:
256,192,103366,1,0,0:0:0:0:
256,192,103443,1,8,0:0:0:0:
256,192,103520,1,0,0:0:0:0:
256,192,103597,1,8,0:0:0:0:
256,192,103674,1,8,0:0:0:0:
256,192,103751,1,0,0:0:0:0:
256,192,103828,1,0,0:0:0:0:
256,192,103905,1,8,0:0:0:0:
256,192,103982,1,0,0:0:0:0:
256,192,104059,1,8,0:0:0:0:
256,192,104135,1,0,0:0:0:0:
256,192,104212,1,8,0:0:0:0:
256,192,104289,1,8,0:0:0:0:
256,192,104366,1,0,0:0:0:0:
256,192,104520,1,0,0:0:0:0:
256,192,104674,1,0,0:0:0:0:
256,192,104751,1,0,0:0:0:0:
256,192,104828,1,8,0:0:0:0:
256,192,104905,1,8,0:0:0:0:
256,192,104982,1,0,0:0:0:0:
256,192,105059,1,0,0:0:0:0:
256,192,105135,1,8,0:0:0:0:
256,192,105212,1,8,0:0:0:0:
256,192,105289,1,0,0:0:0:0:
256,192,105366,1,8,0:0:0:0:
256,192,105443,1,8,0:0:0:0:
256,192,105520,1,8,0:0:0:0:
256,192,105597,1,0,0:0:0:0:
256,192,105674,1,8,0:0:0:0:
256,192,105751,1,8,0:0:0:0:
256,192,105828,1,0,0:0:0:0:
256,192,105905,1,8,0:0:0:0:
256,192,105982,1,8,0:0:0:0:
256,192,106059,1,0,0:0:0:0:
256,192,106135,1,0,0:0:0:0:
256,192,106212,1,8,0:0:0:0:
256,192,106289,1,0,0:0:0:0:
256,192,106366,1,8,0:0:0:0:
256,192,106443,1,8,0:0:0:0:
256,192,106520,1,0,0:0:0:0:
256,192,106597,1,8,0:0:0:0:
256,192,106674,1,8,0:0:0:0:
256,192,106751,1,0,0:0:0:0:
256,192,106828,1,8,0:0:0:0:
256,192,106982,1,8,0:0:0:0:
256,192,107135,5,4,0:0:0:0:
256,192,107289,1,8,0:0:0:0:
256,192,107366,1,8,0:0:0:0:
256,192,107443,1,0,0:0:0:0:
256,192,107597,1,0,0:0:0:0:
256,192,107674,1,0,0:0:0:0:
256,192,107751,1,8,0:0:0:0:
256,192,107905,1,8,0:0:0:0:
256,192,107982,1,0,0:0:0:0:
256,192,108059,1,0,0:0:0:0:
256,192,108212,1,0,0:0:0:0:
256,192,108289,1,0,0:0:0:0:
256,192,108366,1,8,0:0:0:0:
256,192,108443,1,8,0:0:0:0:
256,192,108520,1,0,0:0:0:0:
256,192,108597,1,8,0:0:0:0:
256,192,108674,1,0,0:0:0:0:
256,192,108751,1,0,0:0:0:0:
256,192,108828,1,8,0:0:0:0:
256,192,108905,1,0,0:0:0:0:
256,192,108982,1,8,0:0:0:0:
256,192,109059,1,0,0:0:0:0:
256,192,109135,1,8,0:0:0:0:
256,192,109212,1,8,0:0:0:0:
256,192,109289,1,0,0:0:0:0:
256,192,109443,1,8,0:0:0:0:
256,192,109597,1,0,0:0:0:0:
256,192,109674,1,0,0:0:0:0:
256,192,109751,1,8,0:0:0:0:
256,192,109828,1,0,0:0:0:0:
256,192,109905,1,0,0:0:0:0:
256,192,109982,1,8,0:0:0:0:
256,192,110059,1,8,0:0:0:0:
256,192,110135,1,8,0:0:0:0:
256,192,110212,1,0,0:0:0:0:
256,192,110289,1,0,0:0:0:0:
256,192,110366,1,8,0:0:0:0:
256,192,110443,1,0,0:0:0:0:
256,192,110520,1,0,0:0:0:0:
256,192,110597,1,8,0:0:0:0:
256,192,110674,1,8,0:0:0:0:
256,192,110751,1,0,0:0:0:0:
256,192,110828,1,8,0:0:0:0:
256,192,110905,1,8,0:0:0:0:
256,192,110982,1,0,0:0:0:0:
256,192,111059,1,0,0:0:0:0:
256,192,111135,1,0,0:0:0:0:
256,192,111212,1,0,0:0:0:0:
256,192,111289,1,8,0:0:0:0:
256,192,111366,1,0,0:0:0:0:
256,192,111443,1,0,0:0:0:0:
256,192,111520,1,8,0:0:0:0:
256,192,111597,1,8,0:0:0:0:
256,192,111674,1,0,0:0:0:0:
256,192,111751,1,8,0:0:0:0:
256,192,111828,1,8,0:0:0:0:
256,192,111905,1,0,0:0:0:0:
256,192,111982,1,0,0:0:0:0:
256,192,112059,1,8,0:0:0:0:
256,192,112212,1,8,0:0:0:0:
256,192,112289,1,8,0:0:0:0:
256,192,112366,1,0,0:0:0:0:
256,192,112520,1,0,0:0:0:0:
256,192,112597,1,0,0:0:0:0:
256,192,112674,1,8,0:0:0:0:
256,192,112828,1,8,0:0:0:0:
256,192,112905,1,0,0:0:0:0:
256,192,112982,1,0,0:0:0:0:
256,192,113135,1,0,0:0:0:0:
256,192,113212,1,0,0:0:0:0:
256,192,113289,1,8,0:0:0:0:
256,192,113366,1,0,0:0:0:0:
256,192,113443,1,8,0:0:0:0:
256,192,113520,1,8,0:0:0:0:
256,192,113597,1,0,0:0:0:0:
256,192,113674,1,0,0:0:0:0:
256,192,113751,1,8,0:0:0:0:
256,192,113828,1,8,0:0:0:0:
256,192,113905,1,0,0:0:0:0:
256,192,113982,1,0,0:0:0:0:
256,192,114059,1,8,0:0:0:0:
256,192,114135,1,0,0:0:0:0:
256,192,114212,1,8,0:0:0:0:
256,192,114366,1,0,0:0:0:0:
256,192,114520,1,8,0:0:0:0:
256,192,114597,1,0,0:0:0:0:
256,192,114674,1,0,0:0:0:0:
256,192,114751,1,0,0:0:0:0:
256,192,114828,1,8,0:0:0:0:
256,192,114982,1,0,0:0:0:0:
256,192,115135,1,8,0:0:0:0:
256,192,115212,1,8,0:0:0:0:
256,192,115289,1,0,0:0:0:0:
256,192,115366,1,0,0:0:0:0:
256,192,115443,1,8,0:0:0:0:
256,192,115597,1,8,0:0:0:0:
256,192,115751,1,8,0:0:0:0:
256,192,115828,1,0,0:0:0:0:
256,192,115905,1,0,0:0:0:0:
256,192,115982,1,0,0:0:0:0:
256,192,116059,1,0,0:0:0:0:
256,192,116135,1,0,0:0:0:0:
256,192,116212,1,0,0:0:0:0:
256,192,116289,1,0,0:0:0:0:
256,192,116366,1,8,0:0:0:0:
256,192,116520,1,8,0:0:0:0:
256,192,116597,1,8,0:0:0:0:
256,192,116674,1,8,0:0:0:0:
256,192,116828,1,8,0:0:0:0:
256,192,116982,5,4,0:0:0:0:
256,192,117135,1,0,0:0:0:0:
256,192,117212,1,0,0:0:0:0:
256,192,117289,1,8,0:0:0:0:
256,192,117443,1,8,0:0:0:0:
256,192,117597,1,0,0:0:0:0:
256,192,117751,1,0,0:0:0:0:
256,192,117828,1,0,0:0:0:0:
256,192,117905,1,8,0:0:0:0:
256,192,118059,1,0,0:0:0:0:
256,192,118212,1,8,0:0:0:0:
256,192,118289,1,8,0:0:0:0:
256,192,118366,1,0,0:0:0:0:
256,192,118443,1,0,0:0:0:0:
256,192,118520,1,0,0:0:0:0:
256,192,118674,1,8,0:0:0:0:
256,192,118751,1,0,0:0:0:0:
256,192,118828,1,8,0:0:0:0:
256,192,118982,1,0,0:0:0:0:
256,192,119059,1,0,0:0:0:0:
256,192,119135,1,8,0:0:0:0:
256,192,119289,1,8,0:0:0:0:
256,192,119443,1,8,0:0:0:0:
256,192,119597,1,0,0:0:0:0:
256,192,119674,1,0,0:0:0:0:
256,192,119751,1,0,0:0:0:0:
256,192,119905,1,8,0:0:0:0:
256,192,119982,1,0,0:0:0:0:
256,192,120059,1,8,0:0:0:0:
256,192,120135,1,8,0:0:0:0:
256,192,120212,1,0,0:0:0:0:
256,192,120289,1,0,0:0:0:0:
256,192,120366,1,8,0:0:0:0:
256,192,120520,1,0,0:0:0:0:
256,192,120674,1,8,0:0:0:0:
256,192,120751,1,0,0:0:0:0:
256,192,120828,1,0,0:0:0:0:
256,192,120982,1,8,0:0:0:0:
256,192,121135,1,0,0:0:0:0:
256,192,121289,1,0,0:0:0:0:
256,192,121366,1,0,0:0:0:0:
256,192,121443,1,8,0:0:0:0:
256,192,121520,1,8,0:0:0:0:
256,192,121597,1,0,0:0:0:0:
256,192,121674,1,8,0:0:0:0:
256,192,121751,1,8,0:0:0:0:
256,192,121828,1,8,0:0:0:0:
256,192,121905,1,0,0:0:0:0:
256,192,122059,1,0,0:0:0:0:
256,192,122135,1,0,0:0:0:0:
256,192,122212,1,8,0:0:0:0:
256,192,122366,1,8,0:0:0:0:
256,192,122520,1,0,0:0:0:0:
256,192,122674,1,0,0:0:0:0:
256,192,122751,1,0,0:0:0:0:
256,192,122828,1,8,0:0:0:0:
256,192,122982,1,0,0:0:0:0:
256,192,123135,1,8,0:0:0:0:
256,192,123212,1,0,0:0:0:0:
256,192,123289,1,0,0:0:0:0:
256,192,123366,1,0,0:0:0:0:
256,192,123443,1,0,0:0:0:0:
256,192,123597,1,8,0:0:0:0:
256,192,123674,1,0,0:0:0:0:
256,192,123751,1,8,0:0:0:0:
256,192,123905,1,0,0:0:0:0:
256,192,123982,1,0,0:0:0:0:
256,192,124059,1,8,0:0:0:0:
256,192,124212,1,8,0:0:0:0:
256,192,124366,1,8,0:0:0:0:
256,192,124520,1,0,0:0:0:0:
256,192,124597,1,0,0:0:0:0:
256,192,124674,1,0,0:0:0:0:
256,192,124828,1,8,0:0:0:0:
256,192,124905,1,0,0:0:0:0:
256,192,124982,1,8,0:0:0:0:
256,192,125059,1,8,0:0:0:0:
256,192,125135,1,0,0:0:0:0:
256,192,125212,1,0,0:0:0:0:
256,192,125289,1,8,0:0:0:0:
256,192,125443,1,0,0:0:0:0:
256,192,125597,1,8,0:0:0:0:
256,192,125674,1,0,0:0:0:0:
256,192,125751,1,8,0:0:0:0:
256,192,125828,1,0,0:0:0:0:
256,192,125905,1,8,0:0:0:0:
256,192,125982,1,8,0:0:0:0:
256,192,126059,1,0,0:0:0:0:
256,192,126212,1,0,0:0:0:0:
256,192,126289,1,0,0:0:0:0:
256,192,126366,1,8,0:0:0:0:
256,192,126443,1,0,0:0:0:0:
256,192,126520,1,8,0:0:0:0:
256,192,126597,1,8,0:0:0:0:
256,192,126674,1,8,0:0:0:0:
256,192,126828,1,12,0:0:0:0:
256,192,126982,1,0,0:0:0:0:
256,192,127059,1,0,0:0:0:0:
256,192,127135,1,8,0:0:0:0:
256,192,127212,1,0,0:0:0:0:
256,192,127289,1,8,0:0:0:0:
256,192,127443,1,0,0:0:0:0:
256,192,127597,1,0,0:0:0:0:
256,192,127674,1,0,0:0:0:0:
256,192,127751,1,8,0:0:0:0:
256,192,127828,1,8,0:0:0:0:
256,192,127905,1,0,0:0:0:0:
256,192,128059,1,8,0:0:0:0:
256,192,128135,1,8,0:0:0:0:
256,192,128212,1,0,0:0:0:0:
256,192,128289,1,0,0:0:0:0:
256,192,128366,1,0,0:0:0:0:
256,192,128520,1,8,0:0:0:0:
256,192,128597,1,0,0:0:0:0:
256,192,128674,1,8,0:0:0:0:
256,192,128828,1,0,0:0:0:0:
256,192,128905,1,0,0:0:0:0:
256,192,128982,1,8,0:0:0:0:
256,192,129135,1,8,0:0:0:0:
256,192,129289,1,8,0:0:0:0:
256,192,129366,1,0,0:0:0:0:
256,192,129443,1,0,0:0:0:0:
256,192,129520,1,0,0:0:0:0:
256,192,129597,1,0,0:0:0:0:
256,192,129751,1,8,0:0:0:0:
256,192,129828,1,0,0:0:0:0:
256,192,129905,1,8,0:0:0:0:
256,192,129982,1,8,0:0:0:0:
256,192,130059,1,0,0:0:0:0:
256,192,130135,1,0,0:0:0:0:
256,192,130212,1,8,0:0:0:0:
256,192,130289,1,8,0:0:0:0:
256,192,130366,1,0,0:0:0:0:
256,192,130520,1,8,0:0:0:0:
256,192,130597,1,0,0:0:0:0:
256,192,130674,1,0,0:0:0:0:
256,192,130828,1,8,0:0:0:0:
256,192,130982,1,0,0:0:0:0:
256,192,131135,1,0,0:0:0:0:
256,192,131212,1,0,0:0:0:0:
256,192,131289,1,8,0:0:0:0:
256,192,131366,1,0,0:0:0:0:
256,192,131443,1,8,0:0:0:0:
256,192,131520,1,8,0:0:0:0:
256,192,131597,1,8,0:0:0:0:
256,192,131674,1,8,0:0:0:0:
256,192,131751,1,0,0:0:0:0:
256,192,131905,1,0,0:0:0:0:
256,192,131982,1,0,0:0:0:0:
256,192,132059,1,8,0:0:0:0:
256,192,132135,1,0,0:0:0:0:
256,192,132212,1,8,0:0:0:0:
256,192,132366,1,0,0:0:0:0:
256,192,132520,1,0,0:0:0:0:
256,192,132597,1,0,0:0:0:0:
256,192,132674,1,8,0:0:0:0:
256,192,132751,1,8,0:0:0:0:
256,192,132828,1,0,0:0:0:0:
256,192,132982,1,8,0:0:0:0:
256,192,133135,1,0,0:0:0:0:
256,192,133212,1,0,0:0:0:0:
256,192,133289,1,0,0:0:0:0:
256,192,133366,1,0,0:0:0:0:
256,192,133443,1,8,0:0:0:0:
256,192,133520,1,0,0:0:0:0:
256,192,133597,1,8,0:0:0:0:
256,192,133751,1,0,0:0:0:0:
256,192,133828,1,0,0:0:0:0:
256,192,133905,1,8,0:0:0:0:
256,192,133982,1,0,0:0:0:0:
256,192,134059,1,8,0:0:0:0:
256,192,134135,1,8,0:0:0:0:
256,192,134212,1,8,0:0:0:0:
256,192,134366,1,0,0:0:0:0:
256,192,134443,1,0,0:0:0:0:
256,192,134520,1,0,0:0:0:0:
256,192,134674,1,8,0:0:0:0:
256,192,134751,1,0,0:0:0:0:
256,192,134828,1,8,0:0:0:0:
256,192,134905,1,8,0:0:0:0:
256,192,134982,1,0,0:0:0:0:
256,192,135059,1,0,0:0:0:0:
256,192,135135,1,8,0:0:0:0:
256,192,135289,1,0,0:0:0:0:
256,192,135443,1,8,0:0:0:0:
256,192,135520,1,0,0:0:0:0:
256,192,135597,1,8,0:0:0:0:
256,192,135674,1,0,0:0:0:0:
256,192,135751,1,8,0:0:0:0:
256,192,135828,1,8,0:0:0:0:
256,192,135905,1,0,0:0:0:0:
256,192,135982,1,0,0:0:0:0:
256,192,136059,1,0,0:0:0:0:
256,192,136135,1,0,0:0:0:0:
256,192,136212,1,8,0:0:0:0:
256,192,136289,1,0,0:0:0:0:
256,192,136366,1,8,0:0:0:0:
256,192,136443,1,8,0:0:0:0:
256,192,136520,1,8,0:0:0:0:
256,192,136674,1,4,0:0:0:0:
256,192,136828,12,0,138982,0:0:0:0:
256,192,139135,5,12,0:0:0:0:
