osu file format v14

[General]
AudioFilename: audio.mp3
AudioLeadIn: 0
PreviewTime: 106236
Countdown: 0
SampleSet: Normal
StackLeniency: 0.7
Mode: 1
LetterboxInBreaks: 0
WidescreenStoryboard: 1

[Editor]
DistanceSpacing: 1.2
BeatDivisor: 4
GridSize: 32
TimelineZoom: 1.64

[Metadata]
Title:Black Feather
TitleUnicode:Black Feather
Artist:nmk
ArtistUnicode:nmk
Creator:pwhk
Version:Oni
Source:BMS
Tags:wire puller 3 重巡洋艦 羽黒
BeatmapID:1513103
BeatmapSetID:716148

[Difficulty]
HPDrainRate:5.5
CircleSize:2
OverallDifficulty:5
ApproachRate:5
SliderMultiplier:1.3999999666214
SliderTickRate:1

[Events]
//Background and Video events
0,0,"BigdipISS.jpg",0,0
//Break Periods
//Storyboard Layer 0 (Background)
//Storyboard Layer 1 (Fail)
//Storyboard Layer 2 (Pass)
//Storyboard Layer 3 (Foreground)
//Storyboard Sound Samples

[TimingPoints]
1340,327.868852459016,4,1,0,20,1,8
1340,-166.666666666667,4,1,0,20,0,0
21012,-166.666666666667,4,1,0,20,0,0
22324,-166.666666666667,4,1,0,15,0,0
23635,-166.666666666667,4,1,0,10,0,0
24947,-166.666666666667,4,1,0,25,0,0
25602,-166.666666666667,4,1,0,40,0,0
26258,-100,4,1,0,60,0,0
36422,-125,4,1,0,40,0,0
42651,-200,4,1,0,10,0,0
62979,-166.666666666667,4,1,0,30,0,0
63307,-142.857142857143,4,1,0,40,0,0
63635,-125,4,1,0,50,0,0
63963,-111.111111111111,4,1,0,60,0,0
64044,-108.108108108108,4,1,0,62,0,0
64126,-105.263157894737,4,1,0,65,0,0
64208,-102.564102564103,4,1,0,67,0,0
64291,-100,4,1,0,70,0,0
82651,-80,4,1,0,100,0,1
83800,-100,4,1,0,100,0,1
87897,-80,4,1,0,100,0,1
89046,-100,4,1,0,100,0,1
98389,-80,4,1,0,100,0,1
99700,-100,4,1,0,100,0,1
104290,-90.9090909090909,4,1,0,100,0,1
104946,-100,4,1,0,100,0,1
106258,-66.6666666666667,4,1,0,100,0,0
107569,-100,4,1,0,100,0,1
116749,-66.6666666666667,4,1,0,100,0,1
116831,-100,4,1,0,100,0,1
128553,-100,4,1,0,100,0,0

[HitObjects]
384,224,1340,5,0,0:0:0:0:
384,224,1995,1,0,0:0:0:0:
192,128,2651,1,2,0:0:0:0:
256,128,3471,1,0,0:0:0:0:
320,160,3635,1,2,0:0:0:0:
288,192,3799,1,0,0:0:0:0:
192,288,3962,1,0,0:0:0:0:
160,160,4455,1,0,0:0:0:0:
224,96,4947,1,2,0:0:0:0:
256,160,5111,1,0,0:0:0:0:
288,96,5274,1,2,0:0:0:0:
64,192,5766,1,0,0:0:0:0:
192,192,6258,1,0,0:0:0:0:
320,224,6585,1,2,0:0:0:0:
224,128,7242,1,2,0:0:0:0:
160,192,7897,1,0,0:0:0:0:
192,128,8881,1,2,0:0:0:0:
288,160,9209,1,0,0:0:0:0:
192,96,9701,1,2,0:0:0:0:
192,224,10192,1,0,0:0:0:0:
256,128,10520,1,2,0:0:0:0:
256,160,11012,1,0,0:0:0:0:
320,160,11504,1,2,0:0:0:0:
192,224,11831,1,2,0:0:0:0:
224,160,12160,1,0,0:0:0:0:
288,224,12488,1,0,0:0:0:0:
256,128,12815,1,2,0:0:0:0:
320,160,13143,1,2,0:0:0:0:
224,128,13963,1,0,0:0:0:0:
256,128,14127,1,2,0:0:0:0:
288,192,14291,1,0,0:0:0:0:
256,256,14454,1,0,0:0:0:0:
256,192,14947,1,0,0:0:0:0:
256,192,15274,1,0,0:0:0:0:
256,192,15438,1,2,0:0:0:0:
256,192,15602,1,0,0:0:0:0:
160,96,15766,1,2,0:0:0:0:
256,192,16422,1,0,0:0:0:0:
256,192,16750,1,2,0:0:0:0:
256,192,17078,1,2,0:0:0:0:
256,192,17733,1,0,0:0:0:0:
288,224,18389,1,0,0:0:0:0:
256,192,18881,1,2,0:0:0:0:
256,192,19373,1,2,0:0:0:0:
224,96,19700,1,2,0:0:0:0:
224,192,20192,1,0,0:0:0:0:
224,224,20684,1,2,0:0:0:0:
224,224,21012,1,0,0:0:0:0:
224,224,22324,1,0,0:0:0:0:
224,224,23635,1,0,0:0:0:0:
160,192,24946,1,0,0:0:0:0:
224,160,25602,1,2,0:0:0:0:
160,128,26258,1,6,0:0:0:0:
160,128,26585,1,2,0:0:0:0:
160,128,26913,1,2,0:0:0:0:
160,128,27241,1,2,0:0:0:0:
160,128,27569,1,4,0:0:0:0:
160,128,27897,1,0,0:0:0:0:
160,128,28225,1,0,0:0:0:0:
160,128,28553,1,0,0:0:0:0:
160,128,28880,1,6,0:0:0:0:
160,128,29207,1,2,0:0:0:0:
160,128,29535,1,2,0:0:0:0:
160,128,29863,1,2,0:0:0:0:
160,128,30191,1,4,0:0:0:0:
160,128,30519,1,0,0:0:0:0:
160,128,30847,1,0,0:0:0:0:
160,128,31175,1,0,0:0:0:0:
160,128,31503,1,6,0:0:0:0:
160,128,31830,1,2,0:0:0:0:
160,128,32158,1,2,0:0:0:0:
160,128,32486,1,2,0:0:0:0:
160,128,32814,1,4,0:0:0:0:
160,128,33142,1,0,0:0:0:0:
160,128,33470,1,0,0:0:0:0:
160,128,33798,1,0,0:0:0:0:
160,128,34126,1,6,0:0:0:0:
160,128,34453,1,2,0:0:0:0:
160,128,34781,1,2,0:0:0:0:
160,128,35109,1,2,0:0:0:0:
160,128,35437,1,4,0:0:0:0:
160,128,35765,1,0,0:0:0:0:
160,128,36093,1,0,0:0:0:0:
160,128,36421,1,0,0:0:0:0:
192,96,36749,5,6,0:0:0:0:
256,160,37078,1,2,0:0:0:0:
256,224,37406,1,0,0:0:0:0:
224,256,37733,1,0,0:0:0:0:
416,224,38143,1,2,0:0:0:0:
320,256,38389,1,0,0:0:0:0:
320,256,38635,1,2,0:0:0:0:
320,256,38880,1,2,0:0:0:0:
320,256,39126,1,0,0:0:0:0:
320,256,39372,1,2,0:0:0:0:
256,224,39701,1,0,0:0:0:0:
320,160,40274,1,2,0:0:0:0:
192,192,42979,1,0,0:0:0:0:
224,192,43143,1,2,0:0:0:0:
128,128,43307,1,2,0:0:0:0:
192,256,43635,1,0,0:0:0:0:
256,192,43963,1,0,0:0:0:0:
256,192,44291,1,2,0:0:0:0:
224,128,44618,1,2,0:0:0:0:
256,192,44947,1,0,0:0:0:0:
256,192,45602,1,0,0:0:0:0:
128,128,45930,1,2,0:0:0:0:
256,192,46258,1,0,0:0:0:0:
256,192,46586,1,2,0:0:0:0:
288,192,46914,1,2,0:0:0:0:
192,192,47241,1,0,0:0:0:0:
256,160,47570,1,0,0:0:0:0:
256,192,47897,1,2,0:0:0:0:
256,224,48225,1,0,0:0:0:0:
256,192,48553,1,2,0:0:0:0:
128,192,48881,1,0,0:0:0:0:
160,192,49209,1,0,0:0:0:0:
256,192,49537,1,0,0:0:0:0:
288,160,49864,1,2,0:0:0:0:
160,128,50192,1,0,0:0:0:0:
192,128,50520,1,0,0:0:0:0:
256,192,50848,1,2,0:0:0:0:
256,128,51175,1,2,0:0:0:0:
288,192,51668,1,0,0:0:0:0:
288,192,52160,1,0,0:0:0:0:
320,128,52487,1,2,0:0:0:0:
224,224,52815,1,0,0:0:0:0:
256,224,53143,1,2,0:0:0:0:
160,128,53798,1,2,0:0:0:0:
288,192,54127,1,0,0:0:0:0:
224,192,54783,1,2,0:0:0:0:
160,192,55111,1,2,0:0:0:0:
192,256,55438,1,0,0:0:0:0:
224,256,56094,1,0,0:0:0:0:
224,224,56422,1,2,0:0:0:0:
256,192,56750,1,2,0:0:0:0:
320,192,57078,1,0,0:0:0:0:
352,192,57406,1,2,0:0:0:0:
256,128,57733,1,2,0:0:0:0:
320,96,58061,1,0,0:0:0:0:
256,224,58717,1,0,0:0:0:0:
192,96,59044,1,2,0:0:0:0:
288,160,59373,1,2,0:0:0:0:
320,160,59701,1,2,0:0:0:0:
288,224,60029,1,0,0:0:0:0:
224,192,60356,1,2,0:0:0:0:
320,96,60684,1,0,0:0:0:0:
256,224,61012,1,2,0:0:0:0:
224,96,61667,1,6,0:0:0:0:
320,160,62324,1,2,0:0:0:0:
288,192,62651,1,0,0:0:0:0:
192,160,62979,1,2,0:0:0:0:
128,224,63307,1,2,0:0:0:0:
224,128,63471,1,0,0:0:0:0:
224,256,63798,1,2,0:0:0:0:
320,64,63963,1,0,0:0:0:0:
320,96,64045,1,0,0:0:0:0:
352,128,64127,1,0,0:0:0:0:
352,128,64209,1,0,0:0:0:0:
256,160,64290,1,2,0:0:0:0:
160,96,64619,1,0,0:0:0:0:
224,192,64783,1,2,0:0:0:0:
256,128,65111,1,0,0:0:0:0:
352,64,65274,1,0,0:0:0:0:
352,128,65356,1,2,0:0:0:0:
352,160,65438,1,0,0:0:0:0:
384,192,65520,1,2,0:0:0:0:
192,192,65602,1,0,0:0:0:0:
256,192,65930,1,0,0:0:0:0:
320,128,66094,1,2,0:0:0:0:
384,128,66176,1,2,0:0:0:0:
256,224,66258,1,2,0:0:0:0:
224,96,66586,1,0,0:0:0:0:
256,256,66750,1,2,0:0:0:0:
192,192,66914,1,2,0:0:0:0:
256,160,67242,1,0,0:0:0:0:
192,192,67406,1,2,0:0:0:0:
288,192,67733,1,0,0:0:0:0:
384,128,67897,1,0,0:0:0:0:
384,160,67979,1,2,0:0:0:0:
384,160,68061,1,0,0:0:0:0:
384,192,68143,1,2,0:0:0:0:
256,224,68225,1,0,0:0:0:0:
288,128,68553,1,2,0:0:0:0:
192,192,68717,1,0,0:0:0:0:
224,192,69045,1,0,0:0:0:0:
96,96,69209,1,0,0:0:0:0:
128,96,69291,1,0,0:0:0:0:
128,128,69373,1,2,0:0:0:0:
128,128,69455,1,2,0:0:0:0:
224,224,69537,1,0,0:0:0:0:
288,160,69865,1,2,0:0:0:0:
256,224,70029,1,0,0:0:0:0:
320,224,70356,1,2,0:0:0:0:
224,96,70520,1,0,0:0:0:0:
256,96,70602,1,0,0:0:0:0:
288,128,70684,1,2,0:0:0:0:
320,96,70766,1,2,0:0:0:0:
192,256,70848,1,0,0:0:0:0:
224,224,71176,1,2,0:0:0:0:
256,224,71340,1,0,0:0:0:0:
288,224,71668,1,2,0:0:0:0:
256,96,71832,1,2,0:0:0:0:
288,128,71914,1,2,0:0:0:0:
288,160,71996,1,0,0:0:0:0:
288,192,72078,1,0,0:0:0:0:
128,224,72160,1,2,0:0:0:0:
192,224,72488,1,2,0:0:0:0:
256,224,72651,1,0,0:0:0:0:
256,224,72979,1,2,0:0:0:0:
256,224,73143,1,0,0:0:0:0:
192,160,73471,1,2,0:0:0:0:
256,224,73635,1,0,0:0:0:0:
224,160,73963,1,2,0:0:0:0:
256,224,74127,1,0,0:0:0:0:
256,160,74209,1,0,0:0:0:0:
320,160,74291,1,2,0:0:0:0:
320,192,74373,1,2,0:0:0:0:
160,224,74455,1,0,0:0:0:0:
256,224,74783,1,0,0:0:0:0:
224,128,75111,1,2,0:0:0:0:
256,256,75274,1,0,0:0:0:0:
256,192,75602,1,2,0:0:0:0:
352,128,75766,1,0,0:0:0:0:
384,160,75848,1,2,0:0:0:0:
416,224,75930,1,0,0:0:0:0:
416,256,76012,1,2,0:0:0:0:
224,192,76094,1,0,0:0:0:0:
256,128,76422,1,2,0:0:0:0:
352,96,76586,1,2,0:0:0:0:
384,128,76667,1,0,0:0:0:0:
224,256,76831,1,0,0:0:0:0:
256,192,76914,1,0,0:0:0:0:
192,224,77242,1,2,0:0:0:0:
96,224,77406,1,0,0:0:0:0:
192,128,77733,1,2,0:0:0:0:
224,256,77897,1,0,0:0:0:0:
256,192,78225,1,2,0:0:0:0:
288,64,78389,1,0,0:0:0:0:
320,96,78471,1,2,0:0:0:0:
352,128,78553,1,0,0:0:0:0:
352,160,78635,1,2,0:0:0:0:
160,256,78717,1,0,0:0:0:0:
224,192,79045,1,0,0:0:0:0:
320,224,79373,1,2,0:0:0:0:
288,256,79537,1,0,0:0:0:0:
288,224,79865,1,2,0:0:0:0:
192,128,80029,1,2,0:0:0:0:
256,128,80356,1,2,0:0:0:0:
224,224,80520,1,0,0:0:0:0:
320,128,80848,1,2,0:0:0:0:
192,64,81012,1,2,0:0:0:0:
224,96,81094,1,2,0:0:0:0:
256,64,81176,1,0,0:0:0:0:
256,96,81258,1,0,0:0:0:0:
288,192,81340,1,2,0:0:0:0:
224,224,81668,1,2,0:0:0:0:
128,160,81996,1,0,0:0:0:0:
160,192,82160,1,0,0:0:0:0:
352,128,82241,1,0,0:0:0:0:
224,160,82324,1,2,0:0:0:0:
192,64,82651,1,6,0:0:0:0:
320,96,82979,1,6,0:0:0:0:
256,160,83307,1,6,0:0:0:0:
160,128,83553,1,4,0:0:0:0:
256,224,83799,1,6,0:0:0:0:
192,128,84127,1,0,0:0:0:0:
256,128,84291,1,0,0:0:0:0:
320,128,84455,1,0,0:0:0:0:
192,64,84619,1,0,0:0:0:0:
256,64,84701,1,0,0:0:0:0:
256,64,84783,1,0,0:0:0:0:
256,64,84865,1,0,0:0:0:0:
256,64,84947,1,0,0:0:0:0:
256,64,85029,1,0,0:0:0:0:
256,64,85111,1,0,0:0:0:0:
128,160,85274,1,6,0:0:0:0:
384,64,85602,1,2,0:0:0:0:
128,256,85930,1,0,0:0:0:0:
224,288,86094,1,0,0:0:0:0:
224,192,86258,1,2,0:0:0:0:
192,128,86422,1,2,0:0:0:0:
320,128,86504,1,2,0:0:0:0:
320,160,86586,1,0,0:0:0:0:
256,96,86750,1,0,0:0:0:0:
320,96,86914,1,2,0:0:0:0:
416,192,87077,1,0,0:0:0:0:
384,192,87159,1,0,0:0:0:0:
192,160,87242,1,2,0:0:0:0:
224,256,87488,1,2,0:0:0:0:
288,256,87733,1,0,0:0:0:0:
160,192,87897,1,4,0:0:0:0:
224,160,88225,1,6,0:0:0:0:
288,192,88553,1,4,0:0:0:0:
224,96,88799,1,6,0:0:0:0:
352,192,89045,1,4,0:0:0:0:
64,64,89373,1,0,0:0:0:0:
128,64,89537,1,0,0:0:0:0:
224,192,89701,1,0,0:0:0:0:
288,128,89865,1,2,0:0:0:0:
288,64,89947,1,2,0:0:0:0:
320,160,90029,1,2,0:0:0:0:
320,64,90111,1,2,0:0:0:0:
320,224,90192,1,0,0:0:0:0:
352,128,90274,1,0,0:0:0:0:
288,288,90356,1,0,0:0:0:0:
384,128,90438,1,0,0:0:0:0:
160,128,90520,1,2,0:0:0:0:
320,192,90848,1,2,0:0:0:0:
160,128,91176,1,0,0:0:0:0:
224,256,91340,1,0,0:0:0:0:
192,192,91504,1,0,0:0:0:0:
320,96,91586,1,0,0:0:0:0:
320,128,91668,1,0,0:0:0:0:
352,160,91750,1,2,0:0:0:0:
256,128,91832,1,2,0:0:0:0:
192,96,92160,1,2,0:0:0:0:
160,192,92488,1,0,0:0:0:0:
288,256,92651,1,0,0:0:0:0:
256,192,92815,1,0,0:0:0:0:
288,96,92897,1,0,0:0:0:0:
352,96,92979,1,2,0:0:0:0:
352,128,93061,1,2,0:0:0:0:
352,128,93143,1,0,0:0:0:0:
160,64,93471,1,2,0:0:0:0:
128,160,93799,1,4,0:0:0:0:
256,128,94045,1,6,0:0:0:0:
320,160,94291,1,6,0:0:0:0:
192,128,94455,1,4,0:0:0:0:
288,128,94783,1,6,0:0:0:0:
128,192,95111,1,4,0:0:0:0:
320,224,95438,1,6,0:0:0:0:
224,192,95766,1,6,0:0:0:0:
288,64,95930,1,0,0:0:0:0:
320,96,96012,1,0,0:0:0:0:
352,128,96094,1,0,0:0:0:0:
384,128,96258,1,0,0:0:0:0:
96,160,96422,1,2,0:0:0:0:
224,128,96750,1,0,0:0:0:0:
224,256,96914,1,2,0:0:0:0:
288,128,97078,1,2,0:0:0:0:
384,160,97242,1,0,0:0:0:0:
384,192,97324,1,0,0:0:0:0:
416,192,97406,1,2,0:0:0:0:
384,128,97488,1,2,0:0:0:0:
416,128,97570,1,2,0:0:0:0:
192,96,97733,1,2,0:0:0:0:
320,96,97979,1,2,0:0:0:0:
288,160,98225,1,0,0:0:0:0:
128,224,98389,1,4,0:0:0:0:
192,128,98608,1,6,0:0:0:0:
192,192,98826,1,4,0:0:0:0:
288,224,99045,1,4,0:0:0:0:
192,192,99264,1,6,0:0:0:0:
224,192,99482,1,6,0:0:0:0:
352,128,99701,1,6,0:0:0:0:
320,192,99865,1,2,0:0:0:0:
128,64,99919,1,2,0:0:0:0:
128,64,99973,1,2,0:0:0:0:
352,224,100029,1,2,0:0:0:0:
384,288,100192,1,0,0:0:0:0:
224,64,100356,1,2,0:0:0:0:
192,128,100520,1,0,0:0:0:0:
160,192,100684,1,0,0:0:0:0:
256,128,101012,1,2,0:0:0:0:
352,96,101176,1,0,0:0:0:0:
352,160,101340,1,2,0:0:0:0:
416,96,101504,1,0,0:0:0:0:
320,224,101668,1,2,0:0:0:0:
416,96,101832,1,0,0:0:0:0:
288,256,101996,1,2,0:0:0:0:
416,160,102160,1,2,0:0:0:0:
128,128,102323,1,2,0:0:0:0:
192,96,102405,1,0,0:0:0:0:
416,160,102488,1,2,0:0:0:0:
128,256,102651,1,0,0:0:0:0:
416,160,102815,1,2,0:0:0:0:
192,256,102979,1,0,0:0:0:0:
416,160,103143,1,2,0:0:0:0:
288,224,103307,1,0,0:0:0:0:
384,96,103471,1,0,0:0:0:0:
224,128,103635,1,2,0:0:0:0:
192,96,103744,1,2,0:0:0:0:
352,224,103853,1,0,0:0:0:0:
224,320,103963,1,0,0:0:0:0:
288,96,104291,1,6,0:0:0:0:
192,160,104537,1,6,0:0:0:0:
256,160,104783,1,4,0:0:0:0:
288,192,104947,1,4,0:0:0:0:
160,256,105274,1,6,0:0:0:0:
192,128,105602,1,6,0:0:0:0:
256,256,105930,1,6,0:0:0:0:
256,192,106258,12,4,107078,0:0:0:0:
256,160,107242,5,6,0:0:0:0:
192,160,107570,5,6,0:0:0:0:
384,160,107815,1,2,0:0:0:0:
384,160,107897,1,2,0:0:0:0:
352,192,107979,1,0,0:0:0:0:
352,224,108061,1,0,0:0:0:0:
160,128,108225,1,0,0:0:0:0:
192,96,108389,1,2,0:0:0:0:
256,96,108553,1,2,0:0:0:0:
256,160,108717,1,0,0:0:0:0:
288,128,108881,1,2,0:0:0:0:
224,128,109373,1,0,0:0:0:0:
192,224,109865,1,2,0:0:0:0:
128,160,110192,1,0,0:0:0:0:
256,256,110356,1,0,0:0:0:0:
192,160,110520,1,2,0:0:0:0:
320,128,110684,1,0,0:0:0:0:
320,128,110766,1,0,0:0:0:0:
320,128,110848,1,2,0:0:0:0:
320,192,111012,1,2,0:0:0:0:
320,160,111066,1,2,0:0:0:0:
320,160,111121,1,2,0:0:0:0:
384,224,111176,1,2,0:0:0:0:
160,96,111504,1,2,0:0:0:0:
384,96,111832,1,0,0:0:0:0:
384,96,111996,1,0,0:0:0:0:
384,96,112077,1,0,0:0:0:0:
256,96,112160,1,2,0:0:0:0:
160,128,112324,1,2,0:0:0:0:
224,192,112488,1,2,0:0:0:0:
224,256,112651,1,0,0:0:0:0:
320,192,112815,1,0,0:0:0:0:
96,224,113143,1,0,0:0:0:0:
96,256,113225,1,0,0:0:0:0:
96,256,113307,1,0,0:0:0:0:
224,128,113471,1,2,0:0:0:0:
192,288,113553,1,0,0:0:0:0:
256,192,113635,1,2,0:0:0:0:
192,96,113799,1,2,0:0:0:0:
160,128,114127,1,0,0:0:0:0:
128,224,114619,1,0,0:0:0:0:
224,96,114783,1,2,0:0:0:0:
192,288,114865,1,2,0:0:0:0:
256,224,114947,1,0,0:0:0:0:
224,288,115029,1,0,0:0:0:0:
256,128,115111,1,0,0:0:0:0:
224,288,115192,1,0,0:0:0:0:
224,320,115274,1,2,0:0:0:0:
320,160,115438,1,2,0:0:0:0:
224,224,115766,1,0,0:0:0:0:
288,128,115848,1,0,0:0:0:0:
320,224,115930,1,0,0:0:0:0:
128,128,116094,1,2,0:0:0:0:
192,224,116340,1,0,0:0:0:0:
320,160,116586,1,2,0:0:0:0:
224,128,116750,1,6,0:0:0:0:
192,256,117078,1,2,0:0:0:0:
192,256,117160,1,2,0:0:0:0:
288,160,117242,1,0,0:0:0:0:
288,160,117406,1,2,0:0:0:0:
384,128,117460,1,2,0:0:0:0:
384,128,117514,1,2,0:0:0:0:
288,160,117570,1,0,0:0:0:0:
288,160,117733,1,2,0:0:0:0:
192,256,117815,1,2,0:0:0:0:
288,160,117897,1,0,0:0:0:0:
192,96,118061,1,6,0:0:0:0:
160,192,118389,2,0,P|288:192|288:192,2,70
256,96,119045,1,2,0:0:0:0:
224,288,119127,1,2,0:0:0:0:
256,256,119209,1,2,0:0:0:0:
352,160,119373,1,2,0:0:0:0:
192,288,119455,1,0,0:0:0:0:
352,160,119537,1,0,0:0:0:0:
288,224,119701,1,0,0:0:0:0:
192,288,119783,1,0,0:0:0:0:
224,288,119865,1,0,0:0:0:0:
224,256,120029,1,0,0:0:0:0:
256,128,120192,1,2,0:0:0:0:
160,128,120356,1,2,0:0:0:0:
288,160,120520,1,0,0:0:0:0:
256,96,120684,1,2,0:0:0:0:
224,288,121012,1,0,0:0:0:0:
224,320,121094,1,0,0:0:0:0:
256,320,121176,1,0,0:0:0:0:
160,160,121340,1,0,0:0:0:0:
288,256,121422,1,0,0:0:0:0:
288,256,121504,1,2,0:0:0:0:
192,128,121668,1,2,0:0:0:0:
288,256,121750,1,0,0:0:0:0:
224,160,121832,1,2,0:0:0:0:
288,256,121996,1,2,0:0:0:0:
192,96,122487,1,0,0:0:0:0:
256,96,122570,1,0,0:0:0:0:
320,96,122651,1,2,0:0:0:0:
320,160,122815,1,2,0:0:0:0:
256,160,122979,1,2,0:0:0:0:
288,256,123143,1,0,0:0:0:0:
192,192,123307,1,0,0:0:0:0:
160,256,123471,1,0,0:0:0:0:
192,288,123553,1,0,0:0:0:0:
160,64,123635,1,0,0:0:0:0:
224,288,123717,1,2,0:0:0:0:
224,288,123799,1,2,0:0:0:0:
256,96,123963,1,2,0:0:0:0:
352,128,124209,1,2,0:0:0:0:
352,192,124455,1,0,0:0:0:0:
192,128,124619,1,2,0:0:0:0:
224,288,124701,1,2,0:0:0:0:
256,128,124783,1,2,0:0:0:0:
224,288,124947,1,2,0:0:0:0:
224,288,125029,1,2,0:0:0:0:
256,224,125111,1,0,0:0:0:0:
288,192,125274,1,0,0:0:0:0:
224,288,125356,1,0,0:0:0:0:
224,320,125438,1,2,0:0:0:0:
320,128,125602,1,2,0:0:0:0:
352,192,125930,1,0,0:0:0:0:
128,32,126094,1,0,0:0:0:0:
224,160,126258,1,0,0:0:0:0:
192,64,126422,1,0,0:0:0:0:
128,192,126586,1,0,0:0:0:0:
192,64,126750,1,0,0:0:0:0:
288,224,126914,1,0,0:0:0:0:
192,64,127078,1,0,0:0:0:0:
160,192,127241,1,0,0:0:0:0:
288,64,127324,1,0,0:0:0:0:
288,96,127406,1,0,0:0:0:0:
384,96,127570,1,0,0:0:0:0:
384,128,127651,1,0,0:0:0:0:
384,160,127733,1,0,0:0:0:0:
224,192,127897,1,0,0:0:0:0:
384,192,127979,1,0,0:0:0:0:
384,192,128061,1,0,0:0:0:0:
256,288,128143,1,0,0:0:0:0:
160,96,128225,1,2,0:0:0:0:
256,128,128553,1,4,0:0:0:0:
