osu file format v14

[General]
AudioFilename: audio.mp3
AudioLeadIn: 0
PreviewTime: 302289
Countdown: 0
SampleSet: Soft
StackLeniency: 0.7
Mode: 0
LetterboxInBreaks: 0
EpilepsyWarning: 1
WidescreenStoryboard: 1

[Editor]
Bookmarks: 1205,85205,160828,237790,285790,335321,365721
DistanceSpacing: 0.9
BeatDivisor: 12
GridSize: 8
TimelineZoom: 3.200005

[Metadata]
Title:Chronodivinity
TitleUnicode:Chronodivinity
Artist:nm-y as "Vanquisher"
ArtistUnicode:nm-y as "Vanquisher"
Creator:DeviousPanda
Version:Panda & Camo's Chronos
Source:The Roundtable II
Tags:DIVINITY electronic instrumental camo himada
BeatmapID:4213728
BeatmapSetID:2023031

[Difficulty]
HPDrainRate:4
CircleSize:3.9
OverallDifficulty:9
ApproachRate:9.7
SliderMultiplier:1.4
SliderTickRate:1

[Events]
//Background and Video events
0,0,"picture_1920_1080 (1).png",0,0
//Break Periods
2,105055,108373
2,170628,178333
2,237990,246895
2,335521,336492
2,341521,342826
//Storyboard Layer 0 (Background)
//Storyboard Layer 1 (Fail)
//Storyboard Layer 2 (Pass)
//Storyboard Layer 3 (Foreground)
//Storyboard Layer 4 (Overlay)
//Storyboard Sound Samples

[TimingPoints]
1205,300,4,2,1,50,1,0
3605,-166.666666666667,4,2,1,50,0,0
22205,-125,4,2,1,50,0,0
25205,-71.4285714285714,4,2,2,60,0,0
28880,-71.4285714285714,4,2,1,60,0,0
29705,-71.4285714285714,4,2,2,60,0,0
30005,-50,4,2,2,70,0,0
32105,-250,4,2,2,70,0,0
32705,-50,4,2,2,70,0,0
33605,-71.4285714285714,4,2,2,70,0,0
34805,-66.6666666666667,4,2,2,60,0,0
37205,-62.5,4,2,2,60,0,0
39605,-125,4,2,2,50,0,0
40805,-166.666666666667,4,2,2,50,0,0
43205,-100,4,2,2,50,0,0
43805,-71.4285714285715,4,2,2,50,0,0
44405,-50,4,2,2,65,0,0
46505,-55.5555555555556,4,2,2,65,0,0
50705,-50,4,2,2,65,0,0
54005,-50,4,2,2,75,0,1
57605,-50,4,2,1,75,0,1
58805,-50,4,2,2,60,0,0
59705,-100,4,2,2,60,0,0
60005,-62.5,4,2,2,60,0,0
61205,-62.5,4,2,2,75,0,1
66005,-166.666666666667,4,2,2,50,0,0
75605,-125,4,2,2,60,0,0
79205,-100,4,2,2,60,0,0
80405,-83.3333333333333,4,2,2,60,0,0
85205,-55.5555555555556,4,2,2,75,0,1
88805,-47.6190476190476,4,2,2,75,0,1
88955,-100,4,2,2,75,0,1
89255,-47.6190476190476,4,2,2,75,0,1
89405,-100,4,2,2,75,0,1
89705,-47.6190476190476,4,2,2,75,0,1
92105,-41.6666666666667,4,2,2,75,0,1
92180,-35.7142857142857,4,2,2,75,0,1
92255,-31.25,4,2,2,75,0,1
92330,-27.7777777777778,4,2,2,75,0,1
94205,-100,4,2,2,75,0,1
94505,-66.6666666666667,4,2,2,75,0,1
94805,-40,4,2,2,75,0,1
95105,-50,4,2,2,75,0,1
97205,-41.6666666666667,4,2,2,75,0,1
99605,-50,4,2,2,75,0,1
102305,-100,4,2,2,75,0,1
102905,-50,4,2,2,75,0,1
103205,-66.6666666666667,4,2,2,75,0,1
103805,-50,4,2,2,75,0,1
104105,-40,4,2,2,75,0,1
104405,-40,4,2,2,55,0,0
105605,315.789473684211,4,2,1,60,1,0
106868,333.333333333333,4,2,2,60,1,0
108868,-33.3333333333333,4,2,2,70,0,0
109534,-37.037037037037,4,2,2,70,0,0
110034,-125,4,2,2,70,0,0
110368,-37.037037037037,4,2,2,70,0,0
111868,-47.6190476190476,4,2,2,70,0,0
112201,-37.037037037037,4,2,2,70,0,0
112701,-66.6666666666667,4,2,2,70,0,0
112868,-37.037037037037,4,2,2,70,0,0
113368,-66.6666666666667,4,2,2,70,0,0
114201,-33.3333333333333,4,2,2,70,0,0
114867,-33.3333333333333,4,2,1,70,0,0
115534,-52.6315789473684,4,2,1,70,0,0
115867,-100,4,2,1,70,0,0
116034,-83.3333333333333,4,2,1,70,0,0
116201,-37.037037037037,4,2,2,70,0,0
116867,-34.4827586206897,4,2,2,70,0,0
117534,324.324324324324,4,2,2,70,1,0
117534,-52.6315789473684,4,2,2,70,0,0
117858,-100,4,2,2,70,0,0
118182,315.789473684211,4,2,2,70,1,0
118418,-66.6666666666667,4,2,2,70,0,0
118813,307.692307692308,4,2,2,70,1,0
119120,-66.6666666666667,4,2,2,70,0,0
119274,-50,4,2,2,70,0,0
119428,300,4,2,2,70,1,0
119428,-28.5714285714286,4,2,2,70,0,0
119728,-100,4,2,2,70,0,0
119878,-50,4,2,2,70,0,0
121228,-200,4,2,2,70,0,0
121828,-100,4,2,2,55,0,0
122428,300,4,2,2,55,1,0
127228,-66.6666666666667,4,2,2,55,0,0
127378,-55.5555555555556,4,2,2,55,0,0
127528,-50,4,2,2,55,0,0
128128,-45.4545454545455,4,2,2,55,0,0
128428,-50,4,2,2,55,0,0
129328,-45.4545454545455,4,2,2,55,0,0
129628,-55.5555555555556,4,2,2,55,0,0
132028,-40,4,2,2,65,0,0
132328,-50,4,2,2,65,0,0
132928,-40,4,2,2,65,0,0
133228,-50,4,2,2,65,0,0
134128,-45.4545454545455,4,2,2,65,0,0
134278,-40,4,2,2,65,0,0
134428,-43.4782608695652,4,2,2,65,0,0
134728,-50,4,2,2,65,0,0
135328,-250,4,2,2,65,0,0
135628,-45.4545454545455,4,2,2,65,0,0
136828,-40,4,2,2,65,0,0
139828,-38.4615384615385,4,2,2,65,0,0
140428,-66.6666666666667,4,2,2,60,0,0
141328,-1000,4,2,2,60,0,0
141628,-35.7142857142857,4,2,2,75,0,0
143878,-100,4,2,2,75,0,0
144028,-33.3333333333333,4,2,2,75,0,0
144328,-40,4,2,2,75,0,0
144478,-35.7142857142857,4,2,2,75,0,0
145678,-52.6315789473684,4,2,2,75,0,0
145828,-40,4,2,2,70,0,0
146428,-200,4,2,2,70,0,0
148528,-37.037037037037,4,2,2,75,0,0
149128,-200,4,2,2,70,0,0
150028,-66.6666666666667,4,2,2,70,0,0
150478,-100,4,2,2,70,0,0
150928,-50,4,2,2,70,0,0
151228,-50,4,2,2,75,0,0
153628,-100,4,2,2,75,0,0
153928,-66.6666666666667,4,2,2,75,0,0
154828,-50,4,2,2,75,0,0
160528,-40,4,2,2,75,0,0
160828,-100,4,2,1,60,0,0
169828,-100,4,2,2,60,0,0
170428,-125,4,2,2,60,0,0
178828,-125,4,2,2,45,0,0
188428,-100,4,2,2,45,0,0
189028,342.857142857143,4,2,2,55,1,0
189370,400,4,2,2,65,1,0
189790,300,4,2,2,70,1,0
189790,-71.4285714285714,4,2,2,70,0,0
193690,-250,4,2,2,70,0,0
193990,-71.4285714285714,4,2,2,70,0,0
196690,-62.5,4,2,2,70,0,0
208990,-71.4285714285714,4,2,2,75,0,1
209290,-66.6666666666667,4,2,2,75,0,1
209590,-62.5,4,2,2,75,0,1
209890,-58.8235294117647,4,2,2,75,0,1
210190,-55.5555555555556,4,2,2,75,0,1
210490,-52.6315789473684,4,2,2,75,0,1
210790,-50,4,2,2,75,0,1
212890,-55.5555555555556,4,2,2,75,0,1
213190,-62.5,4,2,2,75,0,1
213490,-71.4285714285714,4,2,2,75,0,1
213640,-83.3333333333333,4,2,2,75,0,1
213790,-71.4285714285714,4,2,2,75,0,1
214090,-66.6666666666667,4,2,2,75,0,1
214390,-62.5,4,2,2,75,0,1
214690,-58.8235294117647,4,2,2,75,0,1
214990,-55.5555555555556,4,2,2,75,0,1
215290,-52.6315789473684,4,2,2,75,0,1
215590,-50,4,2,2,75,0,1
219790,-71.4285714285714,4,2,2,60,0,0
220990,-71.4285714285714,4,2,2,75,0,1
222190,-71.4285714285714,4,2,2,60,0,0
223390,-71.4285714285714,4,2,2,70,0,1
223990,-71.4285714285714,4,2,2,65,0,1
224590,-71.4285714285714,4,2,2,60,0,1
225190,-71.4285714285714,4,2,2,55,0,1
225790,-71.4285714285714,4,2,2,50,0,1
226090,-71.4285714285714,4,2,2,45,0,1
226390,-71.4285714285714,4,2,2,40,0,1
226690,-71.4285714285714,4,2,2,35,0,1
226990,-71.4285714285714,4,2,2,30,0,0
228190,-71.4285714285714,4,2,2,75,0,1
230627,-71.4285714285714,4,2,2,60,0,1
231190,-71.4285714285714,4,2,2,75,0,1
232990,-95.2380952380952,4,2,2,60,0,0
235390,-90.9090909090909,4,2,2,60,0,0
237790,-90.9090909090909,4,2,2,45,0,0
247390,-100,4,2,2,45,0,0
251890,-66.6666666666667,4,2,2,45,0,0
252190,-100,4,2,2,45,0,0
254590,-250,4,2,2,45,0,0
255190,-100,4,2,2,45,0,0
255790,-142.857142857143,4,2,2,45,0,0
256390,-200,4,2,2,45,0,0
256690,-100,4,2,2,45,0,0
257740,-100,4,2,2,5,0,0
257777,-100,4,2,2,10,0,0
257815,-100,4,2,2,15,0,0
257852,-100,4,2,2,20,0,0
257890,-100,4,2,2,25,0,0
257927,-100,4,2,2,30,0,0
257965,-100,4,2,2,35,0,0
258002,-100,4,2,2,40,0,0
258040,-100,4,2,2,45,0,0
258077,-100,4,2,2,50,0,0
258115,-100,4,2,2,45,0,0
258940,-100,4,2,2,5,0,0
258977,-100,4,2,2,10,0,0
259015,-100,4,2,2,15,0,0
259052,-100,4,2,2,20,0,0
259090,-100,4,2,2,25,0,0
259127,-100,4,2,2,30,0,0
259165,-100,4,2,2,35,0,0
259202,-100,4,2,2,40,0,0
259240,-100,4,2,2,45,0,0
259277,-100,4,2,2,50,0,0
259315,-100,4,2,2,45,0,0
260140,-100,4,2,2,5,0,0
260177,-100,4,2,2,10,0,0
260215,-100,4,2,2,15,0,0
260252,-100,4,2,2,20,0,0
260290,-100,4,2,2,25,0,0
260327,-100,4,2,2,30,0,0
260365,-100,4,2,2,35,0,0
260402,-100,4,2,2,40,0,0
260440,-100,4,2,2,45,0,0
260477,-100,4,2,2,50,0,0
260515,-100,4,2,2,45,0,0
261340,-100,4,2,2,5,0,0
261377,-100,4,2,2,10,0,0
261415,-100,4,2,2,15,0,0
261452,-100,4,2,2,20,0,0
261490,-100,4,2,2,25,0,0
261527,-100,4,2,2,30,0,0
261565,-100,4,2,2,35,0,0
261602,-100,4,2,2,40,0,0
261640,-100,4,2,2,45,0,0
261677,-100,4,2,2,50,0,0
261715,-100,4,2,2,45,0,0
262240,-100,4,2,2,30,0,0
262990,-100,4,2,2,45,0,0
263440,-100,4,2,2,30,0,0
263890,-100,4,2,2,25,0,0
263927,-100,4,2,2,30,0,0
263965,-100,4,2,2,35,0,0
264002,-100,4,2,2,40,0,0
264040,-100,4,2,2,45,0,0
264077,-100,4,2,2,50,0,0
264115,-100,4,2,2,45,0,0
264790,-1000,4,2,2,45,0,0
265315,-1000,4,2,2,5,0,0
265390,-100,4,2,2,50,0,0
265427,-100,4,2,2,15,0,0
265465,-100,4,2,2,20,0,0
265502,-100,4,2,2,25,0,0
265540,-100,4,2,2,30,0,0
265577,-100,4,2,2,35,0,0
265615,-100,4,2,2,40,0,0
265652,-100,4,2,2,45,0,0
265690,-100,4,2,2,50,0,0
265727,-100,4,2,2,55,0,0
265765,-100,4,2,2,60,0,0
265802,-100,4,2,2,65,0,0
265840,-100,4,2,2,70,0,0
265877,-100,4,2,2,75,0,0
265915,-100,4,2,2,80,0,0
265952,-100,4,2,2,85,0,0
265990,-100,4,2,2,90,0,0
266027,-100,4,2,2,95,0,0
266065,-100,4,2,2,100,0,0
266102,-100,4,2,2,100,0,0
266140,-100,4,2,2,100,0,0
266177,-100,4,2,2,100,0,0
266215,-100,4,2,2,100,0,0
266252,-100,4,2,2,100,0,0
266290,-100,4,2,2,100,0,0
266327,-100,4,2,2,100,0,0
266365,-100,4,2,2,100,0,0
266402,-100,4,2,2,100,0,0
266440,-100,4,2,2,100,0,0
266477,-100,4,2,2,100,0,0
266515,-100,4,2,2,100,0,0
266590,-100,4,2,1,55,0,0
275290,-66.6666666666667,4,2,2,55,0,0
275590,-66.6666666666667,4,2,1,55,0,0
276190,-100,4,2,1,60,0,0
283090,-66.6666666666667,4,2,1,60,0,0
284665,-66.6666666666667,4,2,2,60,0,0
285190,-50,4,2,2,60,0,0
285790,-100,4,2,1,65,0,0
290590,279.06976744186,4,2,1,70,1,0
294217,-100,4,2,2,70,0,0
294496,-100,4,2,1,70,0,0
295055,266.666666666667,4,2,1,75,1,0
299055,-100,4,2,2,75,0,0
299321,250,4,2,1,80,1,0
299352,-100,4,2,2,80,0,0
300321,-100,4,2,1,80,0,0
300352,-100,4,2,2,80,0,0
301321,-100,4,2,1,80,0,0
301352,-100,4,2,2,80,0,0
302321,-100,4,2,1,80,0,0
302821,-100,4,2,2,80,0,0
303321,-50,4,2,2,90,0,1
327321,-62.5,4,2,2,90,0,1
332321,-55.5555555555556,4,2,2,90,0,1
333321,-50,4,2,2,90,0,1
335321,-100,4,2,2,70,0,0
336987,-50,4,2,2,70,0,0
338654,-1000,4,2,2,70,0,0
339321,-50,4,2,2,70,0,0
340321,-71.4285714285714,4,2,2,70,0,0
346321,-50,4,2,2,70,0,0
347321,-100,4,2,2,70,0,0
348321,-76.9230769230769,4,2,2,70,0,0
349321,-62.5,4,2,2,70,0,0
350321,-50,4,2,2,70,0,0
351321,300,4,2,2,50,1,0
351321,-1000,4,2,2,50,0,0
357871,-111.111111111111,4,2,2,50,0,0
360921,-111.111111111111,4,2,1,50,0,0
365121,-50,4,2,2,50,0,0
365721,384.615384615385,4,2,2,60,1,0
365721,-250,4,2,2,60,0,0
366105,375,4,2,2,60,1,0
366105,-250,4,2,2,60,0,0
366855,361.44578313253,4,2,2,60,1,0
366855,-250,4,2,2,60,0,0
367216,352.941176470588,4,2,2,60,1,0
367216,-250,4,2,2,60,0,0
367568,344.827586206897,4,2,2,60,1,0
367568,-250,4,2,2,60,0,0
367912,337.078651685393,4,2,2,60,1,0
367912,-250,4,2,2,60,0,0
368249,329.67032967033,4,2,2,60,1,0
368249,-250,4,2,2,60,0,0
368578,263.157894736842,4,2,2,60,1,0
368578,-250,4,2,2,60,0,0
369104,258.620689655172,4,2,2,60,1,0
369104,-250,4,2,2,60,0,0
369362,250,4,2,2,60,1,0
369362,-250,4,2,2,60,0,0
370112,250,4,2,2,60,1,0
374112,-62.5,4,2,2,80,0,1
376143,-62.5,4,2,2,50,0,1
377112,-62.5,4,2,2,80,0,1
377143,-62.5,4,2,2,50,0,1
377362,-62.5,4,2,2,80,0,1
377393,-62.5,4,2,2,50,0,1
377612,-62.5,4,2,2,80,0,1
377643,-62.5,4,2,2,50,0,1
377862,-62.5,4,2,2,80,0,1
377893,-62.5,4,2,2,50,0,1
378112,-62.5,4,2,2,80,0,1
379643,-62.5,4,2,2,50,0,1
379862,-62.5,4,2,2,80,0,1
379893,-62.5,4,2,2,50,0,1
380112,-62.5,4,2,2,80,0,1
381643,-62.5,4,2,2,50,0,1
381862,-62.5,4,2,2,80,0,1
381893,-62.5,4,2,2,50,0,1
382112,-62.5,4,2,2,80,0,1
384112,-62.5,4,2,2,80,0,1
384143,-62.5,4,2,2,50,0,1
385112,-45.4545454545455,4,2,2,80,0,1
385127,-45.4545454545455,4,2,2,50,0,1
386112,-62.5,4,2,2,90,0,0

[Colours]
Combo1 : 211,190,233
Combo2 : 253,185,166
Combo3 : 238,209,157
Combo4 : 167,184,209

[HitObjects]
256,192,1205,12,0,3530,0:0:0:0:
255,4,3605,5,2,0:2:0:0:
349,28,4805,5,2,0:3:0:0:
418,97,6005,37,2,0:2:0:0:
444,190,7205,5,2,0:3:0:0:
419,285,8405,37,2,0:2:0:0:
350,354,9605,5,2,0:3:0:0:
257,380,10805,37,2,0:2:0:0:
162,355,12005,5,2,0:3:0:0:
93,286,13205,37,2,0:2:0:0:
97,290,13505,5,0,3:0:0:0:
131,280,13605,1,0,3:0:0:0:
165,268,13705,1,0,3:0:0:0:
210,209,13805,37,12,3:2:0:0:
322,269,14005,1,8,0:2:0:0:
248,373,14205,1,8,0:2:0:0:
67,193,14405,5,2,0:3:0:0:
168,271,14705,2,0,P|130:266|101:247,1,55.9999982910157,0|0,3:0|0:0,0:0:0:0:
70,196,15005,1,4,3:2:0:0:
180,16,15305,37,0,3:0:0:0:
191,53,15405,1,0,3:0:0:0:
168,82,15505,1,0,3:0:0:0:
92,98,15605,5,2,0:2:0:0:
8,22,15905,37,0,3:0:0:0:
40,11,16005,1,0,3:0:0:0:
64,28,16105,1,0,3:0:0:0:
89,101,16205,5,4,3:2:0:0:
0,232,16405,2,0,P|6:187|24:152,1,83.9999974365235,0|0,3:0|0:0,0:0:0:0:
161,29,16805,37,2,0:3:0:0:
164,32,17405,5,0,3:3:0:0:
159,65,17505,1,0,3:0:0:0:
187,87,17605,1,0,3:0:0:0:
237,150,17705,37,8,3:2:0:0:
282,146,17805,1,8,3:2:0:0:
300,102,17905,1,8,3:2:0:0:
255,4,18005,5,2,3:2:0:0:
255,8,18305,1,0,3:0:0:0:
255,12,18605,1,0,3:0:0:0:
255,16,18905,1,0,3:0:0:0:
349,28,19205,37,2,3:3:0:0:
347,31,19505,1,0,3:0:0:0:
345,34,19805,1,0,3:0:0:0:
343,38,20105,1,0,3:0:0:0:
418,97,20405,5,2,1:2:0:0:
413,99,20555,1,0,3:0:0:0:
408,101,20705,1,0,1:0:0:0:
403,103,20855,1,0,3:0:0:0:
398,105,21005,1,0,1:0:0:0:
393,107,21155,1,0,3:0:0:0:
388,109,21305,1,0,1:0:0:0:
383,111,21455,1,0,3:0:0:0:
444,190,21605,37,2,1:3:0:0:
439,190,21755,1,0,3:0:0:0:
434,190,21905,1,0,1:0:0:0:
429,190,22055,1,0,3:0:0:0:
423,190,22205,6,0,L|370:190,1,28,0|0,1:0|3:0,0:0:0:0:
89,190,22355,2,0,L|142:190,1,28,0|0,1:0|3:0,0:0:0:0:
320,152,22505,38,0,L|294:167,1,28,0|0,1:0|3:0,0:0:0:0:
189,228,22655,2,0,L|215:213,1,28,0|0,1:0|3:0,0:0:0:0:
419,284,22805,5,2,3:2:0:0:
350,354,24005,37,2,0:3:0:0:
257,380,25205,6,0,P|261:320|281:259,1,97.9999970092774,14|2,1:2|3:2,0:0:0:0:
303,268,25430,1,2,3:2:0:0:
333,255,25505,1,8,1:0:0:0:
248,208,25655,1,2,3:0:0:0:
422,113,25805,2,0,P|419:161|408:209,1,97.9999970092774,0|2,1:2|3:2,0:0:0:0:
379,195,26030,1,2,3:2:0:0:
348,183,26105,1,8,1:1:0:0:
462,276,26255,2,0,P|431:282|408:290,1,48.9999985046387,2|0,3:0|0:0,0:0:0:0:
252,212,26405,38,0,P|193:229|147:236,1,97.9999970092774,6|2,1:2|3:2,0:0:0:0:
136,206,26630,1,2,3:2:0:0:
150,173,26705,1,8,1:1:0:0:
276,120,26855,1,2,3:0:0:0:
201,300,27005,2,0,P|127:280|39:269,1,146.999995513916,0|0,1:0|0:0,0:0:0:0:
66,158,27305,5,8,1:1:0:0:
54,113,27380,1,2,3:2:0:0:
93,81,27455,1,2,3:2:0:0:
135,101,27530,1,2,3:2:0:0:
147,176,27605,37,6,1:2:0:0:
0,223,27755,1,2,3:2:0:0:
0,223,27830,1,2,3:2:0:0:
0,223,27905,1,8,1:1:0:0:
122,324,28055,1,2,3:0:0:0:
21,384,28205,6,0,P|28:353|30:325,1,48.9999985046387,2|0,1:2|0:0,0:0:0:0:
192,92,28355,1,2,3:2:0:0:
192,92,28430,1,2,3:2:0:0:
192,92,28505,2,0,P|179:139|173:187,1,97.9999970092774,0|2,1:0|3:2,0:0:0:0:
3,226,28805,37,6,1:2:0:0:
42,218,28880,1,0,3:0:0:0:
87,211,28955,1,0,3:0:0:0:
111,247,29030,1,0,3:0:0:0:
132,282,29105,1,8,1:2:0:0:
172,275,29180,1,0,3:0:0:0:
212,268,29255,1,0,3:0:0:0:
233,295,29330,1,0,3:0:0:0:
253,323,29405,1,0,1:2:0:0:
317,214,29705,5,2,3:2:0:0:
319,203,29780,1,2,3:2:0:0:
322,193,29855,1,2,3:2:0:0:
324,183,29930,1,2,3:2:0:0:
400,151,30005,38,0,B|385:126|385:126|208:163,1,210,8|0,1:0|0:0,0:0:0:0:
512,205,30305,6,0,B|497:180|497:180|320:217,1,210,8|0,1:0|0:0,0:0:0:0:
280,98,30605,38,0,B|265:73|265:73|88:110,1,210,8|0,1:0|0:0,0:0:0:0:
85,114,30905,5,10,1:0:0:0:
69,187,30980,1,10,1:0:0:0:
58,261,31055,1,10,1:0:0:0:
131,275,31130,1,10,1:0:0:0:
205,282,31205,38,0,B|214:227|214:227|194:206,1,70,8|0,1:0|0:0,0:0:0:0:
0,74,31355,6,0,B|9:84|9:84|0:139,1,70,8|0,1:0|0:0,0:0:0:0:
271,374,31505,38,0,B|297:200|297:200|248:158,1,210,8|0,1:0|0:0,0:0:0:0:
208,279,31805,6,0,B|234:105|234:105|185:63,1,210,8|0,1:0|0:0,0:0:0:0:
149,141,32105,38,2,L|107:149,1,42,8|0,1:0|0:0,0:1:0:0:
104,146,32405,2,2,L|145:137,1,42,8|0,1:0|0:0,0:1:0:0:
400,73,32705,6,0,B|368:46|368:46|182:92,1,210,8|0,1:0|0:0,0:0:0:0:
397,76,33005,38,0,B|232:115|232:115|201:89,1,210,8|0,1:0|0:0,0:0:0:0:
135,52,33305,6,0,B|108:30|108:30|156:51,1,70,8|0,1:0|0:0,0:0:0:0:
468,109,33455,38,0,B|495:131|495:131|447:110,1,70,8|0,1:0|0:0,0:0:0:0:
291,24,33605,6,0,L|297:-15,6,24.4999992523194,8|2|2|2|2|2|2,1:0|3:0|3:0|3:0|3:0|3:0|3:0,0:0:0:0:
321,93,33905,37,0,3:0:0:0:
319,104,33980,1,0,3:0:0:0:
318,115,34055,1,0,3:0:0:0:
316,126,34130,1,0,3:0:0:0:
246,164,34205,5,2,3:2:0:0:
248,178,34280,1,2,3:2:0:0:
251,193,34355,1,2,3:2:0:0:
254,207,34430,1,2,3:2:0:0:
324,237,34505,37,2,3:2:0:0:
319,256,34580,1,2,3:2:0:0:
315,275,34655,1,2,3:2:0:0:
311,294,34730,1,2,3:2:0:0:
380,329,34805,6,0,P|310:338|225:369,1,157.500006008148,6|0,1:2|0:0,0:0:0:0:
153,308,35105,2,0,P|181:301|211:286,1,52.5000020027161,8|0,1:0|0:0,0:0:0:0:
202,291,35255,1,2,3:0:0:0:
320,233,35405,38,0,P|332:167|354:117,1,105.000004005432,2|2,1:2|3:2,0:0:0:0:
380,125,35630,1,2,3:2:0:0:
417,116,35705,1,8,1:0:0:0:
485,224,35855,2,0,P|451:216|423:205,1,52.5000020027161,2|0,3:0|0:0,0:0:0:0:
241,20,36005,6,0,P|259:69|267:120,1,105.000004005432,2|2,1:2|3:2,0:0:0:0:
230,111,36230,1,2,3:2:0:0:
197,102,36305,1,8,1:0:0:0:
360,0,36455,38,0,P|347:43|346:66,1,52.5000020027161,2|0,3:0|0:0,0:0:0:0:
276,197,36605,2,0,P|198:207|100:246,1,157.500006008148,2|0,1:2|0:0,0:0:0:0:
64,185,36905,1,0,1:0:0:0:
48,140,36980,1,0,1:0:0:0:
35,94,37055,1,0,1:0:0:0:
81,79,37130,1,0,1:0:0:0:
128,69,37205,6,0,P|117:115|118:151,1,56,6|0,1:2|0:0,0:0:0:0:
73,305,37355,1,8,1:0:0:0:
117,318,37430,1,8,1:0:0:0:
143,288,37505,2,0,P|124:244|102:215,1,56,0|0,1:2|0:0,0:0:0:0:
71,23,37655,37,8,1:0:0:0:
0,46,37730,1,8,1:0:0:0:
0,121,37805,2,0,P|40:145|74:155,1,56,0|0,1:2|0:0,0:0:0:0:
226,170,37955,6,0,P|178:173|144:185,1,56,0|0,1:2|0:0,0:0:0:0:
0,263,38105,38,0,P|35:232|56:202,1,56,0|0,1:2|3:0,3:0:0:0:
140,51,38255,6,0,P|129:97|130:133,1,56,0|0,1:2|0:0,0:0:0:0:
200,363,38405,37,8,1:0:0:0:
200,363,38705,5,8,1:0:0:0:
200,363,39005,37,8,1:0:0:0:
200,363,39305,5,8,1:0:0:0:
228,355,39380,1,2,3:2:0:0:
256,350,39455,1,2,3:2:0:0:
284,344,39530,1,2,3:2:0:0:
350,384,39605,37,6,1:2:0:0:
512,216,39905,5,0,3:0:0:0:
450,262,40055,2,0,P|380:218|402:142,1,168,6|2,1:2|0:0,0:0:0:0:
397,145,40655,1,2,0:0:0:0:
470,112,40805,38,0,P|492:69|489:30,1,83.9999974365235,0|0,1:0|0:0,0:0:0:0:
418,34,41255,1,2,1:2:0:0:
418,34,41330,1,2,0:0:0:0:
418,34,41405,2,0,P|404:61|403:82,1,41.9999987182618,2|2,3:2|0:0,0:0:0:0:
331,97,41705,2,0,P|348:131|365:144,1,41.9999987182618,2|2,3:2|0:0,0:0:0:0:
422,173,42005,5,8,1:0:0:0:
457,240,42155,1,0,1:0:0:0:
427,309,42305,1,0,1:0:0:0:
349,312,42455,1,0,1:0:0:0:
300,253,42605,37,8,1:0:0:0:
505,174,42805,1,8,1:0:0:0:
441,384,43005,1,8,1:0:0:0:
247,187,43205,6,0,P|252:166|256:124,3,35,8|0|0|0,1:0|1:0|1:0|1:0,0:0:0:0:
192,240,43505,2,0,P|187:261|183:303,3,35,8|0|0|0,1:0|1:0|1:0|1:0,0:0:0:0:
192,110,43805,38,0,P|187:89|183:38,1,48.9999985046387,8|0,1:0|1:0,0:0:0:0:
248,322,43955,2,0,P|253:343|256:393,1,48.9999985046387,8|0,1:0|1:0,0:0:0:0:
59,224,44105,5,8,1:0:0:0:
37,187,44180,1,0,1:0:0:0:
14,200,44255,1,8,1:0:0:0:
7,186,44330,1,0,1:0:0:0:
0,192,44405,38,2,P|-5:133|85:95,1,140,6|2,1:0|3:0,0:1:0:0:
195,0,44630,1,2,3:2:0:0:
215,39,44705,2,0,P|203:73|194:127,1,70,8|0,1:0|3:2,3:2:0:0:
285,206,44855,2,0,P|277:142|264:114,1,70,2|0,3:0|0:0,0:0:0:0:
64,121,45005,6,0,B|146:136|111:170|187:187,1,140,2|2,1:2|3:0,0:0:0:0:
222,255,45230,1,2,3:2:0:0:
222,255,45305,1,8,1:0:0:0:
358,118,45455,1,2,3:0:0:0:
420,333,45605,1,6,1:2:0:0:
469,333,45680,1,2,3:2:0:0:
505,300,45755,1,2,3:2:0:0:
512,251,45830,1,2,3:2:0:0:
488,208,45905,1,8,1:0:0:0:
226,259,46055,37,6,3:2:0:0:
179,275,46130,1,2,3:2:0:0:
134,257,46205,1,2,1:2:0:0:
111,213,46280,1,2,3:2:0:0:
119,164,46355,1,2,3:2:0:0:
155,131,46430,1,2,3:2:0:0:
204,130,46505,6,0,P|197:174|179:218,1,62.9999980773926,8|0,1:0|0:0,0:0:0:0:
381,307,46655,2,0,P|387:272|408:220,1,62.9999980773926,0|0,1:0|0:0,0:0:0:0:
489,63,46805,37,6,1:0:0:0:
465,30,46880,1,2,3:2:0:0:
425,27,46955,1,2,3:2:0:0:
395,53,47030,1,2,3:2:0:0:
392,93,47105,5,8,1:0:0:0:
343,76,47180,1,2,3:2:0:0:
305,100,47255,1,2,3:2:0:0:
302,142,47330,1,2,3:2:0:0:
332,173,47405,37,0,1:0:0:0:
281,186,47480,1,2,3:2:0:0:
276,241,47555,1,2,3:2:0:0:
319,274,47630,1,2,3:2:0:0:
393,242,47705,6,0,P|407:206|413:162,1,62.9999980773926,8|0,1:0|0:0,0:0:0:0:
194,194,47855,2,0,P|180:230|174:274,1,62.9999980773926,0|0,1:0|0:0,0:0:0:0:
313,368,48005,37,6,1:2:0:0:
232,52,48155,1,2,3:2:0:0:
193,79,48230,1,2,3:2:0:0:
217,121,48305,1,8,1:0:0:0:
317,372,48455,5,2,3:2:0:0:
356,345,48530,1,2,3:2:0:0:
332,303,48605,2,0,L|241:325,1,62.9999980773926,2|0,1:2|0:0,0:0:0:0:
214,370,48755,2,0,L|123:392,1,62.9999980773926,2|0,1:2|0:0,0:0:0:0:
491,383,48905,38,0,L|400:361,1,62.9999980773926,2|0,1:2|0:0,0:0:0:0:
91,281,49055,2,0,L|152:295,1,62.9999980773926,2|0,1:2|0:0,0:0:0:0:
419,289,49205,6,2,P|463:232|421:116,1,188.999994232178,6|0,1:0|0:0,0:1:0:0:
326,189,49505,2,0,P|330:228|354:261,1,62.9999980773926,8|0,1:0|0:0,0:0:0:0:
496,178,49655,1,2,3:2:0:0:
288,46,49805,1,2,1:2:0:0:
431,0,49955,37,2,3:2:0:0:
475,34,50030,1,2,3:2:0:0:
469,92,50105,1,8,1:0:0:0:
416,114,50180,1,2,3:2:0:0:
360,91,50255,1,2,3:2:0:0:
307,117,50330,1,2,3:2:0:0:
329,186,50405,6,0,L|399:200,1,62.9999980773926,6|0,1:2|0:0,0:0:0:0:
424,268,50555,2,0,L|494:282,1,62.9999980773926,2|0,1:2|0:0,0:0:0:0:
214,264,50705,38,0,L|293:248,1,70,0|0,1:0|0:0,0:0:0:0:
487,104,50855,2,0,L|419:117,1,70,0|0,1:2|0:0,0:0:0:0:
149,213,51005,6,0,P|72:183|110:61,1,210,8|0,1:0|0:0,0:0:0:0:
107,78,51305,1,8,1:0:0:0:
127,83,51380,1,2,3:2:0:0:
147,88,51455,1,2,3:2:0:0:
167,93,51530,1,2,3:2:0:0:
229,45,51605,37,0,1:0:0:0:
270,262,51755,1,2,1:2:0:0:
54,303,51905,1,8,1:0:0:0:
13,86,52055,1,2,1:2:0:0:
260,116,52205,5,0,1:0:0:0:
84,54,52355,1,2,1:2:0:0:
22,231,52505,1,8,1:0:0:0:
198,293,52655,1,2,1:2:0:0:
141,173,52805,37,0,1:0:0:0:
141,173,52955,1,2,1:2:0:0:
447,265,53255,5,8,1:0:0:0:
412,273,53330,1,8,1:0:0:0:
381,279,53405,2,0,P|364:233|372:204,1,70,8|0,1:0|0:0,0:0:0:0:
131,105,53555,2,0,P|148:151|140:180,1,70,8|0,1:0|0:0,0:0:0:0:
246,336,53705,37,6,1:2:0:0:
249,263,53780,1,2,1:2:0:0:
253,190,53855,1,2,1:2:0:0:
257,117,53930,1,2,1:2:0:0:
261,38,54005,6,0,L|428:8,1,140,14|0,1:2|0:0,0:0:0:0:
116,138,54230,2,0,L|283:108,1,140,8|0,1:0|0:0,0:0:0:0:
479,112,54455,38,0,L|382:92,1,70,0|0,1:0|0:0,0:0:0:0:
99,28,54605,1,8,1:2:0:0:
256,193,54755,6,0,L|339:178,1,70,0|0,1:0|0:0,0:0:0:0:
328,176,54905,2,0,L|259:188,1,70,8|0,1:0|0:0,0:0:0:0:
66,215,55055,1,8,1:0:0:0:
1,176,55130,1,8,1:0:0:0:
44,115,55205,1,8,1:2:0:0:
427,197,55505,37,8,1:0:0:0:
62,219,55805,6,0,L|228:252,1,140,8|0,1:2|0:0,0:0:0:0:
245,310,56030,2,0,L|411:343,1,140,8|0,1:0|0:0,0:0:0:0:
466,299,56255,37,8,1:0:0:0:
497,230,56330,1,8,1:0:0:0:
430,200,56405,2,0,L|253:239,1,140,8|0,1:2|0:0,0:0:0:0:
112,344,56630,2,0,L|248:313,1,140,8|0,1:0|0:0,0:0:0:0:
462,303,56855,6,0,L|366:281,1,70,8|0,1:0|0:0,0:0:0:0:
176,121,57005,38,0,L|342:154,1,140,8|0,1:2|0:0,0:0:0:0:
0,226,57230,2,0,L|166:259,1,140,8|0,1:0|0:0,0:0:0:0:
434,204,57455,6,0,L|338:226,1,70,8|0,1:0|0:0,0:0:0:0:
256,282,57605,38,0,L|252:316,2,35,10|0|0,1:2|3:0|3:0,0:0:0:0:
243,208,57755,2,0,L|246:173,2,35,0|0|0,1:0|3:0|3:0,0:0:0:0:
265,350,57905,6,0,L|269:384,2,35,8|0|0,1:0|3:0|3:0,0:0:0:0:
233,138,58055,2,0,L|229:103,2,35,0|0|0,1:0|3:0|3:0,0:0:0:0:
327,257,58205,38,0,L|375:268,2,35,10|0|0,1:2|3:0|3:0,0:0:0:0:
174,233,58355,2,0,L|126:222,2,35,8|0|0,1:0|3:0|3:0,0:0:0:0:
397,224,58505,6,0,L|445:213,2,35,8|0|0,1:0|3:0|3:0,0:0:0:0:
108,269,58655,2,0,L|60:280,2,35,8|0|0,1:0|3:0|3:0,0:0:0:0:
262,347,58805,37,14,1:2:0:0:
310,289,58955,1,2,0:0:0:0:
260,230,59105,1,2,0:0:0:0:
199,146,59255,5,2,1:2:0:0:
165,107,59330,1,2,0:0:0:0:
194,72,59405,1,2,0:0:0:0:
263,106,59555,1,2,0:0:0:0:
256,231,59705,38,0,L|244:291,1,35,0|0,1:0|0:0,0:0:0:0:
251,233,59855,2,0,L|239:293,1,35,2|0,3:2|0:0,0:0:0:0:
84,384,60005,6,0,P|74:318|109:272,1,112,14|0,1:2|0:0,0:0:0:0:
28,245,60230,2,0,P|60:204|133:190,1,112,8|0,1:0|0:0,0:0:0:0:
149,121,60455,2,0,P|188:137|199:157,1,56,8|0,1:0|0:0,0:0:0:0:
435,282,60605,38,0,P|445:216|410:170,1,112,14|0,1:2|0:0,0:0:0:0:
491,143,60830,2,0,P|459:102|386:88,1,112,8|0,1:0|0:0,0:0:0:0:
370,19,61055,2,0,P|331:35|320:55,1,56,8|0,1:0|0:0,0:0:0:0:
288,279,61205,6,0,L|294:329,6,28,10|0|0|0|0|0|0,1:0|3:0|3:0|3:0|3:0|3:0|3:0,0:0:0:0:
236,214,61505,37,8,1:0:0:0:
162,197,61580,1,0,1:0:0:0:
90,173,61655,1,0,1:0:0:0:
160,158,61730,1,0,1:0:0:0:
235,142,61805,2,0,L|232:96,6,28,10|0|0|0|0|0|0,1:0|3:0|3:0|3:0|3:0|3:0|3:0,0:0:0:0:
285,202,62105,5,8,1:0:0:0:
363,220,62180,1,0,1:0:0:0:
437,242,62255,1,0,1:0:0:0:
363,261,62330,1,0,1:0:0:0:
288,279,62405,2,0,L|291:325,6,28,10|0|0|0|0|0|0,1:0|3:0|3:0|3:0|0:0|0:0|0:0,0:0:0:0:
228,109,62705,38,0,L|225:63,6,28,10|0|0|0|0|0|0,1:0|3:0|3:0|3:0|0:0|0:0|0:0,0:0:0:0:
294,311,63005,6,0,L|297:357,6,28,10|0|0|0|0|0|0,1:0|3:0|3:0|3:0|0:0|0:0|0:0,0:0:0:0:
222,77,63305,38,0,L|219:31,6,28,10|0|0|0|0|0|0,1:0|3:0|3:0|3:0|0:0|0:0|0:0,0:0:0:0:
125,184,63605,6,0,L|60:172,1,56,14|0,1:0|0:0,0:0:0:0:
387,200,63755,2,0,L|452:212,1,56,10|0,1:0|0:0,0:0:0:0:
65,252,63905,38,0,L|0:264,1,56,14|0,1:0|0:0,0:0:0:0:
442,138,64055,2,0,L|507:126,1,56,10|0,1:0|0:0,0:0:0:0:
251,0,64205,5,10,1:0:0:0:
251,0,64280,1,8,1:0:0:0:
258,193,64430,37,10,1:0:0:0:
258,193,64505,1,8,1:0:0:0:
261,384,64655,5,10,1:0:0:0:
261,384,64730,1,8,1:0:0:0:
261,384,64805,37,2,1:0:0:0:
314,375,64879,1,2,1:2:0:0:
337,321,64955,1,2,1:2:0:0:
317,267,65029,1,2,1:2:0:0:
262,254,65105,1,2,1:2:0:0:
211,278,65180,1,2,1:2:0:0:
158,255,65255,1,2,1:2:0:0:
148,195,65330,1,2,1:2:0:0:
181,150,65405,1,2,1:2:0:0:
236,155,65479,1,2,1:2:0:0:
287,125,65555,1,2,1:2:0:0:
287,62,65629,1,2,1:2:0:0:
214,36,65705,6,0,L|176:44,6,28,2|2|2|2|2|2|2,1:0|3:2|3:2|3:2|3:2|3:2|3:2,0:0:0:0:
214,36,66005,1,6,1:2:0:0:
354,0,66155,37,2,0:0:0:0:
391,0,66305,1,2,0:0:0:0:
411,26,66455,1,2,0:0:0:0:
485,58,66605,5,2,0:0:0:0:
489,91,66755,1,2,0:0:0:0:
470,113,66905,1,2,0:0:0:0:
359,134,67055,37,2,0:0:0:0:
347,126,67130,1,2,0:0:0:0:
352,113,67205,2,0,P|375:104|399:102,1,41.9999987182618,2|2,3:2|0:0,0:0:0:0:
485,200,67505,2,0,P|464:196|444:188,1,41.9999987182618,2|2,0:2|0:0,0:0:0:0:
297,56,67805,1,2,0:0:0:0:
297,56,67955,1,2,0:0:0:0:
224,104,68105,5,2,0:0:0:0:
210,132,68180,1,2,0:0:0:0:
220,162,68255,1,2,0:0:0:0:
246,180,68330,1,2,0:0:0:0:
277,173,68405,2,0,P|289:149|292:126,1,41.9999987182618,2|2,3:2|0:0,0:0:0:0:
319,244,68705,2,0,P|307:268|304:291,1,41.9999987182618,2|2,3:2|0:0,0:0:0:0:
138,320,69005,38,0,P|165:299|228:285,1,83.9999974365235,2|2,3:2|0:0,0:0:0:0:
217,298,69380,1,2,0:0:0:0:
220,312,69455,1,2,0:0:0:0:
224,325,69530,1,2,0:0:0:0:
228,337,69605,2,0,P|259:355|309:364,1,83.9999974365235,2|2,3:2|0:0,0:0:0:0:
134,324,70055,2,0,P|103:306|53:297,1,83.9999974365235,2|2,3:2|0:0,0:0:0:0:
212,284,70505,5,2,0:0:0:0:
201,266,70580,1,2,0:0:0:0:
200,244,70655,1,2,0:0:0:0:
209,225,70730,1,2,0:0:0:0:
225,214,70805,2,0,P|253:209|276:201,1,41.9999987182618,2|2,3:2|0:0,0:0:0:0:
359,154,71105,2,0,P|338:148|318:144,1,41.9999987182618,2|2,0:2|0:0,0:0:0:0:
251,99,71405,38,0,P|241:69|241:43,1,41.9999987182618,2|2,3:2|0:0,0:0:0:0:
338,225,71705,1,2,0:0:0:0:
360,240,71780,1,2,0:0:0:0:
374,263,71855,1,2,0:0:0:0:
378,289,71930,1,2,0:0:0:0:
369,317,72005,2,0,P|305:304|282:288,2,83.9999974365235,2|2|2,3:2|0:0|0:0,0:0:0:0:
409,379,72755,1,2,0:0:0:0:
447,254,72905,1,2,0:0:0:0:
475,249,72980,1,2,0:0:0:0:
498,260,73055,1,2,0:0:0:0:
508,281,73130,1,2,0:0:0:0:
475,345,73205,6,0,P|405:350|300:392,1,167.999994873047,6|2,3:2|0:0,0:0:0:0:
184,277,74105,37,2,0:0:0:0:
186,267,74180,1,2,0:0:0:0:
188,257,74255,1,2,0:0:0:0:
190,247,74330,1,2,0:0:0:0:
192,237,74405,1,6,1:2:0:0:
184,162,74555,5,2,3:2:0:0:
212,152,74630,1,0,1:0:0:0:
240,143,74705,1,8,1:1:0:0:
256,181,74780,1,2,1:3:0:0:
267,218,74855,1,8,1:1:0:0:
314,205,74930,1,8,0:1:0:0:
356,191,75005,1,8,0:1:0:0:
323,108,75230,37,8,3:3:0:0:
321,118,75305,1,4,3:3:0:0:
353,188,75455,1,4,1:3:0:0:
450,72,75605,6,0,B|463:46|463:46|443:5,1,56,6|2,1:2|3:0,0:0:0:0:
435,147,75905,2,0,L|448:216,1,56,8|2,0:1|3:0,0:0:0:0:
374,93,76205,1,2,3:2:0:0:
510,131,76355,1,2,3:0:0:0:
374,93,76505,1,2,3:2:0:0:
512,242,76655,38,0,L|493:355,1,112,2|2,3:0|3:0,0:0:0:0:
425,310,77105,2,0,L|436:237,1,56,2|2,3:2|3:0,0:0:0:0:
433,254,77405,1,2,3:2:0:0:
357,263,77555,5,0,1:0:0:0:
337,267,77630,1,8,3:0:0:0:
353,277,77705,1,4,3:0:0:0:
490,356,77855,38,0,L|452:342,1,28,4|0,1:3|0:0,0:0:0:0:
269,303,78005,6,0,P|231:292|206:278,1,56,6|2,1:2|3:0,0:0:0:0:
312,375,78305,2,0,P|337:363|364:356,1,56,8|2,3:1|3:0,0:0:0:0:
440,261,78605,38,0,P|470:211|410:104,1,168,2|2,3:2|3:0,0:0:0:0:
367,38,79205,6,0,L|307:53,1,35,8|0,3:1|0:0,0:0:0:0:
338,119,79355,1,8,0:1:0:0:
291,107,79430,1,8,0:1:0:0:
251,99,79505,2,0,B|225:127|225:127|236:168,1,70,2|2,1:2|3:0,0:0:0:0:
233,157,79730,37,2,3:2:0:0:
267,192,79805,1,8,3:1:0:0:
275,190,79880,1,8,3:1:0:0:
284,188,79955,1,8,3:0:0:0:
292,186,80030,1,4,3:0:0:0:
354,231,80105,6,0,P|367:271|355:312,1,70,8|2,3:1|3:0,0:0:0:0:
260,377,80405,38,0,L|267:326,1,41.9999987182618,6|0,1:2|0:0,0:0:0:0:
264,381,80555,2,0,L|271:330,1,41.9999987182618,0|0,1:2|0:0,0:0:0:0:
226,275,80705,1,2,3:2:0:0:
351,228,80855,1,8,3:1:0:0:
208,162,81005,1,2,3:2:0:0:
204,151,81080,1,2,3:2:0:0:
201,140,81155,1,4,2:3:0:0:
198,130,81230,1,8,2:1:0:0:
195,120,81305,2,0,B|226:92|226:92|285:106,1,83.9999974365235,8|2,3:1|3:0,0:0:0:0:
354,231,81605,5,2,3:2:0:0:
342,258,81680,1,2,3:2:0:0:
331,286,81755,1,2,3:2:0:0:
311,261,81830,1,2,3:2:0:0:
293,236,81905,2,0,L|305:170,1,41.9999987182618,8|0,3:1|0:0,0:0:0:0:
430,107,82055,37,2,3:0:0:0:
402,89,82130,1,2,3:2:0:0:
382,120,82205,2,0,L|394:185,1,41.9999987182618,8|0,3:1|0:0,0:0:0:0:
430,225,82355,2,0,L|417:159,1,41.9999987182618,2|0,3:2|0:0,0:0:0:0:
325,64,82505,5,2,3:2:0:0:
299,55,82580,1,2,3:2:0:0:
273,47,82655,1,2,3:2:0:0:
247,39,82730,1,2,3:2:0:0:
182,79,82805,38,0,P|166:114|197:174,1,83.9999974365235,6|2,1:2|1:2,0:0:0:0:
247,201,83030,1,2,3:2:0:0:
247,201,83105,2,0,P|256:166|251:145,1,41.9999987182618,8|0,0:1|0:0,0:0:0:0:
112,112,83255,5,2,3:2:0:0:
74,102,83330,1,2,3:2:0:0:
66,58,83405,1,2,3:0:0:0:
225,7,83555,1,2,3:0:0:0:
246,45,83630,1,2,3:2:0:0:
226,85,83705,2,0,L|178:75,1,41.9999987182618,8|0,3:1|3:0,0:0:0:0:
24,167,83855,37,2,3:2:0:0:
0,222,83930,1,2,3:2:0:0:
39,249,84005,1,8,1:2:0:0:
48,247,84080,1,2,3:0:0:0:
57,245,84155,1,2,3:0:0:0:
65,243,84230,1,2,3:0:0:0:
126,190,84305,5,2,3:0:0:0:
149,196,84380,1,2,3:0:0:0:
173,201,84455,1,2,3:0:0:0:
194,206,84530,1,2,3:0:0:0:
236,277,84605,37,8,3:1:0:0:
272,318,84680,1,8,3:1:0:0:
328,308,84755,1,8,3:1:0:0:
344,253,84830,1,8,3:1:0:0:
311,207,84905,1,8,1:1:0:0:
313,146,84980,1,0,1:0:0:0:
364,114,85055,1,0,1:0:0:0:
417,135,85130,1,0,1:0:0:0:
436,207,85205,22,0,L|424:274,1,62.9999980773926,6|0,1:0|0:0,0:0:0:0:
237,62,85355,2,0,L|225:-5,1,62.9999980773926,2|0,3:2|0:0,0:0:0:0:
133,327,85505,5,8,1:0:0:0:
78,357,85580,1,2,0:0:0:0:
25,335,85655,1,2,0:0:0:0:
14,279,85730,1,2,0:0:0:0:
39,229,85805,1,2,3:2:0:0:
86,211,85880,1,2,3:2:0:0:
118,223,85955,1,0,1:0:0:0:
125,242,86030,1,2,0:0:0:0:
117,255,86105,37,8,1:0:0:0:
98,257,86180,1,2,0:0:0:0:
83,238,86255,1,2,0:0:0:0:
92,204,86330,1,2,0:0:0:0:
136,176,86405,1,0,1:0:0:0:
200,182,86480,1,2,0:0:0:0:
237,242,86555,1,2,0:0:0:0:
209,307,86630,1,2,0:0:0:0:
239,371,86705,1,8,1:0:0:0:
308,379,86780,1,2,0:0:0:0:
359,354,86855,1,2,0:0:0:0:
376,298,86930,1,2,0:0:0:0:
357,242,87005,5,2,3:2:0:0:
303,194,87080,1,2,3:2:0:0:
298,122,87155,1,0,1:0:0:0:
350,70,87230,1,2,0:0:0:0:
423,70,87305,2,0,P|453:82|476:134,1,62.9999980773926,8|0,1:0|0:0,0:0:0:0:
311,384,87455,37,2,0:0:0:0:
240,377,87530,1,2,0:0:0:0:
204,314,87605,1,0,1:0:0:0:
230,243,87680,1,2,0:0:0:0:
204,173,87755,1,2,0:0:0:0:
137,149,87830,1,2,0:0:0:0:
72,170,87905,1,8,1:0:0:0:
37,224,87980,1,2,0:0:0:0:
50,281,88055,5,2,0:0:0:0:
61,295,88130,1,2,0:0:0:0:
79,295,88205,1,2,3:2:0:0:
94,283,88280,1,2,3:2:0:0:
96,268,88355,1,0,1:0:0:0:
85,261,88430,1,2,0:0:0:0:
73,263,88505,1,8,1:0:0:0:
69,275,88580,1,2,0:0:0:0:
73,283,88655,1,2,0:0:0:0:
80,285,88730,1,2,0:0:0:0:
85,284,88805,38,0,L|68:200,1,73.4999977569581,14|0,1:0|0:0,0:0:0:0:
252,41,88955,6,0,L|260:-6,3,35,8|2|2|2,3:1|3:2|3:2|3:2,0:0:0:0:
160,1,89255,38,0,L|177:85,1,73.4999977569581,8|0,3:1|0:0,0:0:0:0:
387,350,89405,6,0,L|379:397,3,35,8|2|2|2,1:0|3:2|3:2|3:2,0:0:0:0:
305,359,89705,38,0,L|288:275,1,73.4999977569581,8|0,1:0|0:0,0:0:0:0:
85,72,89855,2,0,L|70:0,1,73.4999977569581,8|0,3:1|0:0,0:0:0:0:
12,357,90005,5,6,1:2:0:0:
19,371,90080,1,2,3:2:0:0:
38,384,90155,1,2,1:2:0:0:
67,381,90230,1,2,3:2:0:0:
85,350,90305,37,8,1:0:0:0:
121,371,90380,1,2,0:0:0:0:
171,353,90455,1,2,0:0:0:0:
175,288,90530,1,2,0:0:0:0:
119,238,90605,5,2,3:2:0:0:
108,218,90680,1,2,3:2:0:0:
121,199,90755,1,0,1:0:0:0:
110,179,90830,1,2,0:2:0:0:
99,159,90905,1,8,1:0:0:0:
112,140,90980,1,2,0:0:0:0:
101,120,91055,1,2,0:0:0:0:
114,101,91130,1,2,0:0:0:0:
103,81,91205,37,0,1:0:0:0:
165,41,91280,1,2,0:0:0:0:
233,58,91355,1,2,0:0:0:0:
249,113,91430,1,2,0:2:0:0:
228,149,91505,5,8,1:0:0:0:
248,218,91580,1,2,0:0:0:0:
311,236,91655,1,2,0:0:0:0:
354,206,91730,1,2,0:0:0:0:
357,162,91805,1,2,3:2:0:0:
332,131,91880,1,2,3:2:0:0:
329,87,91955,1,0,1:0:0:0:
361,60,92030,1,2,0:0:0:0:
439,76,92105,38,0,P|456:87|493:82,1,41.9999987182618,8|0,1:0|0:0,0:0:0:0:
447,69,92180,2,0,P|469:63|495:30,1,48.9999985046387,2|0,3:2|0:0,0:0:0:0:
449,58,92255,2,0,P|462:35|456:-11,1,56,2|0,3:2|0:0,0:0:0:0:
438,53,92330,2,0,P|431:23|388:-9,1,62.9999980773926,2|0,3:2|0:0,0:0:0:0:
432,60,92405,5,6,1:2:0:0:
276,366,92555,1,0,1:0:0:0:
451,261,92705,38,0,P|436:278|437:335,1,62.9999980773926,8|2,1:0|0:0,0:0:0:0:
459,261,92780,2,0,P|472:280|527:297,1,62.9999980773926,2|2,3:2|0:0,0:0:0:0:
462,254,92855,2,0,P|485:249|518:202,1,62.9999980773926,2|2,3:2|0:0,0:0:0:0:
458,250,92930,2,0,P|460:226|426:181,1,62.9999980773926,2|2,3:2|0:0,0:0:0:0:
452,253,93005,2,0,P|431:244|377:262,1,62.9999980773926,2|0,3:2|0:0,0:0:0:0:
276,366,93155,5,0,1:0:0:0:
61,261,93305,38,0,P|75:278|74:335,1,62.9999980773926,8|2,1:0|0:0,0:0:0:0:
53,261,93380,2,0,P|39:280|-15:297,1,62.9999980773926,2|2,3:2|0:0,0:0:0:0:
50,254,93455,2,0,P|26:249|-6:202,1,62.9999980773926,2|2,3:2|0:0,0:0:0:0:
54,250,93530,2,0,P|51:226|86:181,1,62.9999980773926,2|2,3:2|0:0,0:0:0:0:
60,253,93605,2,0,P|81:244|134:262,1,62.9999980773926,8|0,3:1|0:0,0:0:0:0:
215,45,93755,5,8,1:0:0:0:
276,366,94055,1,8,3:1:0:0:
220,40,94205,38,0,L|261:63,1,35,8|0,1:0|0:0,0:0:0:0:
283,129,94355,2,0,L|259:170,1,35,8|0,3:1|0:0,0:0:0:0:
148,338,94505,6,0,L|224:385,1,52.5000020027161,2|0,1:2|0:0,0:0:0:0:
282,371,94655,2,0,L|322:290,1,52.5000020027161,4|0,1:3|0:0,0:0:0:0:
509,131,94805,38,0,B|458:138|474:159|418:170,1,87.5,8|0,1:0|0:0,0:0:0:0:
87,252,94955,1,8,3:1:0:0:
77,247,95030,1,2,3:2:0:0:
74,234,95105,2,0,P|65:193|47:155,1,70,8|0,1:0|0:0,0:0:0:0:
85,99,95255,1,2,3:2:0:0:
37,325,95405,5,2,3:2:0:0:
348,212,95555,1,2,1:2:0:0:
334,161,95630,1,2,3:2:0:0:
355,120,95705,1,8,1:0:0:0:
369,69,95780,1,2,3:2:0:0:
343,21,95855,1,2,3:2:0:0:
157,58,96005,38,0,P|212:117|281:97,1,140,0|2,1:0|3:2,0:0:0:0:
284,84,96230,1,2,0:0:0:0:
272,53,96305,1,8,1:0:0:0:
0,227,96455,2,0,P|130:241|211:261,1,210,6|0,3:2|0:0,0:0:0:0:
206,260,96755,5,0,1:0:0:0:
429,318,96905,1,8,1:0:0:0:
356,384,97055,1,2,3:2:0:0:
445,161,97205,38,0,B|415:61|374:137|353:21,1,167.999994873047,14|4,1:0|3:0,0:0:0:0:
374,12,97430,1,2,3:2:0:0:
401,34,97505,1,8,1:0:0:0:
297,160,97655,1,2,3:2:0:0:
74,88,97805,5,2,3:2:0:0:
261,0,97955,1,0,1:0:0:0:
278,23,98030,1,2,3:2:0:0:
265,45,98105,1,8,1:0:0:0:
141,239,98255,37,2,3:2:0:0:
103,303,98330,1,2,3:2:0:0:
147,362,98405,2,0,L|245:343,1,83.9999974365235,8|0,3:1|0:0,0:0:0:0:
497,300,98555,1,8,1:0:0:0:
497,300,98855,5,6,1:2:0:0:
206,191,99005,1,8,1:0:0:0:
325,156,99155,1,2,3:2:0:0:
137,17,99305,37,6,1:2:0:0:
96,4,99380,1,2,3:2:0:0:
55,9,99455,1,0,1:0:0:0:
21,33,99530,1,2,3:2:0:0:
0,69,99605,6,0,P|14:97|26:151,1,70,6|0,1:2|0:0,0:0:0:0:
120,132,99755,2,0,P|106:160|94:214,1,70,4|0,1:3|0:0,0:0:0:0:
28,371,99905,37,8,1:0:0:0:
28,371,99980,1,2,3:2:0:0:
28,371,100055,2,0,P|84:310|211:358,1,210,2|0,3:2|0:0,0:0:0:0:
197,337,100355,1,2,3:2:0:0:
476,378,100505,5,8,1:0:0:0:
508,316,100580,1,2,3:2:0:0:
487,249,100655,1,2,3:2:0:0:
420,226,100730,1,2,3:2:0:0:
361,263,100805,1,0,1:0:0:0:
355,367,100955,37,2,3:2:0:0:
375,374,101030,1,2,3:2:0:0:
388,357,101105,1,8,1:0:0:0:
251,205,101255,6,0,P|218:110|246:6,1,210,2|0,3:2|0:0,0:0:0:0:
245,7,101555,1,8,1:0:0:0:
263,298,101705,37,8,1:0:0:0:
210,351,101780,1,2,3:2:0:0:
137,328,101855,1,2,3:2:0:0:
67,292,101930,1,2,3:2:0:0:
10,342,102005,5,6,1:2:0:0:
314,244,102155,1,2,3:0:0:0:
499,358,102305,38,0,L|464:350,1,35,8|0,1:0|0:0,0:0:0:0:
379,284,102455,2,0,L|414:292,1,35,2|0,3:2|0:0,0:0:0:0:
480,252,102605,5,2,3:0:0:0:
213,356,102755,1,0,1:0:0:0:
387,367,102905,38,0,L|311:350,1,70,8|0,1:0|0:0,0:0:0:0:
141,346,103055,2,0,L|209:361,1,70,2|0,3:2|0:0,0:0:0:0:
284,144,103205,6,0,L|290:115,4,26.2500010013581,8|2|2|2|8,1:0|0:0|0:0|0:0|3:1,0:0:0:0:
242,206,103505,2,0,L|248:235,4,26.2500010013581,2|2|2|2|0,3:2|0:0|0:0|0:0|1:0,0:0:0:0:
333,215,103805,38,0,P|368:212|389:167,1,70,8|0,1:0|0:0,0:0:0:0:
173,161,103955,2,0,P|138:164|117:209,1,70,2|0,3:0|0:0,0:0:0:0:
472,183,104105,6,0,P|465:139|428:111,1,87.5,8|0,3:1|0:0,0:0:0:0:
34,190,104255,2,0,P|41:234|78:262,1,87.5,8|0,1:3|0:0,0:0:0:0:
312,384,104405,37,0,1:0:0:0:
312,384,104630,5,0,3:3:0:0:
312,384,104855,37,0,3:3:0:0:
442,68,108868,6,0,L|479:85,28,26.2500010013581,2|2|2|2|2|2|2|2|2|2|2|2|2|2|2|2|2|2|2|2|2|2|2|2|2|2|2|2|2,0:2|0:2|0:2|0:2|0:2|0:2|0:2|0:2|0:2|0:2|0:2|0:2|0:2|0:2|0:2|0:2|0:2|0:2|0:2|0:2|0:2|0:2|0:2|0:2|0:2|0:2|0:2|0:2|0:2,1:0:0:0:
388,15,109534,38,0,B|380:35|380:35|422:199,1,189.000000720978,6|0,1:0|0:0,0:0:0:0:
485,237,109784,2,0,B|465:245|465:245|301:203,1,189.000000720978,6|0,1:2|0:0,0:0:0:0:
405,274,110034,2,0,B|392:288|392:288|414:368,1,84,6|0,1:2|0:0,0:0:0:0:
338,381,110368,6,0,L|323:328,1,47.2500001802444,6|0,1:2|0:0,0:0:0:0:
490,362,110534,2,0,L|478:317,1,47.2500001802444,6|0,1:2|0:0,0:0:0:0:
399,268,110701,2,0,L|384:215,1,47.2500001802444,6|0,1:2|0:0,0:0:0:0:
316,0,110868,37,6,1:2:0:0:
269,51,110951,1,2,3:2:0:0:
291,114,111034,1,2,3:2:0:0:
345,135,111118,1,2,3:2:0:0:
380,175,111201,1,6,1:2:0:0:
381,227,111284,1,2,3:2:0:0:
345,258,111368,1,2,3:2:0:0:
304,269,111451,1,2,3:2:0:0:
281,298,111534,1,6,1:2:0:0:
286,331,111618,1,2,3:2:0:0:
304,345,111701,1,2,3:2:0:0:
322,347,111784,1,6,1:2:0:0:
329,339,111868,6,0,L|381:356,6,36.749998878479,2|2|2|2|6|2|6,3:2|3:2|3:2|3:2|1:2|3:2|1:2,0:0:0:0:
216,355,112201,38,0,B|190:338|190:338|15:392,1,189.000000720978,6|0,1:0|0:0,0:0:0:0:
109,330,112451,2,0,B|126:304|126:304|72:129,1,189.000000720978,6|0,1:2|0:0,0:0:0:0:
17,217,112701,2,0,L|87:232,1,52.5000020027161,6|0,1:2|0:0,0:0:0:0:
221,361,112868,6,0,B|247:378|247:378|422:324,1,189.000000720978,6|0,1:2|0:0,0:0:0:0:
338,384,113118,2,0,B|307:369|307:369|252:203,1,189.000000720978,6|0,1:2|0:0,0:0:0:0:
309,279,113368,2,0,L|378:257,1,52.5000020027161,6|0,1:2|0:0,0:0:0:0:
109,330,113534,37,6,1:2:0:0:
36,313,113618,1,0,1:0:0:0:
436,213,113784,5,6,1:2:0:0:
509,230,113868,1,0,1:0:0:0:
192,348,114034,37,6,1:2:0:0:
175,275,114117,1,0,1:0:0:0:
158,202,114201,6,0,L|275:174,1,105.000004005432,6|0,1:0|0:0,0:0:0:0:
438,134,114367,2,0,L|336:159,1,105.000004005432,6|0,1:2|0:0,0:0:0:0:
0,97,114534,37,6,1:2:0:0:
39,79,114617,1,2,3:2:0:0:
9,72,114701,1,2,1:2:0:0:
24,62,114784,1,2,3:2:0:0:
12,54,114868,5,6,1:2:0:0:
40,61,114951,1,0,3:0:0:0:
69,69,115034,1,0,3:0:0:0:
98,77,115117,1,0,3:0:0:0:
127,85,115201,1,0,3:0:0:0:
156,93,115284,1,0,3:0:0:0:
185,101,115367,1,0,3:0:0:0:
214,109,115451,1,0,3:0:0:0:
243,117,115534,38,0,L|226:26,1,66.4999982242585,6|0,1:2|3:0,0:0:0:0:
221,226,115701,2,0,L|204:317,1,66.4999982242585,0|0,3:0|3:0,0:0:0:0:
165,16,115867,6,0,L|158:-7,2,17.5,0|0|0,3:0|3:0|3:0,3:0:0:0:
257,353,116034,2,0,L|252:380,2,20.9999993591309,0|0|0,3:0|3:0|3:0,3:0:0:0:
290,0,116201,38,0,P|393:14|432:107,1,189.000000720978,6|0,1:0|0:0,0:0:0:0:
385,141,116451,2,0,P|341:232|360:337,1,189.000000720978,6|0,1:2|0:0,0:0:0:0:
434,287,116701,2,0,P|454:244|451:190,1,94.5000003604889,6|0,1:2|0:0,0:0:0:0:
285,3,116867,6,0,P|259:99|333:177,1,203.000006195069,6|0,1:0|0:0,0:0:0:0:
223,44,117117,2,0,P|125:34|59:114,1,203.000006195069,6|0,1:2|0:0,0:0:0:0:
133,154,117367,2,0,P|183:159|218:110,1,101.500003097534,6|0,1:2|0:0,0:0:0:0:
1,326,117534,38,0,L|96:351,1,66.4999982242585,6|0,1:0|0:0,0:0:0:0:
498,270,117696,2,0,L|403:295,1,66.4999982242585,2|0,1:0|0:0,0:0:0:0:
146,307,117858,6,0,L|141:333,2,17.5,2|2|2,1:2|3:2|3:2,0:0:0:0:
367,347,118020,2,0,L|370:329,2,17.5,2|2|2,1:2|3:2|3:2,0:0:0:0:
242,375,118182,37,6,1:0:0:0:
257,298,118260,1,2,1:0:0:0:
343,112,118418,5,0,1:0:0:0:
359,188,118497,1,2,1:0:0:0:
150,216,118655,37,0,1:0:0:0:
135,139,118734,1,0,1:0:0:0:
120,62,118814,5,6,1:0:0:0:
174,80,118890,1,0,1:0:0:0:
229,99,118966,1,0,1:0:0:0:
271,58,119044,1,0,1:0:0:0:
314,19,119120,38,0,L|320:54,2,26.2500010013581,2|0|0,1:0|1:0|1:0,0:0:0:0:
251,177,119274,2,0,L|257:215,2,35,2|0|0,1:0|1:0|1:0,0:0:0:0:
58,52,119428,6,0,L|129:72,2,61.2500005841255,2|0|0,1:0|1:0|1:0,0:0:0:0:
329,130,119578,2,0,L|400:150,2,61.2500005841255,2|0|0,1:0|1:0|1:0,0:0:0:0:
169,300,119728,38,0,L|159:303,4,8.75,2|0|0|0|0,1:0|1:0|1:0|1:0|1:0,0:0:0:0:
351,243,119878,2,0,L|367:237,4,17.5,2|0|0|0|0,1:0|1:0|1:0|1:0|1:0,0:0:0:0:
315,384,120028,5,2,3:1:0:0:
315,384,120628,37,2,0:1:0:0:
288,313,120928,1,2,0:1:0:0:
261,242,121228,2,0,L|257:231,6,8.75,0|0|0|0|0|0|0,3:0|3:0|3:0|3:0|3:0|3:0|3:0,0:0:0:0:
277,159,121528,5,2,0:1:0:0:
218,380,121678,1,2,0:1:0:0:
277,159,121828,38,0,L|273:147,21,11.6666666666667,2|2|2|2|2|2|2|2|2|2|2|2|2|2|2|2|2|2|2|2|2|2,0:1|0:0|0:0|0:0|0:0|0:0|0:0|0:0|0:0|0:0|0:0|0:0|0:0|0:0|0:0|0:0|0:0|0:0|0:0|0:0|0:0|0:0,0:0:0:0:
292,63,122428,5,6,1:2:0:0:
275,40,122503,1,0,3:0:0:0:
249,30,122578,1,0,3:0:0:0:
223,42,122653,1,0,3:0:0:0:
210,66,122728,1,0,1:0:0:0:
210,94,122803,1,0,3:0:0:0:
192,116,122878,1,0,3:0:0:0:
163,121,122953,1,0,3:0:0:0:
138,107,123028,1,0,1:0:0:0:
126,73,123103,1,0,3:0:0:0:
134,39,123178,1,0,3:0:0:0:
118,7,123253,1,0,3:0:0:0:
83,0,123328,1,0,1:0:0:0:
49,11,123403,1,0,3:0:0:0:
30,40,123478,1,0,3:0:0:0:
39,73,123553,1,0,3:0:0:0:
43,61,123628,38,0,L|28:13,3,35,2|0|0|0,1:0|3:0|3:0|3:0,0:0:0:0:
71,147,123928,2,0,L|56:195,3,35,0|0|0|0,1:0|3:0|3:0|3:0,0:0:0:0:
17,277,124228,2,0,L|2:229,3,35,0|0|0|0,1:0|3:0|3:0|3:0,0:0:0:0:
68,351,124528,2,0,L|53:399,3,35,0|0|0|0,1:0|3:0|3:0|3:0,0:0:0:0:
124,283,124828,5,2,1:0:0:0:
158,300,124903,1,0,3:0:0:0:
196,295,124978,1,0,3:0:0:0:
213,260,125053,1,0,3:0:0:0:
206,222,125128,1,0,1:0:0:0:
178,195,125203,1,0,3:0:0:0:
164,159,125278,1,0,3:0:0:0:
175,122,125353,1,0,3:0:0:0:
210,107,125428,1,0,1:0:0:0:
247,114,125503,1,0,3:0:0:0:
269,145,125578,1,0,3:0:0:0:
276,182,125653,1,0,3:0:0:0:
308,203,125728,1,0,1:0:0:0:
346,203,125803,1,0,3:0:0:0:
375,177,125878,1,0,3:0:0:0:
383,139,125953,1,0,3:0:0:0:
367,103,126028,37,2,1:0:0:0:
352,122,126103,1,0,3:0:0:0:
358,145,126178,1,0,3:0:0:0:
377,159,126253,1,0,3:0:0:0:
400,166,126328,1,0,1:0:0:0:
424,162,126403,1,0,3:0:0:0:
442,145,126478,1,0,3:0:0:0:
450,121,126553,1,0,3:0:0:0:
441,98,126628,1,0,1:0:0:0:
419,85,126703,1,0,3:0:0:0:
405,64,126778,1,0,3:0:0:0:
404,39,126853,1,0,3:0:0:0:
419,20,126928,1,0,1:0:0:0:
442,12,127003,1,0,3:0:0:0:
466,12,127078,1,0,3:0:0:0:
483,29,127153,1,0,3:0:0:0:
493,51,127228,6,0,L|421:31,1,52.5000020027161,2|0,1:0|3:0,0:0:0:0:
326,5,127378,2,0,L|254:25,1,62.9999980773926,2|0,3:3|3:0,0:0:0:0:
116,129,127528,38,0,P|33:95|37:13,1,140,0|2,1:0|3:0,0:0:0:0:
31,38,127753,1,0,3:0:0:0:
50,47,127828,2,0,L|32:136,1,70,0|0,1:0|3:0,0:0:0:0:
208,113,127978,2,0,P|185:71|156:61,1,70,2|0,3:0|0:0,0:0:0:0:
253,198,128128,2,0,P|327:166|312:72,1,154.000004699707,0|2,1:0|3:0,0:0:0:0:
318,80,128353,1,0,3:0:0:0:
298,91,128428,6,0,L|317:166,1,70,2|0,1:0|3:0,0:0:0:0:
354,369,128578,1,2,3:0:0:0:
385,383,128653,1,0,3:0:0:0:
406,355,128728,2,0,L|422:252,1,70,0|0,1:0|3:0,0:0:0:0:
409,26,128878,1,2,3:0:0:0:
440,12,128953,1,0,3:0:0:0:
461,40,129028,38,0,L|477:143,1,70,0|0,1:0|3:0,0:0:0:0:
333,284,129178,2,0,L|266:301,1,70,2|0,3:0|3:0,0:0:0:0:
464,198,129328,2,0,L|276:148,1,154.000004699707,0|2,1:0|3:0,0:0:0:0:
246,207,129553,5,2,3:2:0:0:
246,207,129628,2,0,L|184:221,1,62.9999980773926,2|0,1:0|3:0,0:0:0:0:
406,355,129778,2,0,L|344:369,1,62.9999980773926,2|0,3:0|3:0,0:0:0:0:
180,299,129928,38,0,L|35:272,1,125.999996154785,0|2,1:0|3:2,0:0:0:0:
71,269,130153,1,0,3:0:0:0:
63,259,130228,2,0,L|-5:247,1,62.9999980773926,0|0,1:0|3:0,0:0:0:0:
213,384,130378,2,0,L|145:372,1,62.9999980773926,2|0,3:0|3:0,0:0:0:0:
389,267,130528,6,0,L|244:296,1,125.999996154785,2|2,1:2|3:0,0:0:0:0:
144,205,130753,1,0,3:0:0:0:
144,205,130828,37,2,1:0:0:0:
161,164,130903,1,2,3:2:0:0:
137,126,130978,1,2,3:2:0:0:
159,88,131053,1,2,3:2:0:0:
136,50,131128,1,0,1:0:0:0:
39,140,131278,1,2,3:0:0:0:
272,370,131428,5,0,1:0:0:0:
289,329,131503,1,2,3:2:0:0:
265,291,131578,1,2,3:2:0:0:
288,253,131653,1,2,3:2:0:0:
264,215,131728,2,0,L|275:133,1,62.9999980773926,2|2,1:0|3:1,0:0:0:0:
63,262,131878,2,0,L|74:344,1,62.9999980773926,2|2,3:1|3:1,0:0:0:0:
374,181,132028,38,0,P|402:77|331:-9,1,175,6|2,1:0|3:0,0:0:0:0:
343,18,132253,1,2,3:2:0:0:
335,45,132328,2,0,P|336:82|357:115,1,70,8|0,3:1|0:0,0:0:0:0:
512,160,132478,5,2,3:1:0:0:
512,160,132553,1,0,3:0:0:0:
512,160,132628,2,0,L|418:141,1,70,0|0,1:0|0:0,0:0:0:0:
234,72,132778,2,0,P|217:75|191:133,1,70,2|0,3:0|0:0,0:0:0:0:
339,300,132928,38,0,B|322:180|275:263|256:126,1,175,8|2,3:1|3:0,0:0:0:0:
273,136,133153,1,2,3:2:0:0:
291,155,133228,5,2,1:2:0:0:
280,182,133303,1,0,3:0:0:0:
296,201,133378,2,0,P|278:233|278:290,1,70,2|0,3:3|0:0,0:0:0:0:
392,384,133528,38,0,P|430:295|413:227,1,140,8|2,3:1|3:0,0:0:0:0:
384,163,133753,1,2,3:2:0:0:
384,163,133828,5,2,1:2:0:0:
394,115,133903,1,2,3:2:0:0:
441,101,133978,2,0,P|460:67|452:32,1,70,2|0,3:0|0:0,0:0:0:0:
199,91,134128,38,0,P|177:129|186:168,1,77.0000023498536,8|0,3:1|0:0,0:0:0:0:
512,244,134278,2,0,P|497:204|456:181,1,87.5
145,232,134428,6,0,P|65:234|34:138,1,161.000003070831,6|2,1:0|3:0,0:0:0:0:
42,148,134653,1,2,3:2:0:0:
61,164,134728,2,0,L|47:239,1,70,8|0,3:1|0:0,0:0:0:0:
238,378,134878,37,2,3:1:0:0:
250,326,134953,1,2,3:2:0:0:
222,276,135028,1,0,1:0:0:0:
234,224,135103,1,2,3:2:0:0:
206,174,135178,1,8,3:0:0:0:
218,122,135253,1,4,3:0:0:0:
196,73,135328,6,0,L|199:55,3,14,8|2|2|2,1:0|3:2|3:0|3:2,0:0:0:0:
269,25,135628,37,0,1:0:0:0:
286,41,135703,1,2,3:2:0:0:
291,28,135778,2,0,L|376:13,1,77.0000023498536,2|0,3:1|0:0,0:0:0:0:
136,127,135928,2,0,B|61:104|61:104|-2:158,1,154.000004699707,10|2,1:0|3:0,0:0:0:0:
26,234,136153,1,2,3:2:0:0:
26,234,136228,5,2,1:0:0:0:
13,286,136303,1,2,3:2:0:0:
64,300,136378,1,0,3:1:0:0:
115,314,136453,1,2,3:2:0:0:
102,366,136528,2,0,L|26:380,1,77.0000023498536,8|0,3:1|0:0,0:0:0:0:
188,239,136678,2,0,L|112:225,1,77.0000023498536,2|0,3:0|0:0,0:0:0:0:
309,384,136828,38,0,P|338:295|314:211,1,175,6|2,1:0|3:0,0:0:0:0:
302,207,137053,1,2,3:2:0:0:
283,221,137128,2,0,P|279:259|315:306,1,87.5,8|0,3:1|0:0,0:0:0:0:
412,215,137278,2,0,P|406:177|359:141,1,87.5,2|0,3:1|0:0,0:0:0:0:
188,324,137428,1,0,1:0:0:0:
198,335,137503,1,2,3:2:0:0:
212,335,137578,1,2,3:0:0:0:
132,73,137728,2,0,P|85:151|131:241,1,175,8|2,3:1|3:0,0:0:0:0:
216,179,137953,1,2,3:2:0:0:
216,179,138028,5,2,1:0:0:0:
243,153,138103,1,2,3:2:0:0:
214,136,138178,1,2,3:0:0:0:
236,118,138253,1,2,3:2:0:0:
218,102,138328,2,0,L|315:85,1,87.5,8|0,1:0|0:0,0:0:0:0:
494,6,138478,2,0,L|473:115,1,87.5,2|0,3:0|0:0,0:0:0:0:
385,246,138628,37,2,1:0:0:0:
344,209,138703,1,2,3:2:0:0:
367,158,138778,1,2,3:0:0:0:
465,278,138928,2,0,P|454:310|381:330,1,87.5,8|2,1:0|3:2,0:0:0:0:
336,13,139078,2,0,P|374:30|392:70,1,87.5,2|2,3:0|3:2,0:0:0:0:
254,219,139228,5,2,1:0:0:0:
198,209,139303,1,2,3:2:0:0:
142,200,139378,1,2,1:3:0:0:
86,190,139453,1,2,3:2:0:0:
30,181,139528,1,10,1:0:0:0:
255,372,139678,2,0,B|267:310|285:352|302:280,1,87.5,2|2,3:0|3:2,0:0:0:0:
240,131,139828,37,2,1:0:0:0:
197,72,139903,1,2,3:2:0:0:
236,10,139978,1,2,3:0:0:0:
308,8,140053,1,2,3:2:0:0:
350,67,140128,1,8,3:1:0:0:
339,138,140203,1,2,3:2:0:0:
397,180,140278,1,2,3:0:0:0:
466,158,140353,1,2,3:2:0:0:
469,85,140428,6,0,L|459:47,2,26.2500010013581,0|0|0,1:0|3:0|3:0,0:0:0:0:
475,0,140578,2,0,L|460:57,1,52.5000020027161,2|0,3:0|3:0,0:0:0:0:
446,247,140728,37,2,3:0:0:0:
446,252,140803,1,2,3:0:0:0:
446,257,140878,1,2,3:0:0:0:
446,262,140953,1,2,3:0:0:0:
446,267,141028,2,0,L|449:290,12,13.125000500679,2|2|2|2|2|2|2|2|2|2|2|2|2,3:0|3:0|3:0|3:0|3:0|3:0|3:0|3:0|3:0|3:0|3:0|3:0|3:0,3:0:0:0:
388,326,141328,6,0,L|386:338,1,10.5,4|0,1:3|0:0,0:0:0:0:
486,369,141628,38,0,L|184:308,1,293.999991027832,14|0,1:0|0:0,0:0:0:0:
79,384,141928,6,0,B|168:353|168:353|117:186,1,195.999994018555,8|2,1:0|3:0,0:0:0:0:
79,72,142153,1,2,3:2:0:0:
135,18,142228,2,0,B|254:48|254:48|215:242,1,293.999991027832,8|0,1:0|0:0,0:0:0:0:
135,251,142528,38,0,B|118:206|118:206|153:166,1,97.9999970092774,8|0,1:0|0:0,0:0:0:0:
304,196,142678,2,0,B|321:241|321:241|286:281,1,97.9999970092774,2|0,3:0|0:0,0:0:0:0:
17,260,142828,6,0,L|313:193,1,293.999991027832,8|0,1:0|0:0,0:0:0:0:
341,128,143128,38,0,L|377:26,1,97.9999970092774,8|0,1:0|0:0,0:0:0:0:
455,272,143278,2,0,L|391:197,1,97.9999970092774,4|0,1:3|0:0,0:0:0:0:
210,23,143428,5,8,1:0:0:0:
166,88,143503,1,2,3:2:0:0:
89,104,143578,1,2,3:0:0:0:
12,121,143653,1,2,3:2:0:0:
59,183,143728,2,0,B|69:201|69:201|49:298,1,97.9999970092774,8|0,1:0|0:0,0:0:0:0:
46,283,143878,38,0,L|32:299,2,17.5,2|2|2,3:0|3:2|3:2,0:0:0:0:
156,382,144028,6,0,B|119:353|119:353|140:245|140:245|156:235|156:235|218:253|218:253|229:267|229:267|215:332,1,315.000012016297,14|0,1:0|0:0,0:0:0:0:
213,327,144328,38,0,B|186:341|186:341|106:319,1,87.5,8|0,1:0|0:0,0:0:0:0:
233,233,144478,2,0,B|242:204|242:204|320:176,1,97.9999970092774,2|0,3:0|0:0,0:0:0:0:
479,355,144628,6,0,B|469:320|469:320|294:271,1,195.999994018555,8|2,1:0|3:0,0:0:0:0:
388,330,144853,1,2,3:2:0:0:
451,272,144928,2,0,B|457:241|457:241|415:157,1,97.9999970092774,8|0,1:0|0:0,0:0:0:0:
451,107,145078,2,0,B|485:70|485:70|462:126,1,97.9999970092774,6|0,1:3|0:0,0:0:0:0:
388,330,145228,38,0,B|359:218|359:218|329:195|329:195|371:35,1,293.999991027832,8|0,1:0|0:0,0:0:0:0:
251,20,145528,2,0,B|285:38|285:38|307:125,1,97.9999970092774,8|0,1:0|0:0,0:0:0:0:
305,181,145678,2,0,L|231:156,1,66.4999982242585,6|0,1:3|0:0,0:0:0:0:
25,4,145828,6,0,B|115:-16|115:-16|75:86,1,175,8|2,1:0|3:0,0:0:0:0:
32,120,146053,1,2,3:2:0:0:
107,139,146128,2,0,B|181:105|181:105|142:10,1,175,8|2,1:0|3:0,0:0:0:0:
53,207,146353,1,2,3:2:0:0:
53,207,146428,38,0,L|43:255,1,35,2|0,1:3|3:0,0:0:0:0:
444,176,146653,1,2,3:2:0:0:
444,176,146728,2,0,L|433:142,1,35,2|0,1:3|3:0,0:0:0:0:
93,308,146953,1,2,3:2:0:0:
93,308,147028,2,0,L|119:331,1,35,2|0,1:3|3:0,0:0:0:0:
372,87,147253,1,2,3:2:0:0:
372,87,147328,2,0,L|337:79,1,35,2|0,1:3|3:0,0:0:0:0:
205,334,147553,1,2,3:2:0:0:
205,334,147628,2,0,L|238:323,1,35,2|0,1:3|3:0,0:0:0:0:
260,83,147853,1,2,3:2:0:0:
260,83,147928,2,0,L|236:109,1,35,2|0,1:3|3:0,0:0:0:0:
295,265,148153,1,2,3:2:0:0:
295,265,148228,2,0,L|301:230,1,35,2|0,1:3|3:0,0:0:0:0:
230,189,148453,1,2,3:2:0:0:
230,189,148528,5,0,1:0:0:0:
155,208,148603,1,0,1:0:0:0:
114,142,148678,1,0,1:0:0:0:
73,76,148753,1,0,1:0:0:0:
0,100,148828,2,0,B|-14:79|-14:79|7:-2,1,94.5000003604889,2|0,1:3|0:0,0:0:0:0:
197,284,148978,2,0,B|211:305|211:305|190:386,1,94.5000003604889,2|0,1:3|0:0,0:0:0:0:
152,49,149128,38,0,L|170:15,1,35,2|0,1:3|3:0,0:0:0:0:
315,10,149353,1,2,3:2:0:0:
315,10,149428,2,0,L|351:-1,1,35,2|0,1:3|3:0,0:0:0:0:
466,71,149653,1,2,3:2:0:0:
466,71,149728,2,0,L|500:89,1,35,2|0,1:3|3:0,0:0:0:0:
504,332,149953,1,2,3:2:0:0:
504,332,150028,6,0,L|439:358,1,52.5000020027161,2|0,1:3|0:0,0:0:0:0:
367,236,150178,2,0,L|442:252,1,52.5000020027161,8|0,3:0|0:0,0:0:0:0:
345,129,150328,2,0,L|271:84,1,52.5000020027161,4|0,3:0|0:0,0:0:0:0:
353,0,150478,38,0,L|367:31,5,35,4|4|8|8|4|4,3:0|3:0|3:1|3:0|3:0|3:0,0:0:0:0:
259,30,150928,5,2,1:2:0:0:
193,71,151003,1,2,3:2:0:0:
124,58,151078,1,2,3:2:0:0:
98,21,151153,1,2,3:2:0:0:
102,0,151228,37,8,1:0:0:0:
25,13,151303,1,2,3:2:0:0:
3,81,151378,1,2,3:2:0:0:
26,133,151453,1,2,3:2:0:0:
73,151,151528,1,8,1:0:0:0:
114,210,151603,1,2,3:2:0:0:
93,267,151678,1,2,3:2:0:0:
42,285,151753,1,2,3:2:0:0:
20,273,151828,5,8,1:0:0:0:
27,250,151903,1,2,3:2:0:0:
59,239,151978,1,2,3:2:0:0:
99,274,152053,1,2,3:2:0:0:
124,331,152128,1,8,1:0:0:0:
185,374,152203,1,2,3:2:0:0:
251,364,152278,1,2,3:2:0:0:
272,331,152353,1,2,3:2:0:0:
265,294,152428,37,8,1:0:0:0:
247,305,152503,1,2,3:2:0:0:
227,298,152578,1,2,3:2:0:0:
215,280,152653,1,2,3:2:0:0:
216,259,152728,5,8,1:0:0:0:
231,239,152803,1,2,3:2:0:0:
260,231,152878,1,2,3:2:0:0:
296,200,152953,1,2,3:2:0:0:
316,134,153028,1,8,1:1:0:0:
274,74,153103,1,2,3:2:0:0:
211,72,153178,1,2,3:2:0:0:
178,104,153253,1,2,3:2:0:0:
185,138,153328,37,8,1:1:0:0:
145,204,153403,1,2,3:2:0:0:
68,202,153478,1,2,3:2:0:0:
19,141,153553,1,2,3:2:0:0:
30,64,153628,6,0,L|44:14,3,35,8|2|2|2,1:0|3:2|3:2|3:2,0:0:0:0:
141,25,153928,2,0,L|186:0,3,52.5000020027161,8|2|2|2,1:0|3:2|3:2|3:2,0:0:0:0:
265,46,154228,38,0,L|327:66,1,52.5000020027161,8|0,1:0|0:0,0:0:0:0:
338,8,154378,2,0,L|318:70,1,52.5000020027161,8|0,1:3|0:0,0:0:0:0:
376,81,154528,2,0,L|314:61,1,52.5000020027161,8|0,1:0|0:0,0:0:0:0:
303,119,154678,2,0,L|323:57,1,52.5000020027161,8|0,1:3|0:0,0:0:0:0:
125,125,154828,6,0,L|145:209,1,70,8|0,1:0|0:0,0:0:0:0:
20,292,154978,2,0,L|88:275,1,70,8|0,1:3|0:0,0:0:0:0:
190,384,155128,2,0,L|173:315,1,70,8|0,1:0|0:0,0:0:0:0:
290,219,155278,2,0,L|221:235,1,70,8|0,1:3|0:0,0:0:0:0:
16,91,155428,37,8,1:0:0:0:
41,24,155503,1,2,3:2:0:0:
98,9,155578,1,2,3:2:0:0:
141,26,155653,1,2,3:2:0:0:
161,56,155728,1,8,1:0:0:0:
226,80,155803,1,2,3:2:0:0:
270,47,155878,1,2,3:2:0:0:
273,16,155953,1,2,3:2:0:0:
258,0,156028,5,8,1:0:0:0:
365,0,156178,1,8,1:3:0:0:
369,16,156253,1,0,1:0:0:0:
356,27,156328,1,8,1:0:0:0:
461,85,156478,1,8,1:3:0:0:
454,102,156553,1,0,1:0:0:0:
436,106,156628,1,8,1:0:0:0:
460,243,156778,1,8,1:3:0:0:
433,261,156853,1,0,1:0:0:0:
403,251,156928,1,8,1:0:0:0:
343,156,157078,1,8,1:3:0:0:
245,384,157228,37,8,1:0:0:0:
122,367,157378,1,8,1:3:0:0:
132,336,157453,1,0,1:0:0:0:
164,328,157528,1,8,1:0:0:0:
31,230,157678,1,8,1:3:0:0:
67,200,157753,1,0,1:0:0:0:
113,213,157828,1,8,1:0:0:0:
35,13,157978,1,8,1:3:0:0:
105,0,158053,1,0,1:0:0:0:
153,52,158128,1,8,1:0:0:0:
230,233,158278,1,8,1:3:0:0:
347,176,158428,5,8,1:0:0:0:
376,199,158503,1,8,1:3:0:0:
367,235,158578,1,8,1:3:0:0:
113,213,158728,37,8,1:0:0:0:
100,162,158803,1,8,1:3:0:0:
140,130,158878,1,8,1:3:0:0:
417,299,159028,5,8,1:0:0:0:
393,369,159103,1,8,1:3:0:0:
315,382,159178,1,8,1:3:0:0:
159,51,159328,37,8,1:0:0:0:
217,7,159403,1,8,1:3:0:0:
286,34,159478,1,8,1:3:0:0:
296,108,159553,1,8,1:3:0:0:
234,154,159628,2,0,P|224:132|219:96,2,35,8|8|8,1:0|1:3|1:3,0:0:0:0:
191,223,159778,5,8,1:3:0:0:
182,246,159853,1,8,1:3:0:0:
192,266,159928,2,0,L|229:256,2,35,8|8|8,1:0|1:3|1:3,0:0:0:0:
294,309,160078,37,8,1:3:0:0:
309,349,160153,1,8,1:3:0:0:
292,384,160228,2,0,L|226:366,2,35,8|8|8,1:0|1:0|1:0,0:0:0:0:
114,320,160378,2,0,L|80:329,2,35,8|8|8,1:0|1:0|1:0,0:0:0:0:
381,234,160528,6,0,L|431:249,2,43.75,8|8|8,1:0|1:0|1:0,0:0:0:0:
56,131,160678,2,0,L|5:146,2,43.75,8|8|8,1:0|1:0|1:0,0:0:0:0:
255,4,160828,5,2,0:2:0:0:
349,28,162028,5,2,0:3:0:0:
418,97,163228,37,2,0:2:0:0:
444,190,164428,5,2,0:3:0:0:
419,285,165628,37,2,0:2:0:0:
350,354,166828,5,2,0:3:0:0:
257,380,168028,37,2,0:2:0:0:
162,355,169228,5,2,0:3:0:0:
162,355,169828,1,2,0:0:0:0:
167,345,169978,1,2,0:0:0:0:
172,336,170128,1,2,0:0:0:0:
177,328,170278,1,2,0:0:0:0:
93,286,170428,37,8,3:2:0:0:
256,0,178828,5,8,0:1:0:0:
256,0,179128,1,8,0:1:0:0:
256,0,179428,1,8,0:1:0:0:
320,52,180028,37,0,1:0:0:0:
348,86,180178,1,4,3:0:0:0:
337,123,180328,1,2,0:0:0:0:
294,210,180478,5,4,3:0:0:0:
242,153,180628,2,0,P|242:182|263:210,1,56,2|2,0:0|0:0,0:0:0:0:
339,271,180928,38,0,P|353:216|383:189,1,84,4|0,3:0|0:0,0:0:0:0:
376,178,181228,1,2,0:0:0:0:
405,201,181378,1,2,0:0:0:0:
443,195,181528,1,2,0:0:0:0:
506,258,181678,5,4,3:0:0:0:
440,296,181828,2,0,L|398:286,2,28,2|8|2,0:0|3:0|0:0,0:0:0:0:
512,340,182128,1,8,3:0:0:0:
512,340,182203,1,4,3:0:0:0:
512,340,182278,1,8,3:1:0:0:
434,381,182428,38,0,L|392:386,1,28,8|0,3:3|0:0,0:0:0:0:
430,377,182578,2,0,L|388:382,1,28,4|0,3:3|0:0,0:0:0:0:
345,331,182728,1,2,0:0:0:0:
253,384,182878,6,0,P|224:341|245:281,1,112,4|2,3:0|0:0,0:0:0:0:
301,237,183328,2,0,P|291:274|260:292,1,56,4|2,3:0|0:0,0:0:0:0:
171,321,183628,37,2,0:0:0:0:
134,321,183778,1,2,0:0:0:0:
102,337,183928,1,2,0:0:0:0:
78,365,184078,1,2,0:0:0:0:
202,247,184228,6,0,L|196:206,1,28,4|0,3:0|0:0,0:0:0:0:
206,243,184378,2,0,L|200:202,1,28,8|0,3:0|0:0,0:0:0:0:
243,151,184528,1,8,3:1:0:0:
245,142,184603,1,2,0:0:0:0:
247,134,184678,1,2,0:0:0:0:
249,127,184753,1,2,0:0:0:0:
220,91,184828,37,8,3:0:0:0:
262,29,184978,1,4,3:3:0:0:
332,54,185128,1,2,0:0:0:0:
278,183,185278,6,0,P|276:162|270:139,1,28,4|0,3:0|0:0,0:0:0:0:
349,133,185428,2,0,P|353:183|360:205,1,56,2|2,0:0|0:0,0:0:0:0:
204,218,185728,2,0,P|200:168|193:146,1,56,4|2,3:0|0:0,0:0:0:0:
113,90,186028,37,2,0:0:0:0:
99,89,186103,1,2,0:0:0:0:
85,86,186178,1,2,0:0:0:0:
74,81,186253,1,2,0:0:0:0:
63,73,186328,2,0,P|72:38|75:7,1,56,2|2,0:0|0:0,0:0:0:0:
53,151,186628,2,0,P|18:160|-10:173,1,56,2|2,0:0|0:0,0:0:0:0:
128,121,186928,1,8,3:0:0:0:
140,132,187003,1,4,3:0:0:0:
155,135,187078,1,8,3:1:0:0:
206,212,187228,5,4,3:0:0:0:
185,210,187303,1,2,3:2:0:0:
164,214,187378,1,4,3:0:0:0:
143,224,187453,1,2,3:2:0:0:
125,238,187528,1,8,3:1:0:0:
189,287,187678,1,4,3:0:0:0:
268,163,187828,37,4,3:0:0:0:
293,184,187903,1,2,3:2:0:0:
324,198,187978,1,2,3:2:0:0:
354,204,188053,1,2,3:2:0:0:
384,202,188128,1,8,3:0:0:0:
351,114,188278,1,2,3:2:0:0:
276,258,188428,6,0,P|281:282|282:320,1,35,8|2,3:0|0:0,0:0:0:0:
360,292,188578,2,0,P|352:315|334:348,1,35,2|2,3:2|0:0,0:0:0:0:
193,291,188728,2,0,P|200:314|218:347,1,35,2|2,3:2|0:0,0:0:0:0:
137,362,188878,2,0,P|155:378|187:398,1,35,2|2,3:2|0:0,0:0:0:0:
393,384,189028,37,4,3:0:0:0:
436,378,189113,1,2,3:2:0:0:
455,345,189199,1,2,3:2:0:0:
444,305,189285,1,2,3:2:0:0:
364,288,189370,5,2,3:2:0:0:
355,215,189470,37,2,3:2:0:0:
423,179,189570,5,2,3:2:0:0:
478,231,189670,37,2,3:2:0:0:
447,302,189790,5,6,1:0:0:0:
291,357,189940,1,2,3:2:0:0:
358,212,190090,1,2,0:2:0:0:
512,384,190240,38,0,P|488:376|437:372,1,48.9999985046387,0|0,1:0|0:0,0:0:0:0:
450,299,190390,1,2,3:2:0:0:
295,361,190540,1,2,3:2:0:0:
169,266,190690,2,0,P|193:274|244:278,1,48.9999985046387,0|0,1:0|0:0,0:0:0:0:
378,383,190840,5,2,3:2:0:0:
378,383,190915,1,2,3:2:0:0:
378,383,190990,1,8,3:1:0:0:
442,336,191140,37,2,3:2:0:0:
457,252,191290,5,2,3:2:0:0:
419,151,191440,37,2,3:2:0:0:
305,105,191590,5,2,3:2:0:0:
181,145,191740,37,2,3:2:0:0:
166,292,191890,6,0,P|190:285|217:281,1,48.9999985046387,0|0,1:0|0:0,0:0:0:0:
416,154,192040,38,0,P|392:161|365:165,1,48.9999985046387,0|0,1:0|0:0,0:0:0:0:
79,74,192190,5,0,1:0:0:0:
178,148,192340,37,2,0:0:0:0:
150,217,192490,1,2,0:0:0:0:
82,77,192640,5,0,1:0:0:0:
141,0,192790,37,2,0:0:0:0:
94,154,192940,1,2,0:0:0:0:
89,117,193015,1,2,0:0:0:0:
85,80,193090,1,0,1:0:0:0:
153,220,193240,5,2,0:0:0:0:
494,211,193390,38,0,P|441:169|337:183,1,146.999995513916,8|0,3:1|0:0,0:0:0:0:
317,224,193690,6,0,L|325:273,1,42,0|0,1:0|0:0,0:0:0:0:
89,84,193990,38,0,P|142:126|246:112,1,146.999995513916,8|0,3:1|0:0,0:0:0:0:
327,268,194290,6,0,L|317:331,1,48.9999985046387,0|0,1:0|0:0,0:0:0:0:
262,363,194440,37,8,1:0:0:0:
222,348,194515,1,8,1:0:0:0:
220,309,194590,1,6,1:0:0:0:
368,172,194740,1,2,3:2:0:0:
406,359,194890,1,2,3:2:0:0:
223,306,195040,6,0,P|230:282|233:258,1,48.9999985046387,0|0,1:0|0:0,0:0:0:0:
162,182,195190,1,2,3:2:0:0:
330,265,195340,1,2,3:2:0:0:
489,153,195490,2,0,P|481:176|478:200,1,48.9999985046387,0|0,1:0|0:0,0:0:0:0:
501,320,195640,37,2,3:2:0:0:
501,320,195715,1,2,3:2:0:0:
501,320,195790,1,8,3:1:0:0:
446,375,195940,5,2,3:2:0:0:
360,379,196090,37,2,3:2:0:0:
282,321,196240,5,2,3:2:0:0:
278,204,196390,37,2,3:2:0:0:
362,109,196540,5,2,3:2:0:0:
512,115,196690,38,0,P|502:149|494:190,1,56,0|0,1:0|0:0,0:0:0:0:
356,376,196840,2,0,P|366:342|374:301,1,56,0|0,1:0|0:0,0:0:0:0:
254,26,196990,5,6,1:2:0:0:
205,250,197140,37,2,3:2:0:0:
373,212,197290,1,2,3:2:0:0:
251,29,197440,5,6,1:2:0:0:
436,270,197590,37,2,3:2:0:0:
146,201,197740,1,2,3:2:0:0:
248,32,197890,5,6,1:2:0:0:
272,320,198040,1,2,3:2:0:0:
303,291,198115,1,2,3:2:0:0:
292,251,198190,1,8,3:1:0:0:
162,172,198340,37,2,3:2:0:0:
40,211,198490,5,2,3:2:0:0:
15,310,198640,37,2,3:2:0:0:
62,379,198790,5,2,3:2:0:0:
138,375,198940,37,2,3:2:0:0:
167,321,199090,5,2,3:2:0:0:
148,278,199240,37,2,3:2:0:0:
115,274,199390,5,6,1:0:0:0:
58,383,199540,1,2,3:2:0:0:
244,320,199690,1,2,3:2:0:0:
4,254,199840,38,0,P|16:286|18:325,1,56,0|0,1:0|0:0,0:0:0:0:
141,378,199990,2,0,P|148:298|173:252,1,112,2|2,3:2|3:2,0:0:0:0:
188,256,200215,1,2,3:2:0:0:
217,245,200290,1,0,1:1:0:0:
130,203,200440,1,2,3:2:0:0:
283,377,200590,5,8,3:1:0:0:
362,375,200740,37,2,3:2:0:0:
437,326,200890,5,2,3:2:0:0:
474,233,201040,37,2,3:2:0:0:
443,119,201190,5,2,3:2:0:0:
333,47,201340,37,2,3:2:0:0:
183,63,201490,6,0,P|190:106|192:136,1,56,0|0,1:0|0:0,0:0:0:0:
365,372,201640,38,0,P|358:329|356:299,1,56,0|0,1:0|0:0,0:0:0:0:
439,123,201790,5,6,1:2:0:0:
352,320,201940,37,2,3:2:0:0:
313,326,202015,1,2,3:2:0:0:
275,318,202090,1,2,3:2:0:0:
245,291,202165,1,2,3:2:0:0:
178,336,202240,5,2,1:2:0:0:
158,317,202315,1,2,3:2:0:0:
147,292,202390,1,2,3:2:0:0:
141,265,202465,1,2,3:2:0:0:
143,237,202540,1,2,3:2:0:0:
153,211,202615,1,2,3:2:0:0:
105,149,202690,37,2,1:2:0:0:
116,138,202765,1,2,3:2:0:0:
129,132,202840,1,2,3:2:0:0:
142,130,202915,1,2,3:2:0:0:
225,155,202990,6,0,P|305:157|321:62,1,168,8|0,3:1|0:0,0:0:0:0:
267,47,203290,2,0,L|188:67,3,56,0|2|2|2,1:0|3:2|3:2|3:2,0:0:0:0:
150,208,203590,38,0,P|70:210|54:115,1,168,8|0,3:1|0:0,0:0:0:0:
111,103,203890,2,0,L|190:123,1,56,0|2,1:0|0:0,0:0:0:0:
335,88,204040,5,0,1:0:0:0:
368,116,204115,1,0,1:0:0:0:
358,160,204190,1,6,1:0:0:0:
168,120,204340,1,2,3:2:0:0:
331,8,204490,1,2,3:2:0:0:
208,205,204640,38,0,P|175:207|129:219,1,56,0|0,1:0|0:0,0:0:0:0:
95,259,204790,1,2,3:2:0:0:
264,145,204940,1,2,3:2:0:0:
51,22,205090,2,0,P|78:27|106:28,1,56,0|0,1:0|0:0,0:0:0:0:
204,82,205240,5,2,3:2:0:0:
204,82,205315,1,2,3:2:0:0:
204,82,205390,1,8,3:1:0:0:
258,26,205540,37,2,3:2:0:0:
351,13,205690,5,2,3:2:0:0:
446,54,205840,37,2,3:2:0:0:
482,162,205990,5,2,3:2:0:0:
443,289,206140,37,2,3:2:0:0:
301,344,206290,6,0,P|305:295|319:265,1,56,0|0,1:0|0:0,0:0:0:0:
261,29,206440,2,0,P|257:78|243:108,1,56,0|0,1:0|0:0,0:0:0:0:
38,220,206590,37,6,1:2:0:0:
65,198,206665,1,2,3:2:0:0:
96,183,206740,1,2,3:2:0:0:
131,176,206815,1,2,3:2:0:0:
167,176,206890,1,2,3:2:0:0:
201,186,206965,1,2,3:2:0:0:
274,158,207040,5,6,1:2:0:0:
296,168,207115,1,2,3:2:0:0:
320,171,207190,1,2,3:2:0:0:
343,167,207265,1,2,3:2:0:0:
366,159,207340,1,2,3:2:0:0:
385,144,207415,1,2,3:2:0:0:
358,70,207490,38,0,P|322:64|279:51,1,56,0|0,1:0|0:0,0:0:0:0:
96,272,207640,1,2,3:2:0:0:
138,277,207715,1,2,3:2:0:0:
172,294,207790,1,8,3:1:0:0:
248,384,207940,5,2,3:0:0:0:
254,310,208090,1,2,3:0:0:0:
260,234,208240,1,2,3:0:0:0:
266,0,208390,37,2,3:0:0:0:
258,78,208540,1,2,3:0:0:0:
263,231,208690,5,2,3:0:0:0:
15,114,208840,37,2,3:2:0:0:
0,88,208915,1,2,3:2:0:0:
12,64,208990,2,0,P|53:65|82:99,1,48.9999985046387,6|0,1:0|0:0,0:0:0:0:
96,134,209140,1,2,3:0:0:0:
127,9,209290,6,0,P|146:46|129:92,1,52.5000020027161,8|0,1:0|0:0,0:0:0:0:
99,137,209440,1,2,3:0:0:0:
261,81,209590,38,0,P|238:116|190:132,1,56,2|0,1:2|0:0,0:0:0:0:
102,140,209740,1,2,3:0:0:0:
320,235,209890,6,0,P|278:233|241:201,1,59.5000011348725,8|0,1:0|0:0,0:0:0:0:
105,143,210040,1,2,3:0:0:0:
163,384,210190,38,0,P|143:346|161:278,1,62.9999980773926,6|0,1:2|0:0,0:0:0:0:
231,127,210340,1,2,3:0:0:0:
0,255,210490,6,0,P|22:219|90:201,1,66.4999982242585,8|0,1:0|0:0,0:0:0:0:
301,159,210640,1,2,3:0:0:0:
0,34,210790,38,0,P|41:35|95:89,1,70,2|0,1:2|0:0,0:0:0:0:
324,239,210940,1,2,3:0:0:0:
316,285,211015,1,2,3:2:0:0:
275,304,211090,1,8,1:0:0:0:
249,233,211240,1,2,3:0:0:0:
70,246,211390,5,2,1:2:0:0:
85,279,211465,1,2,3:2:0:0:
115,299,211540,1,2,3:2:0:0:
151,307,211615,1,2,3:2:0:0:
203,363,211690,37,8,1:0:0:0:
237,360,211765,1,2,3:2:0:0:
265,340,211840,1,2,3:2:0:0:
278,307,211915,1,2,3:2:0:0:
346,274,211990,5,2,1:2:0:0:
351,245,212065,1,2,3:2:0:0:
344,217,212140,1,2,3:2:0:0:
325,194,212215,1,2,3:2:0:0:
343,123,212290,37,8,1:0:0:0:
325,97,212365,1,2,3:2:0:0:
336,50,212440,1,2,3:2:0:0:
405,36,212515,1,2,3:2:0:0:
460,90,212590,6,0,P|448:133|408:158,1,70,6|0,1:2|0:0,0:0:0:0:
245,72,212740,1,2,3:0:0:0:
348,242,212890,38,0,P|305:248|274:227,1,62.9999980773926,8|0,1:0|0:0,0:0:0:0:
248,75,213040,1,2,3:0:0:0:
205,228,213190,6,0,P|172:195|173:167,1,56,0|0,1:2|0:0,0:0:0:0:
251,77,213340,1,2,3:0:0:0:
251,344,213490,38,0,P|245:309|221:280,1,48.9999985046387,8|0,1:0|0:0,0:0:0:0:
14,94,213640,5,2,3:0:0:0:
14,94,213715,1,2,3:2:0:0:
14,94,213790,2,0,P|35:126|67:133,1,48.9999985046387,6|0,1:0|0:0,0:0:0:0:
114,101,213940,1,2,3:0:0:0:
32,210,214090,38,0,P|70:207|97:186,1,52.5000020027161,8|0,1:0|0:0,0:0:0:0:
117,98,214240,1,2,3:0:0:0:
172,262,214390,6,0,P|189:227|181:192,1,56,2|0,1:2|0:0,0:0:0:0:
120,95,214540,1,2,3:0:0:0:
331,225,214690,38,0,P|310:193|270:176,1,59.5000011348725,8|0,1:0|0:0,0:0:0:0:
123,92,214840,1,2,3:0:0:0:
404,78,214990,6,0,P|365:80|323:113,1,62.9999980773926,2|0,1:2|0:0,0:0:0:0:
175,265,215140,1,2,3:0:0:0:
228,0,215290,38,0,P|210:34|221:88,1,66.4999982242585,8|0,1:0|0:0,0:0:0:0:
261,313,215440,1,2,3:0:0:0:
40,144,215590,6,0,P|66:177|102:191,1,70,2|0,1:2|0:0,0:0:0:0:
360,303,215740,1,2,3:0:0:0:
7,362,215890,38,0,P|66:292|195:272,1,210,8|0,1:0|0:0,0:0:0:0:
195,129,216190,5,2,1:2:0:0:
238,125,216265,1,2,3:2:0:0:
276,140,216340,1,2,3:2:0:0:
306,172,216415,1,2,3:2:0:0:
377,147,216490,37,8,1:0:0:0:
391,175,216565,1,2,3:2:0:0:
396,204,216640,1,2,3:2:0:0:
387,234,216715,1,2,3:2:0:0:
448,277,216790,5,2,1:2:0:0:
434,297,216865,1,2,3:2:0:0:
418,310,216940,1,2,3:2:0:0:
395,315,217015,1,2,3:2:0:0:
367,384,217090,37,8,1:0:0:0:
352,382,217165,1,2,3:2:0:0:
339,377,217240,1,2,3:2:0:0:
329,367,217315,1,2,3:2:0:0:
255,340,217390,6,0,P|272:297|320:274,1,70,6|0,1:2|0:0,0:0:0:0:
399,207,217540,1,2,3:0:0:0:
192,178,217690,38,0,P|237:171|281:201,1,70,8|0,1:0|0:0,0:0:0:0:
429,281,217840,1,2,3:0:0:0:
473,274,217915,1,2,3:2:0:0:
492,233,217990,1,2,1:2:0:0:
293,286,218140,1,2,3:0:0:0:
508,378,218290,1,8,1:0:0:0:
262,183,218440,1,2,3:0:0:0:
123,362,218590,5,14,1:0:0:0:
72,327,218665,1,8,3:1:0:0:
36,277,218740,1,8,3:1:0:0:
18,218,218815,1,8,3:1:0:0:
23,155,218890,1,8,1:1:0:0:
47,98,218965,1,8,3:1:0:0:
91,53,219040,1,8,3:1:0:0:
147,26,219115,1,8,3:1:0:0:
210,20,219190,1,8,1:1:0:0:
270,35,219265,1,8,3:1:0:0:
320,70,219340,1,8,3:1:0:0:
356,119,219415,1,8,3:1:0:0:
371,177,219490,1,8,1:1:0:0:
365,237,219565,1,8,3:1:0:0:
339,291,219640,1,8,3:1:0:0:
294,332,219715,1,8,3:1:0:0:
203,306,219790,37,4,1:3:0:0:
301,348,220990,5,12,1:0:0:0:
353,303,221065,1,8,3:1:0:0:
380,242,221140,1,8,3:1:0:0:
386,177,221215,1,8,3:1:0:0:
371,111,221290,1,8,1:1:0:0:
331,56,221365,1,8,3:1:0:0:
275,18,221440,1,8,3:1:0:0:
210,0,221515,1,8,3:1:0:0:
142,6,221590,1,8,1:1:0:0:
81,37,221665,1,8,3:1:0:0:
31,87,221740,1,8,3:1:0:0:
5,151,221815,1,8,3:1:0:0:
0,222,221890,1,8,1:1:0:0:
19,287,221965,1,8,3:1:0:0:
59,343,222040,1,8,3:1:0:0:
117,383,222115,1,8,3:1:0:0:
200,309,222190,37,8,1:3:0:0:
131,374,223390,5,12,1:1:0:0:
54,355,223465,1,8,3:1:0:0:
52,277,223540,1,8,3:1:0:0:
119,237,223615,1,8,3:1:0:0:
185,282,223690,38,8,L|192:323,2,24.4999992523194,8|8|8,1:1|3:1|3:1,3:1:0:0:
53,176,223840,2,8,L|45:134,2,24.4999992523194,8|8|8,3:1|3:1|3:1,3:1:0:0:
264,325,223990,5,8,1:1:0:0:
316,379,224065,1,8,3:1:0:0:
381,343,224140,1,8,3:1:0:0:
382,269,224215,1,8,3:1:0:0:
313,236,224290,38,8,L|274:249,2,24.4999992523194,8|8|8,1:1|3:1|3:1,3:1:0:0:
386,265,224440,2,8,L|424:251,2,24.4999992523194,8|8|8,3:1|3:1|3:1,3:1:0:0:
187,193,224590,5,8,1:0:0:0:
140,176,224665,1,8,3:1:0:0:
114,133,224740,1,8,3:1:0:0:
121,84,224815,1,8,3:1:0:0:
198,39,224890,38,8,L|226:44,6,24.4999992523194,8|8|8|8|8|8|8,1:1|3:1|3:1|3:1|3:1|3:1|3:1,3:1:0:0:
361,242,225190,5,8,1:1:0:0:
401,227,225265,1,8,3:1:0:0:
416,187,225340,1,8,3:1:0:0:
408,148,225415,1,8,3:1:0:0:
339,111,225490,38,8,L|315:115,6,24.4999992523194,8|8|8|8|8|8|8,1:1|3:1|3:1|3:1|3:1|3:1|3:1,3:1:0:0:
141,208,225790,6,8,L|163:219,6,24.4999992523194,8|8|8|8|8|8|8,1:1|3:1|3:1|3:1|3:1|3:1|3:1,3:1:0:0:
358,245,226090,38,8,L|347:224,6,24.4999992523194,8|8|8|8|8|8|8,1:1|3:1|3:1|3:1|3:1|3:1|3:1,3:1:0:0:
204,88,226390,6,8,L|201:112,6,24.4999992523194,8|8|8|8|8|8|8,1:1|3:1|3:1|3:1|3:1|3:1|3:1,3:1:0:0:
236,306,226690,38,8,L|253:288,6,24.4999992523194,8|8|8|8|8|8|8,1:1|3:1|3:1|3:1|3:1|3:1|3:1,3:1:0:0:
256,192,226990,5,4,1:3:0:0:
256,192,227027,12,0,228115,0:0:0:0:
92,349,228190,37,2,1:3:0:0:
78,277,228265,1,2,3:3:0:0:
60,206,228340,1,2,1:3:0:0:
44,134,228415,1,2,3:3:0:0:
33,61,228490,1,2,1:3:0:0:
73,79,228565,1,2,3:3:0:0:
113,100,228640,1,2,3:3:0:0:
152,122,228715,1,2,3:3:0:0:
191,143,228790,1,2,1:3:0:0:
168,170,228865,1,2,3:3:0:0:
147,197,228940,1,2,3:3:0:0:
159,219,229015,1,2,3:3:0:0:
169,239,229090,6,0,L|202:247,2,24.4999992523194,2|2|2,1:3|3:3|3:3,0:3:0:0:
105,280,229240,2,0,L|72:272,2,24.4999992523194,2|2|2,3:3|3:3|3:3,0:3:0:0:
247,350,229390,37,2,1:3:0:0:
321,338,229465,1,2,3:3:0:0:
394,317,229540,1,2,1:3:0:0:
344,265,229615,1,2,1:3:0:0:
291,213,229690,1,2,1:3:0:0:
298,182,229765,1,2,3:3:0:0:
306,149,229840,1,2,3:3:0:0:
280,162,229915,1,2,3:3:0:0:
253,173,229990,6,0,L|212:162,2,24.4999992523194,2|2|2,1:3|3:3|3:3,0:3:0:0:
381,137,230140,2,0,L|422:148,2,24.4999992523194,2|2|2,3:3|3:3|3:3,0:3:0:0:
187,203,230290,38,0,L|146:214,2,24.4999992523194,2|2|2,1:3|3:3|3:3,0:3:0:0:
454,123,230440,2,0,L|495:112,2,24.4999992523194,2|2|2,3:3|3:3|3:3,0:3:0:0:
341,268,230590,6,0,L|335:310,14,24.4999992523194,2|2|2|2|2|2|2|2|2|2|2|2|2|2|2,1:3|3:3|3:3|3:3|3:3|3:3|3:3|3:3|3:3|3:3|3:3|3:3|3:3|3:3|3:3,0:3:0:0:
389,55,231190,38,0,L|395:9,2,24.4999992523194,2|2|2,1:3|3:3|0:3,0:3:0:0:
279,177,231340,2,0,L|234:192,2,24.4999992523194,2|2|2,1:3|3:3|0:3,0:3:0:0:
439,210,231490,2,0,L|475:237,2,24.4999992523194,2|2|2,1:3|3:3|0:3,0:3:0:0:
366,151,231640,5,2,3:3:0:0:
366,151,231715,1,2,3:3:0:0:
366,151,231790,1,2,1:3:0:0:
317,157,231865,1,2,3:0:0:0:
268,165,231940,1,2,3:0:0:0:
218,172,232015,1,2,3:0:0:0:
169,180,232090,1,2,3:0:0:0:
192,150,232165,1,2,3:0:0:0:
215,122,232240,1,2,3:0:0:0:
237,93,232315,1,2,3:0:0:0:
311,69,232390,38,0,L|349:77,2,24.4999992523194,2|2|2,1:3|3:0|3:0,0:0:0:0:
211,118,232540,2,0,L|173:110,2,24.4999992523194,2|2|2,3:0|3:0|3:0,0:0:0:0:
371,211,232690,5,2,1:3:0:0:
334,236,232765,1,2,3:0:0:0:
302,208,232840,2,0,L|317:150,1,48.9999985046387,2|2,3:0|3:0,0:0:0:0:
203,14,232990,38,0,B|194:15|194:15|199:90|199:90|95:118|95:118|192:112|192:112|217:151|217:151|277:336|277:336|301:368|301:368|301:368|301:368|304:328|304:328|264:138|264:138|267:93|267:93|354:48|354:48|249:76|249:76|217:10|217:10|207:12,1,1139.24996523285,4|0,1:0|0:0,1:1:0:0:
112,210,235390,6,0,B|67:230|67:299|107:347|233:323|362:283|460:236|482:184|454:112|380:134,1,564.666683898926,0|0,0:0|3:0,1:1:0:0:
231,109,236590,37,8,0:0:0:0:
231,109,237790,1,2,0:2:0:0:
451,90,247390,22,0,L|454:72,2,17.5,2|2|2,3:2|3:2|3:2,0:0:0:0:
381,122,247540,1,2,0:0:0:0:
306,109,247690,1,2,0:0:0:0:
276,61,247840,1,2,0:0:0:0:
281,32,247990,1,2,0:0:0:0:
291,28,248140,1,2,0:0:0:0:
276,19,248290,1,2,0:0:0:0:
304,16,248440,1,2,0:0:0:0:
158,0,248590,5,2,3:2:0:0:
107,59,248740,1,2,0:0:0:0:
0,32,248890,1,2,0:0:0:0:
147,182,249190,1,2,0:0:0:0:
10,336,249490,1,2,0:0:0:0:
10,336,249640,1,2,0:0:0:0:
119,378,249790,37,2,3:2:0:0:
189,347,249940,1,2,0:0:0:0:
119,378,250090,1,2,0:0:0:0:
49,240,250240,1,2,0:0:0:0:
49,240,250540,1,2,0:0:0:0:
66,155,250690,1,2,0:0:0:0:
138,112,250840,5,2,0:0:0:0:
138,112,250915,1,2,0:0:0:0:
138,112,250990,1,2,3:2:0:0:
279,175,251140,1,2,0:0:0:0:
170,246,251290,1,2,0:0:0:0:
273,301,251440,1,2,0:0:0:0:
203,350,251590,38,0,L|197:392,3,35,2|2|2|2,0:0|0:0|0:0|0:0,0:0:0:0:
353,333,251890,2,0,L|360:385,3,52.5000020027161,2|2|2|2,0:0|0:0|0:0|0:0,0:0:0:0:
273,301,252190,5,2,3:2:0:0:
313,236,252340,1,2,0:0:0:0:
371,220,252490,1,2,0:0:0:0:
413,229,252640,1,2,0:0:0:0:
432,256,252790,1,2,0:0:0:0:
426,270,252940,1,2,0:0:0:0:
367,215,253090,1,2,0:0:0:0:
496,173,253240,1,2,0:0:0:0:
394,90,253390,37,2,3:2:0:0:
479,62,253540,1,2,0:0:0:0:
394,90,253690,1,2,0:0:0:0:
202,10,253990,1,2,0:0:0:0:
202,10,254290,1,2,0:0:0:0:
213,27,254365,1,2,0:0:0:0:
224,44,254440,1,2,0:0:0:0:
244,39,254515,1,2,0:0:0:0:
264,34,254590,6,0,L|246:121,1,84,2|2,3:2|0:0,0:0:0:0:
283,204,255190,1,2,0:0:0:0:
283,204,255490,1,2,0:0:0:0:
283,204,255790,2,0,L|307:360,1,146.999995513916,2|0,3:2|0:0,0:0:0:0:
221,372,256390,38,0,L|225:347,3,17.5,2|2|2|2,3:2|0:0|0:2|0:0,0:0:0:0:
141,342,256690,6,0,L|145:367,6,17.5,2|2|2|2|2|2|2,3:2|0:0|0:0|0:0|0:0|0:0|0:0,0:0:0:0:
62,379,256990,37,8,3:2:0:0:
45,366,257140,1,2,0:0:0:0:
32,322,257290,1,2,0:0:0:0:
65,269,257440,1,2,0:0:0:0:
135,249,257590,1,2,0:0:0:0:
214,261,257740,6,2,L|221:232,10,17.5
274,322,258190,37,10,3:2:0:0:
292,350,258340,1,2,0:0:0:0:
355,381,258490,1,2,0:0:0:0:
426,357,258640,1,2,0:0:0:0:
444,282,258790,1,2,0:0:0:0:
409,216,258940,6,2,L|399:191,10,17.5
333,169,259390,37,10,3:2:0:0:
333,169,259465,1,2,0:0:0:0:
333,169,259540,1,2,0:0:0:0:
254,165,259690,1,2,0:0:0:0:
202,217,259840,1,2,0:0:0:0:
220,293,259990,1,2,0:0:0:0:
183,364,260140,6,2,L|190:383,10,17.5
103,366,260590,37,10,3:2:0:0:
2,249,260740,1,2,0:0:0:0:
105,280,260890,1,2,0:0:0:0:
1,328,261040,1,2,0:0:0:0:
105,280,261190,1,2,0:0:0:0:
74,198,261340,6,2,L|68:170,10,17.5
126,128,261790,37,10,3:2:0:0:
0,76,261940,1,2,0:0:0:0:
131,0,262240,5,2,3:2:0:0:
131,0,262540,2,0,P|184:3|248:20,1,105,2|2,3:2|3:2,0:0:0:0:
330,42,262840,37,2,3:2:0:0:
330,42,262915,1,2,3:2:0:0:
330,42,262990,1,10,3:2:0:0:
407,14,263140,1,2,0:0:0:0:
308,210,263440,5,2,3:2:0:0:
270,284,263590,1,2,3:2:0:0:
308,358,263740,1,2,3:2:0:0:
211,371,263890,38,2,L|184:363,6,17.5
110,380,264190,5,10,3:2:0:0:
138,286,264340,1,2,0:0:0:0:
110,380,264490,1,2,0:0:0:0:
27,257,264640,1,2,0:0:0:0:
139,113,264790,38,0,L|133:90,1,24.5,2|0,2:2|0:0,0:0:0:0:
213,79,265390,6,2,L|215:70,60,8.75,10|2|2|2|2|2|2|2|2|2|2|2|2|2|2|2|2|2|2|2|2|2|2|2|2|2|2|2|2|2|2|2|2|2|2|2|2|2|2|2|2|2|2|2|2|2|2|2|2|2|2|2|2|2|2|2|2|2|2|2|2,3:2|0:0|0:0|0:0|0:0|0:0|0:0|0:0|0:0|0:0|0:0|0:0|0:0|0:0|0:0|0:0|0:0|0:0|0:0|0:0|0:0|0:0|0:0|0:0|0:0|0:0|0:0|0:0|0:0|0:0|0:0|0:0|0:0|0:0|0:0|0:0|0:0|0:0|0:0|0:0|0:0|0:0|0:0|0:0|0:0|0:0|0:0|0:0|0:0|0:0|0:0|0:0|0:0|0:0|0:0|0:0|0:0|0:0|0:0|0:0|0:0,0:0:0:0:
255,4,266590,53,2,1:2:0:0:
298,93,266740,1,0,3:0:0:0:
231,161,266890,1,0,3:0:0:0:
327,259,267040,1,0,3:0:0:0:
349,28,267790,37,2,1:3:0:0:
428,8,267940,1,0,3:0:0:0:
340,141,268090,1,0,3:0:0:0:
183,92,268240,1,0,3:0:0:0:
418,97,268990,5,2,1:2:0:0:
220,234,269215,37,0,3:0:0:0:
118,17,269440,5,0,3:0:0:0:
444,190,270190,37,2,1:3:0:0:
147,274,270490,1,0,3:0:0:0:
301,329,270790,1,0,1:0:0:0:
249,207,270940,1,0,3:0:0:0:
331,247,271090,1,0,3:0:0:0:
363,164,271240,1,0,3:0:0:0:
419,285,271390,5,2,1:2:0:0:
512,240,271540,1,0,3:0:0:0:
363,164,271690,1,0,3:0:0:0:
512,95,271840,1,0,1:0:0:0:
350,354,272590,37,2,1:3:0:0:
251,293,272740,1,0,3:0:0:0:
142,376,272890,1,0,3:0:0:0:
58,330,273040,1,0,1:0:0:0:
257,380,273790,5,2,1:2:0:0:
255,4,274390,1,0,3:2:0:0:
162,355,274990,37,2,1:3:0:0:
244,270,275290,2,2,L|276:279,6,26.2500010013581
226,195,275590,5,0,1:0:0:0:
226,195,275740,1,0,3:0:0:0:
226,195,275890,1,0,3:0:0:0:
93,286,276190,37,2,1:2:0:0:
133,152,276340,5,0,0:0:0:0:
151,131,276415,1,0,0:0:0:0:
170,110,276490,1,0,1:0:0:0:
154,102,276565,1,0,0:0:0:0:
138,94,276640,1,0,0:0:0:0:
147,89,276715,1,0,0:0:0:0:
156,84,276790,38,0,L|161:46,3,35,0|0|0|0,1:0|0:0|0:0|0:0,0:0:0:0:
239,43,277090,2,0,L|233:8,1,35,0|0,1:0|0:0,0:0:0:0:
19,78,277240,5,0,3:0:0:0:
6,150,277315,1,0,3:0:0:0:
67,191,277390,37,2,1:2:0:0:
104,180,277465,1,0,0:0:0:0:
141,169,277540,1,0,0:0:0:0:
177,179,277615,1,0,0:0:0:0:
213,189,277690,1,0,1:0:0:0:
235,158,277765,1,0,0:0:0:0:
258,127,277840,1,0,0:0:0:0:
278,120,277915,1,0,0:0:0:0:
298,113,277990,1,0,1:0:0:0:
275,102,278065,1,0,0:0:0:0:
252,91,278140,1,0,0:0:0:0:
229,80,278215,1,0,0:0:0:0:
224,71,278290,6,0,L|238:23,1,35,0|0,1:0|0:0,0:0:0:0:
215,195,278440,2,0,L|229:246,1,35,0|0,3:0|0:0,0:0:0:0:
93,97,278590,37,2,1:2:0:0:
81,133,278665,1,0,0:0:0:0:
69,169,278740,1,0,0:0:0:0:
57,205,278815,1,0,0:0:0:0:
46,241,278890,1,0,1:0:0:0:
65,274,278965,1,0,0:0:0:0:
84,306,279040,1,0,0:0:0:0:
74,328,279115,1,0,0:0:0:0:
64,350,279190,1,0,1:0:0:0:
48,358,279265,1,0,0:0:0:0:
33,367,279340,1,0,0:0:0:0:
18,376,279415,1,0,0:0:0:0:
13,368,279490,6,0,L|24:318,1,35,0|0,1:0|0:0,0:0:0:0:
143,247,279640,2,0,L|132:197,1,35,0|0,3:0|0:0,0:0:0:0:
162,29,279790,37,2,1:2:0:0:
192,52,279865,1,0,0:0:0:0:
221,76,279940,1,0,0:0:0:0:
251,99,280015,1,0,0:0:0:0:
281,122,280090,1,0,1:0:0:0:
311,145,280165,1,0,0:0:0:0:
341,168,280240,1,0,0:0:0:0:
315,179,280315,1,0,0:0:0:0:
289,190,280390,1,0,1:0:0:0:
263,201,280465,1,0,0:0:0:0:
237,212,280540,1,0,0:0:0:0:
260,226,280615,1,0,0:0:0:0:
264,235,280690,6,0,L|251:295,1,35,0|0,1:0|0:0,0:0:0:0:
75,164,280840,2,0,L|62:104,1,35,0|0,3:0|0:0,0:0:0:0:
255,4,280990,37,14,1:2:0:0:
399,272,281290,1,0,3:0:0:0:
160,171,281440,1,0,3:0:0:0:
136,378,281590,5,0,1:0:0:0:
489,192,281890,1,0,3:0:0:0:
255,4,282190,37,2,1:3:0:0:
193,147,282340,1,0,3:0:0:0:
225,160,282415,1,0,0:0:0:0:
257,173,282490,1,0,1:0:0:0:
289,186,282565,1,0,0:0:0:0:
321,199,282640,1,0,3:0:0:0:
353,212,282715,1,0,0:0:0:0:
385,225,282790,1,0,1:0:0:0:
377,205,282865,1,0,3:0:0:0:
369,185,282940,1,0,3:0:0:0:
361,165,283015,1,0,3:0:0:0:
364,158,283090,6,0,L|438:175,1,52.5000020027161,0|0,1:0|3:0,0:0:0:0:
128,216,283240,2,0,L|58:232,1,52.5000020027161,0|0,3:0|3:0,0:0:0:0:
255,4,283390,37,14,1:2:0:0:
141,109,283540,1,0,3:0:0:0:
7,42,283690,1,0,3:0:0:0:
255,264,283840,1,0,3:0:0:0:
505,42,283990,1,0,1:0:0:0:
371,109,284140,1,0,3:0:0:0:
255,48,284290,5,0,1:0:0:0:
255,37,284365,1,0,3:0:0:0:
255,26,284440,1,0,3:0:0:0:
255,15,284515,1,0,3:0:0:0:
255,4,284590,37,14,1:2:0:0:
242,55,284665,1,8,3:1:0:0:
255,105,284740,1,8,3:1:0:0:
242,156,284815,1,8,3:1:0:0:
255,206,284890,1,8,3:1:0:0:
242,257,284965,1,8,3:1:0:0:
255,307,285040,1,8,3:1:0:0:
242,358,285115,1,8,3:1:0:0:
248,368,285190,6,0,L|331:380,1,70,8|8,1:0|3:1,0:0:0:0:
255,4,285340,2,0,L|172:16,1,70,8|8,1:1|3:1,0:0:0:0:
502,234,285490,2,0,L|512:164,1,70,8|8,1:0|3:1,0:0:0:0:
0,165,285640,2,0,L|12:248,1,70,8|8,1:1|3:1,0:0:0:0:
255,4,285790,5,2,1:2:0:0:
255,10,285940,1,0,3:0:0:0:
255,16,286090,1,0,3:0:0:0:
255,22,286240,1,0,3:0:0:0:
255,28,286390,1,0,3:0:0:0:
255,34,286540,1,0,3:0:0:0:
255,40,286690,1,0,3:0:0:0:
255,46,286840,1,0,3:0:0:0:
349,28,286990,5,2,1:3:0:0:
346,33,287140,1,0,3:0:0:0:
343,38,287290,1,0,3:0:0:0:
340,43,287440,1,0,3:0:0:0:
337,48,287590,1,0,3:0:0:0:
334,53,287740,1,0,3:0:0:0:
331,59,287890,1,0,3:0:0:0:
328,64,288040,1,0,3:0:0:0:
418,97,288190,37,2,1:2:0:0:
412,99,288340,1,0,3:0:0:0:
407,103,288490,1,0,3:0:0:0:
402,106,288640,1,0,3:0:0:0:
397,108,288790,1,0,3:0:0:0:
392,111,288940,1,0,3:0:0:0:
386,115,289090,1,0,3:0:0:0:
381,118,289240,1,0,3:0:0:0:
444,190,289390,5,2,1:3:0:0:
438,191,289540,1,0,3:0:0:0:
432,191,289690,1,0,3:0:0:0:
426,191,289840,1,0,3:0:0:0:
420,191,289990,1,0,3:0:0:0:
414,190,290140,1,0,3:0:0:0:
408,191,290290,1,0,3:0:0:0:
402,191,290440,1,0,3:0:0:0:
419,285,290590,37,2,1:2:0:0:
413,282,290729,1,0,3:0:0:0:
408,279,290868,1,0,3:0:0:0:
402,276,291008,1,0,3:0:0:0:
397,273,291147,1,0,3:0:0:0:
393,270,291287,1,0,3:0:0:0:
387,267,291426,1,0,3:0:0:0:
382,264,291566,1,0,3:0:0:0:
350,354,291706,5,2,1:3:0:0:
346,349,291845,1,0,3:0:0:0:
343,344,291985,1,0,3:0:0:0:
340,338,292124,1,0,3:0:0:0:
337,333,292264,1,0,3:0:0:0:
335,328,292403,1,0,3:0:0:0:
331,323,292543,1,0,3:0:0:0:
328,318,292683,1,0,3:0:0:0:
256,380,292822,37,2,1:2:0:0:
257,374,292962,1,0,3:0:0:0:
257,368,293101,1,0,3:0:0:0:
257,362,293241,1,0,3:0:0:0:
257,356,293380,1,0,3:0:0:0:
258,350,293520,1,0,3:0:0:0:
257,344,293659,1,0,3:0:0:0:
257,338,293799,1,0,3:0:0:0:
161,355,293938,5,2,1:3:0:0:
165,350,294078,1,0,3:0:0:0:
168,344,294217,2,0,L|183:319,8,17.5,2|2|2|2|2|2|2|2|0,3:2|0:0|0:0|0:0|3:2|0:0|0:0|0:0|3:0,0:0:0:0:
92,286,295055,37,2,1:2:0:0:
116,281,295121,1,0,3:0:0:0:
139,276,295188,1,0,3:0:0:0:
161,272,295255,1,0,3:0:0:0:
184,301,295321,1,0,3:0:0:0:
208,335,295388,1,0,3:0:0:0:
227,300,295455,1,0,3:0:0:0:
244,264,295521,1,0,3:0:0:0:
257,228,295588,6,0,L|316:211,1,35,0|0,3:0|3:0,0:0:0:0:
395,202,295721,2,0,L|361:211,1,35,0|0,3:0|3:0,0:0:0:0:
313,146,295855,38,0,L|322:179,1,35,0|0,3:0|3:0,0:0:0:0:
339,284,295988,2,0,L|329:250,1,35,0|0,3:0|3:0,0:0:0:0:
67,191,296121,5,2,1:2:0:0:
81,194,296187,1,0,3:0:0:0:
96,197,296254,1,0,3:0:0:0:
109,200,296321,1,0,3:0:0:0:
127,182,296388,1,0,3:0:0:0:
147,161,296454,1,0,3:0:0:0:
182,171,296521,1,0,3:0:0:0:
220,181,296588,1,0,3:0:0:0:
231,219,296655,38,0,L|240:252,1,35,0|0,3:0|3:0,0:0:0:0:
208,325,296788,1,0,3:0:0:0:
186,309,296855,1,0,3:0:0:0:
165,294,296921,2,0,L|156:252,1,35,0|0,3:0|3:0,0:0:0:0:
145,73,297055,5,0,3:0:0:0:
117,85,297121,1,0,3:0:0:0:
93,97,297188,37,2,1:2:0:0:
100,103,297255,1,0,3:0:0:0:
107,110,297322,1,0,3:0:0:0:
115,118,297389,1,0,3:0:0:0:
105,151,297455,1,0,3:0:0:0:
95,186,297521,1,0,3:0:0:0:
56,200,297588,1,0,3:0:0:0:
17,213,297655,1,0,3:0:0:0:
21,221,297721,6,0,L|9:281,3,35,0|0|0|0,3:0|3:0|3:0|3:0,0:0:0:0:
0,131,297988,2,0,L|12:71,3,35,0|0|0|0,3:0|3:0|3:0|3:0,0:0:0:0:
162,29,298255,37,2,1:2:0:0:
164,36,298321,1,0,3:0:0:0:
166,43,298388,1,0,3:0:0:0:
168,50,298455,1,0,3:0:0:0:
170,57,298521,1,0,3:0:0:0:
207,80,298588,1,0,3:0:0:0:
246,98,298655,1,0,3:0:0:0:
287,118,298721,1,0,3:0:0:0:
285,124,298788,5,0,3:0:0:0:
235,180,299055,2,0,L|173:193,3,35,2|2|2|2,3:2|3:2|3:2|3:2,0:0:0:0:
256,3,299321,38,2,L|256:23,28,17.5,2|2|2|2|2|2|2|2|2|2|2|2|2|2|2|2|2|2|2|2|2|2|2|2|2|2|2|2|2,1:2|0:0|0:0|0:0|0:0|0:0|0:0|0:0|0:0|0:0|0:0|0:0|0:0|0:0|0:0|0:0|0:0|0:0|0:0|0:0|0:0|0:0|0:0|0:0|0:0|0:0|0:0|0:0|0:0,0:0:0:0:
350,28,300321,6,2,L|340:45,28,17.5,2|2|2|2|2|2|2|2|2|2|2|2|2|2|2|2|2|2|2|2|2|2|2|2|2|2|2|2|2,1:3|0:0|0:0|0:0|0:0|0:0|0:0|0:0|0:0|0:0|0:0|0:0|0:0|0:0|0:0|0:0|0:0|0:0|0:0|0:0|0:0|0:0|0:0|0:0|0:0|0:0|0:0|0:0|0:0,0:0:0:0:
419,97,301321,38,2,L|402:107,28,17.5,2|2|2|2|2|2|2|2|2|2|2|2|2|2|2|2|2|2|2|2|2|2|2|2|2|2|2|2|2,1:2|0:0|0:0|0:0|0:0|0:0|0:0|0:0|0:0|0:0|0:0|0:0|0:0|0:0|0:0|0:0|0:0|0:0|0:0|0:0|0:0|0:0|0:0|0:0|0:0|0:0|0:0|0:0|0:0,0:0:0:0:
444,192,302321,5,2,1:2:0:0:
256,0,302821,37,4,3:0:0:0:
256,0,303071,1,2,3:2:0:0:
264,375,303321,6,2,L|251:270,1,70,6|0,1:0|0:0,0:0:0:0:
137,233,303446,1,2,3:0:0:0:
313,141,303571,2,0,B|387:219|387:219|306:364,1,210,8|0,1:0|0:0,0:0:0:0:
252,303,303821,38,0,B|174:283|219:250|133:237,1,140,0|2,1:0|3:0,0:0:0:0:
78,292,304008,1,2,3:2:0:0:
85,290,304071,2,0,L|331:227,1,210,8|0,1:0|0:0,0:0:0:0:
327,76,304321,6,0,L|310:144,1,70,6|0,1:2|0:0,0:0:0:0:
130,234,304446,2,0,L|200:216,1,70,2|0,3:0|0:0,0:0:0:0:
450,372,304571,38,0,L|268:213,1,210,8|0,1:0|0:0,0:0:0:0:
254,301,304821,2,0,L|411:260,1,140,0|2,1:0|3:0,0:0:0:0:
447,216,305008,5,2,3:2:0:0:
442,210,305071,2,0,L|463:129,1,70,8|0,1:0|0:0,0:0:0:0:
333,315,305196,2,0,L|312:396,1,70,8|0,3:1|0:0,0:0:0:0:
453,369,305321,37,6,1:0:0:0:
295,229,305446,2,0,P|192:249|188:348,1,210,8|0,3:1|0:0,0:0:0:0:
230,182,305696,6,0,L|220:124,2,35,8|2|2,3:1|3:2|3:2,0:0:0:0:
253,301,305821,1,8,1:0:0:0:
300,135,305946,38,0,L|310:77,2,35,8|2|2,3:1|3:2|3:2,0:0:0:0:
185,336,306071,1,8,1:0:0:0:
416,245,306196,5,8,1:1:0:0:
442,210,306258,1,8,1:1:0:0:
411,178,306321,1,12,1:0:0:0:
131,254,306446,1,2,3:2:0:0:
372,348,306571,1,8,1:0:0:0:
244,384,306696,1,2,3:2:0:0:
277,17,306821,38,0,L|299:237,1,210,6|0,1:2|0:0,0:0:0:0:
281,21,307071,2,0,L|290:103,1,70,8|0,1:0|0:0,0:0:0:0:
133,338,307196,5,2,3:0:0:0:
133,338,307258,1,2,3:2:0:0:
133,338,307321,2,0,B|84:240|84:240|173:157,1,210,6|0,1:2|0:0,0:0:0:0:
212,226,307571,2,0,L|195:310,1,70,8|0,1:0|0:0,0:0:0:0:
56,377,307696,37,2,3:0:0:0:
15,383,307758,1,2,3:2:0:0:
0,352,307821,1,0,1:0:0:0:
198,294,307946,1,2,3:0:0:0:
0,238,308071,5,8,1:0:0:0:
247,381,308196,1,2,3:0:0:0:
153,174,308321,38,0,P|142:98|214:39,1,140,6|2,1:2|3:0,0:0:0:0:
257,46,308508,1,2,3:2:0:0:
257,46,308571,2,0,P|275:146|211:225,1,210,8|0,1:0|0:0,0:0:0:0:
97,97,308821,6,0,L|14:76,1,70,2|0,1:2|0:0,0:0:0:0:
306,147,308946,2,0,L|389:168,1,70,2|0,1:2|0:0,0:0:0:0:
80,369,309071,37,8,1:0:0:0:
47,346,309133,1,2,3:2:0:0:
18,321,309196,1,8,3:1:0:0:
44,293,309258,1,8,3:1:0:0:
73,269,309321,5,14,1:0:0:0:
332,373,309571,37,10,1:0:0:0:
177,9,309821,5,10,1:0:0:0:
437,113,310071,37,10,1:0:0:0:
200,263,310321,5,10,1:0:0:0:
182,136,310446,1,2,3:2:0:0:
309,118,310571,1,2,3:2:0:0:
327,245,310696,1,2,3:2:0:0:
117,176,310821,37,8,3:1:0:0:
240,331,310946,1,8,3:1:0:0:
399,207,311071,1,8,3:1:0:0:
274,49,311196,1,8,3:1:0:0:
136,283,311321,6,0,L|238:258,1,70,6|0,1:0|0:0,0:0:0:0:
323,241,311446,1,2,3:0:0:0:
112,178,311571,1,8,1:0:0:0:
326,325,311696,1,2,3:0:0:0:
208,90,311821,37,6,1:2:0:0:
228,54,311883,1,2,3:2:0:0:
270,53,311946,1,2,3:2:0:0:
292,85,312008,1,2,3:2:0:0:
275,121,312071,1,8,1:0:0:0:
287,156,312133,1,2,3:2:0:0:
327,169,312196,1,2,3:2:0:0:
353,142,312258,1,2,3:2:0:0:
351,135,312321,5,6,1:2:0:0:
203,185,312446,1,2,3:0:0:0:
149,36,312571,1,8,1:0:0:0:
301,13,312696,38,0,L|286:94,1,70,2|0,3:0|0:0,0:0:0:0:
269,284,312821,5,6,1:2:0:0:
302,307,312883,1,2,3:2:0:0:
339,290,312946,1,2,3:2:0:0:
346,252,313008,1,2,3:2:0:0:
316,226,313071,2,0,L|200:256,1,70,8|0,1:0|0:0,0:0:0:0:
144,255,313196,2,0,L|259:224,1,70,8|0,1:0|0:0,0:0:0:0:
413,286,313321,37,6,1:2:0:0:
69,207,313446,2,0,P|49:138|111:90,1,140,2|8,1:2|3:1,0:0:0:0:
91,93,313633,1,8,3:1:0:0:
91,93,313696,1,8,1:1:0:0:
227,17,313821,5,6,1:2:0:0:
225,26,313883,1,8,3:1:0:0:
223,37,313946,1,8,3:1:0:0:
221,48,314008,1,8,3:1:0:0:
180,79,314071,37,6,1:2:0:0:
182,97,314133,1,8,3:1:0:0:
186,118,314196,1,8,3:1:0:0:
190,138,314258,1,8,3:1:0:0:
233,162,314321,6,2,P|314:149|318:31,1,210,6|0,1:0|0:0,0:1:0:0:
192,228,314571,38,2,P|111:215|107:97,1,210,10|0,1:0|0:0,0:1:0:0:
327,34,314821,6,2,P|246:47|242:165,1,210,2|0,1:0|0:0,0:1:0:0:
104,107,315071,38,2,P|185:120|189:238,1,210,10|0,1:0|0:0,0:1:0:0:
70,297,315321,6,0,L|170:315,1,70,6|0,1:0|0:0,0:0:0:0:
297,338,315446,2,0,L|132:308,1,140,6|8,3:2|1:1,0:0:0:0:
76,384,315633,37,0,3:0:0:0:
76,384,315696,2,2,B|163:365|163:365|206:271|206:271|340:244,1,280,6|0,3:1|0:0,0:1:0:0:
404,148,316071,5,8,1:0:0:0:
405,140,316133,1,2,3:2:0:0:
407,131,316196,1,2,3:2:0:0:
409,122,316258,1,2,3:2:0:0:
431,93,316321,38,0,L|331:111,1,70,6|0,1:0|0:0,0:0:0:0:
204,134,316446,2,0,L|368:104,1,140,6|8,3:2|1:1,0:0:0:0:
454,14,316633,5,2,3:2:0:0:
459,11,316696,2,2,B|529:84|529:84|463:191,1,210,6|0,3:1|0:0,0:1:0:0:
411,133,316946,2,0,L|391:31,1,70,8|0,1:0|0:0,0:0:0:0:
286,52,317071,37,8,1:0:0:0:
261,77,317133,1,8,3:1:0:0:
236,103,317196,1,2,1:2:0:0:
256,133,317258,1,2,1:2:0:0:
278,162,317321,5,14,1:0:0:0:
414,136,317446,1,0,1:3:0:0:
256,312,317571,1,8,1:0:0:0:
473,267,317696,1,2,1:3:0:0:
176,358,317821,37,14,1:0:0:0:
312,384,317946,1,0,1:3:0:0:
154,208,318071,1,8,1:0:0:0:
371,253,318196,1,2,1:3:0:0:
205,159,318321,6,0,L|198:114,14,35,14|2|2|2|2|2|2|2|2|2|2|2|2|2|2,1:0|3:2|3:2|3:2|3:2|3:2|3:2|3:2|3:2|3:2|3:2|3:2|3:2|3:2|3:2,0:0:0:0:
299,249,318821,38,0,B|310:213|310:213|280:170,1,70,0|0,1:0|1:0,0:0:0:0:
105,34,318946,2,0,B|94:70|94:70|124:113,1,70,0|0,1:0|1:0,0:0:0:0:
273,78,319071,6,0,B|284:47|284:47|264:15,1,70,0|0,1:0|1:0,0:0:0:0:
122,209,319196,2,0,B|110:239|110:239|130:271,1,70,0|0,1:0|1:0,0:0:0:0:
405,343,319321,37,6,1:0:0:0:
218,284,319446,1,2,3:3:0:0:
434,259,319571,6,0,L|352:286,1,70,8|0,1:0|0:0,0:0:0:0:
154,343,319696,1,2,3:0:0:0:
306,162,319821,37,6,1:2:0:0:
307,154,319883,1,0,1:0:0:0:
308,146,319946,1,0,1:0:0:0:
309,138,320008,1,0,1:0:0:0:
310,130,320071,1,8,1:0:0:0:
288,352,320196,5,0,1:0:0:0:
287,360,320258,1,0,1:0:0:0:
286,368,320321,2,0,B|251:307|251:307|294:253,1,140,6|2,1:2|1:3,0:0:0:0:
310,130,320571,38,0,B|345:191|345:191|302:245,1,140,8|2,1:0|1:3,0:0:0:0:
231,206,320758,1,2,3:2:0:0:
229,199,320821,2,0,L|238:150,6,35,6|2|2|2|2|2|2,1:2|3:2|3:2|3:2|3:2|3:2|3:2,0:0:0:0:
361,303,321071,6,0,L|352:352,6,35,8|2|2|2|2|2|2,1:0|3:2|3:2|3:2|3:2|3:2|3:2,0:0:0:0:
418,246,321321,37,6,1:0:0:0:
200,290,321446,1,2,1:3:0:0:
418,246,321571,1,8,1:0:0:0:
200,290,321696,1,2,1:3:0:0:
434,325,321821,5,0,1:0:0:0:
290,202,321946,1,2,1:3:0:0:
207,369,322071,1,8,1:0:0:0:
63,246,322196,1,2,1:3:0:0:
284,315,322321,37,0,1:0:0:0:
289,303,322383,1,0,1:0:0:0:
295,291,322446,1,0,1:0:0:0:
285,283,322508,1,0,1:0:0:0:
275,274,322571,1,8,1:0:0:0:
361,183,322696,6,0,L|275:203,1,70,2|0,1:3|0:0,0:0:0:0:
173,153,322821,1,0,1:0:0:0:
166,134,322883,1,0,1:0:0:0:
156,115,322946,1,0,1:0:0:0:
172,103,323008,1,0,1:0:0:0:
188,89,323071,1,8,1:0:0:0:
74,256,323196,37,2,3:2:0:0:
74,256,323258,1,2,3:2:0:0:
74,256,323321,2,0,L|160:236,1,70,6|0,1:2|1:0,0:0:0:0:
214,228,323446,2,0,L|128:248,1,70,2|0,1:2|1:0,0:0:0:0:
0,202,323571,6,0,L|100:232,1,70,8|0,1:0|1:0,0:0:0:0:
294,283,323696,2,0,L|193:252,1,70,2|0,1:2|1:0,0:0:0:0:
153,106,323821,37,6,1:2:0:0:
151,96,323883,1,0,1:0:0:0:
148,85,323946,1,0,1:0:0:0:
146,74,324008,1,0,1:0:0:0:
117,52,324071,5,8,1:0:0:0:
148,40,324133,1,8,1:0:0:0:
178,26,324196,1,8,1:0:0:0:
209,14,324258,1,8,1:0:0:0:
235,53,324321,38,0,L|227:99,6,35,6|2|2|2|2|2|2,1:0|3:2|3:2|3:2|3:2|3:2|3:2,0:0:0:0:
145,243,324571,6,0,L|150:208,6,35,8|2|2|2|2|2|2,1:0|3:2|3:2|3:2|3:2|3:2|3:2,0:0:0:0:
252,186,324821,38,0,L|286:191,6,35,6|2|2|2|2|2|2,1:0|3:2|3:2|3:2|3:2|3:2|3:2,0:0:0:0:
111,96,325071,6,0,L|76:90,6,35,8|2|2|2|2|2|2,1:0|3:2|3:2|3:2|3:2|3:2|3:2,0:0:0:0:
183,145,325321,37,6,1:0:0:0:
183,145,325446,1,6,3:2:0:0:
58,240,325696,6,2,P|144:183|248:182,1,210,6|0,1:0|0:0,0:1:0:0:
323,166,325946,1,2,3:0:0:0:
321,206,326008,1,2,3:2:0:0:
355,225,326071,2,0,P|390:205|396:157,1,70,8|0,1:0|3:0,0:0:0:0:
225,116,326196,2,0,P|224:156|263:185,1,70,8|0,3:1|3:0,0:0:0:0:
410,98,326321,37,6,3:2:0:0:
242,330,326446,2,0,P|251:276|273:240,1,70,6|0,1:2|0:0,0:0:0:0:
407,185,326571,1,2,3:2:0:0:
407,185,326696,1,2,3:0:0:0:
174,195,326821,6,0,P|225:175|267:176,1,70,6|0,1:2|0:0,0:0:0:0:
349,238,326946,1,2,3:0:0:0:
270,101,327071,37,6,1:2:0:0:
289,96,327133,1,2,3:2:0:0:
298,81,327196,1,2,3:2:0:0:
296,67,327258,1,2,3:2:0:0:
286,59,327321,6,0,L|204:39,3,56,6|2|2|2,1:0|3:2|3:2|3:2,0:0:0:0:
356,5,327571,2,0,L|438:25,3,56,8|2|2|2,1:0|3:2|3:2|3:2,0:0:0:0:
202,135,327821,38,0,L|120:115,3,56,6|2|2|2,1:2|3:2|3:2|3:2,0:0:0:0:
370,106,328071,2,0,L|452:126,3,56,8|2|2|2,1:0|3:2|3:2|3:2,0:0:0:0:
271,194,328321,5,6,1:2:0:0:
243,216,328383,1,2,3:2:0:0:
230,249,328446,1,2,3:2:0:0:
225,284,328508,1,2,3:2:0:0:
233,318,328571,1,8,1:0:0:0:
371,240,328696,1,2,3:0:0:0:
206,131,328821,1,2,1:2:0:0:
367,103,328946,1,2,3:0:0:0:
249,40,329071,1,8,1:0:0:0:
311,283,329196,37,2,3:0:0:0:
311,283,329258,1,2,3:2:0:0:
311,283,329321,2,0,P|318:308|318:352,2,56,6|2|2,1:0|3:2|3:0,0:0:0:0:
371,240,329508,2,0,P|345:233|307:211,2,56,6|8|2,3:2|1:0|3:2,0:0:0:0:
378,313,329696,2,0,P|396:294|434:272,1,56,6|2,3:2|3:2,0:0:0:0:
505,218,329821,5,6,1:2:0:0:
512,205,329883,1,2,3:2:0:0:
511,190,329946,1,2,3:2:0:0:
502,177,330008,1,2,3:2:0:0:
488,173,330071,2,0,L|427:190,1,56,8|0,1:0|0:0,0:0:0:0:
178,67,330196,37,2,3:0:0:0:
153,42,330258,1,2,3:2:0:0:
174,13,330321,1,6,1:0:0:0:
311,96,330446,1,2,3:0:0:0:
112,111,330571,5,8,1:0:0:0:
362,18,330696,1,2,3:0:0:0:
66,3,330821,37,0,1:0:0:0:
206,177,330946,1,2,3:0:0:0:
365,21,331071,1,8,1:0:0:0:
207,40,331196,5,2,3:0:0:0:
207,40,331258,1,2,3:2:0:0:
207,40,331321,2,0,L|215:108,1,56,6|0,1:2|1:0,0:0:0:0:
241,319,331446,2,0,L|233:251,1,56,0|0,1:2|1:0,0:0:0:0:
378,161,331571,38,0,L|310:169,1,56,0|0,1:2|1:0,0:0:0:0:
58,198,331696,2,0,L|126:190,1,56,0|0,1:2|1:0,0:0:0:0:
221,186,331821,5,14,3:2:0:0:
213,360,332321,38,0,L|221:292,1,62.9999980773926,6|0,1:2|1:0,0:0:0:0:
250,18,332446,2,0,L|242:86,1,62.9999980773926,0|0,1:2|1:0,0:0:0:0:
418,212,332571,6,0,L|350:204,1,62.9999980773926,0|0,1:2|1:0,0:0:0:0:
20,164,332696,2,0,L|88:172,1,62.9999980773926,0|0,1:2|1:0,0:0:0:0:
224,189,332821,37,14,3:2:0:0:
114,88,333071,5,2,3:2:0:0:
112,80,333133,1,2,3:2:0:0:
110,72,333196,1,2,3:2:0:0:
108,65,333258,1,2,3:2:0:0:
106,57,333321,38,0,B|135:34|135:34|202:49,1,70,6|0,1:0|1:0,0:0:0:0:
319,110,333446,2,0,B|324:146|324:146|277:197,1,70,0|0,1:0|1:0,0:0:0:0:
166,267,333571,2,0,B|131:253|131:253|111:187,1,70,8|0,1:0|1:0,0:0:0:0:
238,0,333696,5,0,1:2:0:0:
238,0,333758,1,0,1:2:0:0:
238,0,333821,1,6,1:2:0:0:
242,31,333883,1,2,1:2:0:0:
247,66,333946,1,2,1:2:0:0:
221,92,334008,1,2,1:2:0:0:
191,116,334071,1,8,1:0:0:0:
199,157,334133,1,2,1:2:0:0:
213,196,334196,2,0,L|291:217,1,70,2|2,1:2|1:2,0:0:0:0:
398,196,334321,38,0,L|450:188,6,35,6|2|2|2|2|2|2,1:2|3:2|3:2|3:2|3:2|3:2|3:2,0:0:0:0:
209,200,334571,6,0,L|157:208,6,35,6|2|2|2|2|2|2,1:2|3:2|3:2|3:2|3:2|3:2|3:2,0:0:0:0:
315,246,334821,38,0,L|307:298,2,35,6|2|2,1:2|3:2|3:2,0:0:0:0:
301,170,334946,2,0,L|309:118,2,35,6|2|2,1:2|3:2|3:2,0:0:0:0:
338,318,335071,6,0,L|346:370,2,35,6|2|2,1:2|3:2|3:2,0:0:0:0:
274,98,335196,2,0,L|266:46,2,35,6|2|2,1:2|3:2|3:2,0:0:0:0:
395,199,335321,5,4,1:0:0:0:
113,164,336987,6,0,L|-6:187,1,93.3333333333333,8|0,1:0|0:0,0:0:0:0:
421,220,337154,2,0,L|540:197,1,93.3333333333333,8|0,1:0|0:0,0:0:0:0:
255,191,337321,1,8,1:0:0:0:
70,91,338321,38,0,L|90:0,1,93.3333333333333,8|0,1:0|0:0,0:0:0:0:
422,0,338487,2,0,L|445:110,1,93.3333333333333,8|0,1:0|0:0,0:0:0:0:
256,192,338654,6,0,L|256:180,1,9.33333333333333,14|0,1:0|0:0,0:0:0:0:
256,321,338904,37,0,1:0:0:0:
109,329,339321,5,8,1:0:0:0:
40,299,339404,1,0,1:0:0:0:
47,224,339487,1,0,1:0:0:0:
111,185,339571,1,8,1:0:0:0:
182,206,339654,1,0,1:0:0:0:
194,279,339737,1,0,1:0:0:0:
256,321,339821,1,8,1:0:0:0:
318,279,339905,1,0,1:0:0:0:
330,206,339988,1,0,1:0:0:0:
401,185,340071,1,8,1:0:0:0:
465,224,340155,1,0,1:0:0:0:
472,299,340238,1,0,1:0:0:0:
403,329,340321,38,0,L|390:269,4,32.6666656697591,8|0|0|0|0,1:0|1:0|1:0|1:0|1:0,0:0:0:0:
254,226,340571,5,8,1:0:0:0:
254,151,340654,1,0,1:0:0:0:
255,76,340737,1,0,1:0:0:0:
256,1,340821,2,0,L|308:16,4,32.6666656697591,8|0|0|0|0,1:0|1:0|1:0|1:0|1:0,0:0:0:0:
363,50,341071,2,0,L|390:100,4,32.6666656697591,8|0|0|0|0,1:0|1:0|1:0|1:0|1:0,0:0:0:0:
395,166,341321,37,8,1:0:0:0:
256,1,343321,6,0,L|201:16,4,32.6666656697591,8|0|0|0|0,1:0|1:0|1:0|1:0|1:0,0:0:0:0:
151,50,343571,2,0,L|124:97,4,32.6666656697591,8|0|0|0|0,1:0|1:0|1:0|1:0|1:0,0:0:0:0:
101,161,343821,37,8,1:0:0:0:
127,230,343904,1,0,1:0:0:0:
200,238,343987,2,0,L|208:207,2,32.6666656697591,0|0|8,1:0|1:0|1:0,0:0:0:0:
298,287,344154,2,0,L|322:262,2,32.6666656697591,0|0|0,1:0|1:0|1:0,0:0:0:0:
405,375,344321,6,0,L|351:386,4,32.6666656697591,8|0|0|0|0,1:0|1:0|1:0|1:0|1:0,0:0:0:0:
468,334,344571,1,8,1:0:0:0:
487,262,344654,1,0,1:0:0:0:
447,199,344737,1,0,1:0:0:0:
372,185,344821,2,0,L|360:139,2,32.6666656697591,8|0|0,1:0|1:0|1:0,0:0:0:0:
330,76,344987,1,0,1:0:0:0:
318,70,345071,2,0,L|266:79,2,32.6666656697591,8|0|0,1:0|1:0|1:0,0:0:0:0:
220,23,345237,38,0,L|213:-16,4,32.6666656697591,0|0|0|0|8,1:0|1:0|1:0|1:0|1:0,0:0:0:0:
39,384,346321,6,0,L|-4:293,1,93.3333333333333,8|0,1:0|0:0,0:0:0:0:
28,144,346487,2,0,L|1:46,1,93.3333333333333,8|0,1:0|0:0,0:0:0:0:
133,341,346654,2,0,L|123:240,1,93.3333333333333,8|0,1:0|0:0,0:0:0:0:
484,144,346987,2,0,L|510:46,1,93.3333333333333,8|0,1:0|0:0,0:0:0:0:
473,384,347321,38,0,L|497:331,1,46.6666666666667,12|0,1:0|0:0,0:0:0:0:
468,250,347571,1,0,1:0:0:0:
468,250,347821,1,0,1:0:0:0:
468,250,348071,1,0,1:0:0:0:
379,341,348321,6,0,L|388:240,1,60.6666638895672,12|0,1:0|0:0,0:0:0:0:
343,142,348571,1,0,1:0:0:0:
343,142,348821,1,0,1:0:0:0:
343,142,349071,1,0,1:0:0:0:
255,384,349321,38,0,L|255:286,1,74.6666666666667,12|0,1:0|0:0,0:0:0:0:
255,55,349571,1,0,1:0:0:0:
255,55,349821,1,0,1:0:0:0:
255,55,350071,1,0,1:0:0:0:
27,183,350321,6,0,L|144:195,2,93.3333333333333,12|0|0,1:0|1:0|1:0,0:0:0:0:
392,192,350571,2,0,L|485:183,2,93.3333333333333,8|0|0,1:0|1:0|1:0,0:0:0:0:
210,197,350821,38,0,L|200:263,2,46.6666666666667,12|0|0,1:0|1:0|1:0,0:0:0:0:
302,197,350946,2,0,L|312:263,2,46.6666666666667,8|0|0,1:0|1:0|1:0,0:0:0:0:
133,279,351071,6,0,L|142:332,2,46.6666666666667,8|0|0,1:0|1:0|1:0,0:0:0:0:
379,279,351196,2,0,L|370:332,2,46.6666666666667,8|0|0,1:0|1:0|1:0,0:0:0:0:
255,383,351321,38,0,L|255:325,1,58.3333333333333,14|8,0:2|0:0,0:0:0:0:
255,324,353771,1,8,0:0:0:0:
255,324,354971,1,8,0:0:0:0:
255,324,356171,1,8,0:0:0:0:
265,313,356671,1,8,0:0:0:0:
248,300,357071,1,8,0:0:0:0:
271,281,357371,1,8,0:0:0:0:
231,258,357571,1,8,0:0:0:0:
294,210,357721,1,8,0:0:0:0:
215,164,357871,2,0,L|185:144,1,31.4999990386963,8|8,0:0|0:0,0:0:0:0:
315,116,358021,2,0,L|342:94,1,31.4999990386963,8|8,0:0|0:0,0:0:0:0:
251,10,358171,6,8,L|251:-7,12,10.4999996795654
256,192,358521,12,0,360846,0:0:0:0:
255,4,360921,37,2,0:2:0:0:
349,28,362121,5,2,0:3:0:0:
418,97,363321,37,2,0:2:0:0:
432,207,364521,6,0,L|413:212,14,15.7499995193482,2|0|0|0|0|0|0|0|0|0|0|0|0|0|0,2:0|0:0|0:0|0:0|0:0|0:0|0:0|0:0|0:0|0:0|0:0|0:0|0:0|0:0|0:0,1:0:0:0:
340,191,365121,38,0,L|294:179,14,35,8|0|0|0|0|0|0|0|0|0|0|0|0|0|0,0:0|0:0|0:0|0:0|0:0|0:0|0:0|0:0|0:0|0:0|0:0|0:0|0:0|0:0|0:0,1:0:0:0:
265,109,365721,22,0,P|261:87|259:62,1,42,6|0,1:2|0:0,0:0:0:0:
301,267,366105,2,0,P|317:282|333:301,1,42,0|0,1:0|0:0,0:0:0:0:
171,158,366480,2,0,P|148:155|124:149,1,42,0|0,1:0|0:0,0:0:0:0:
349,168,366855,2,0,P|368:157|391:147,1,42,0|0,1:0|0:0,0:0:0:0:
190,266,367216,2,0,P|180:286|167:307,1,42,0|0,1:0|0:0,0:0:0:0:
261,89,367568,2,0,P|257:67|255:42,1,42,0|0,1:0|0:0,0:0:0:0:
321,291,367912,2,0,P|337:306|353:325,1,42,0|0,1:0|0:0,0:0:0:0:
156,148,368249,2,0,P|133:145|109:139,1,42,0|0,1:0|0:0,0:0:0:0:
353,149,368578,2,0,P|372:138|395:128,1,42,0|0,1:0|0:0,0:0:0:0:
393,133,368841,2,0,P|374:141|356:152,1,42,0|0,1:0|0:0,0:0:0:0:
180,281,369104,2,0,P|170:301|157:322,1,42,0|0,1:0|0:0,0:0:0:0:
155,317,369362,2,0,P|165:298|175:280,1,42,0|0,1:0|0:0,0:0:0:0:
264,72,369612,2,0,P|259:49|257:25,1,42,0|0,1:0|0:0,0:0:0:0:
261,27,369862,2,0,P|263:48|267:69,1,42,0|0,1:0|0:0,0:0:0:0:
301,267,370112,5,0,1:2:0:0:
171,158,370299,1,0,1:2:0:0:
349,168,370487,1,0,1:2:0:0:
190,266,370674,1,0,1:2:0:0:
261,89,370862,2,0,P|255:117|253:140,1,35,0|0,1:0|0:0,0:0:0:0:
315,325,370987,2,0,P|320:296|322:273,1,35,0|0,1:0|0:0,0:0:0:0:
168,155,371112,37,0,1:0:0:0:
134,88,371237,1,0,1:0:0:0:
56,92,371362,1,0,1:0:0:0:
35,163,371487,1,0,1:0:0:0:
78,229,371612,5,0,1:0:0:0:
133,227,371695,1,0,1:0:0:0:
149,185,371778,1,0,1:0:0:0:
116,150,371862,1,0,1:0:0:0:
116,95,371945,1,0,1:0:0:0:
159,63,372028,1,0,1:0:0:0:
208,73,372112,1,0,1:0:0:0:
215,118,372195,1,0,1:0:0:0:
258,145,372278,1,0,1:0:0:0:
305,130,372362,1,0,1:0:0:0:
315,82,372445,1,0,1:0:0:0:
288,37,372528,38,0,L|297:0,12,23.3333333333333,0|0|0|0|0|0|0|0|0|0|0|0|0,1:0|1:0|1:0|1:0|1:0|1:0|1:0|1:0|1:0|1:0|1:0|1:0|1:0,0:0:0:0:
234,221,373112,1,8,0:0:0:0:
73,271,374112,6,0,L|127:257,1,56,14|0,1:2|1:0,0:0:0:0:
384,204,374237,2,0,L|330:218,1,56,0|0,1:0|1:0,0:0:0:0:
28,215,374362,38,0,L|82:229,1,56,0|0,1:0|1:0,0:0:0:0:
425,266,374487,2,0,L|371:252,1,56,0|0,1:0|1:0,0:0:0:0:
221,200,374612,5,0,1:0:0:0:
225,210,374674,1,0,1:0:0:0:
236,209,374737,1,0,1:0:0:0:
238,198,374799,1,0,1:0:0:0:
228,192,374862,38,0,L|218:110,1,56,0|0,1:2|1:2,0:2:0:0:
241,292,374987,2,0,L|251:374,1,56,0|0,1:2|1:2,0:2:0:0:
463,196,375112,5,14,1:2:0:0:
489,157,375174,1,0,1:0:0:0:
512,115,375237,1,0,1:0:0:0:
479,81,375299,1,0,1:0:0:0:
441,55,375362,2,0,L|356:34,1,56,0|0,1:0|1:0,0:0:0:0:
325,214,375487,2,0,L|382:199,1,56,0|0,1:0|1:0,0:0:0:0:
310,6,375612,37,0,1:0:0:0:
288,37,375674,1,0,1:0:0:0:
271,70,375737,1,0,1:0:0:0:
297,97,375799,1,0,1:0:0:0:
326,123,375862,1,2,1:2:0:0:
279,148,375924,1,2,1:2:0:0:
233,170,375987,1,2,1:2:0:0:
182,193,376049,1,2,1:2:0:0:
178,188,376112,6,0,L|186:155,30,28,14|0|0|0|0|0|0|0|0|0|0|0|0|0|0|0|0|0|0|0|0|0|0|0|0|0|0|0|0|0|0,1:2|1:0|1:0|1:0|1:0|1:0|1:0|1:0|1:0|1:0|1:0|1:0|1:0|1:0|1:0|1:0|1:0|1:0|1:0|1:0|1:0|1:0|1:0|1:0|1:0|1:0|1:0|1:0|1:0|1:0|0:0,0:0:0:0:
119,353,377112,38,0,L|125:380,6,28,14|0|0|0|0|0|0,1:2|1:0|1:0|1:0|1:0|1:0|1:0,0:0:0:0:
158,287,377362,2,0,L|178:267,6,28,2|0|0|0|0|0|0,1:2|1:0|1:0|1:0|1:0|1:0|1:0,0:0:0:0:
82,286,377612,2,0,L|55:278,6,28,2|0|0|0|0|0|0,1:2|1:0|1:0|1:0|1:0|1:0|1:0,0:0:0:0:
174,189,377862,6,0,L|166:153,6,28,0|0|0|0|0|0|0,1:0|1:0|1:0|1:0|1:0|1:0|0:0,0:0:0:0:
318,289,378112,37,8,1:2:0:0:
367,234,378174,1,0,1:0:0:0:
332,165,378237,1,0,1:0:0:0:
254,174,378299,1,0,1:0:0:0:
57,63,378487,5,8,1:2:0:0:
0,111,378549,1,0,1:0:0:0:
24,181,378612,1,0,1:0:0:0:
100,198,378674,1,0,1:0:0:0:
386,111,378862,37,8,1:2:0:0:
367,40,378924,1,0,1:0:0:0:
294,28,378987,1,0,1:0:0:0:
245,88,379049,1,0,1:0:0:0:
0,287,379237,5,8,1:2:0:0:
30,358,379299,1,0,1:0:0:0:
106,355,379362,1,0,1:0:0:0:
142,289,379424,1,0,1:0:0:0:
188,160,379612,38,0,L|181:133,6,28,8|0|0|0|0|0|0,1:2|1:0|1:0|1:0|1:0|1:0|1:0,0:0:0:0:
225,227,379862,2,0,L|232:254,6,28,8|0|0|0|0|0|0,1:2|1:0|1:0|1:0|1:0|1:0|1:0,0:0:0:0:
248,85,380112,5,8,1:2:0:0:
320,104,380174,1,0,1:0:0:0:
392,124,380237,1,0,1:0:0:0:
464,145,380299,1,0,1:0:0:0:
249,335,380487,37,8,1:2:0:0:
175,314,380549,1,0,1:0:0:0:
104,292,380612,1,0,1:0:0:0:
32,272,380674,1,0,1:0:0:0:
317,107,380862,5,8,1:2:0:0:
335,181,380924,1,0,1:0:0:0:
353,254,380987,1,0,1:0:0:0:
367,328,381049,1,0,1:0:0:0:
107,289,381237,37,8,1:2:0:0:
88,218,381299,1,0,1:0:0:0:
68,147,381362,1,0,1:0:0:0:
50,73,381424,1,0,1:0:0:0:
251,82,381612,6,0,L|258:55,6,28,8|0|0|0|0|0|0,1:2|1:0|1:0|1:0|1:0|1:0|1:0,0:0:0:0:
200,262,381862,2,0,L|193:289,6,28,8|0|0|0|0|0|0,1:2|1:0|1:0|1:0|1:0|1:0|1:0,0:0:0:0:
170,183,382112,37,8,1:2:0:0:
210,171,382174,1,0,1:0:0:0:
250,159,382237,1,0,1:0:0:0:
289,149,382299,1,0,1:0:0:0:
326,137,382362,2,0,B|339:109|339:109|325:73,1,56,0|0,1:0|1:0,0:0:0:0:
186,19,382487,2,0,B|173:47|173:47|187:83,1,56,0|0,1:0|1:0,0:0:0:0:
280,229,382612,5,0,1:2:0:0:
331,241,382674,1,0,1:0:0:0:
383,254,382737,1,0,1:0:0:0:
432,265,382799,1,0,1:0:0:0:
478,276,382862,2,0,B|487:299|487:299|474:327,1,56,0|0,1:0|1:0,0:0:0:0:
228,384,382987,2,0,B|219:361|219:361|232:333,1,56,0|0,1:0|1:0,0:0:0:0:
408,174,383112,37,8,1:2:0:0:
408,174,383174,1,0,1:0:0:0:
408,174,383237,2,0,L|485:155,1,56,2|0,1:2|1:0,0:0:0:0:
202,234,383362,2,0,L|125:253,1,56,2|0,1:2|1:0,0:0:0:0:
322,323,383487,6,0,L|341:400,1,56,2|0,1:2|1:0,0:0:0:0:
269,129,383612,2,0,L|250:52,1,56,2|0,1:2|1:0,0:0:0:0:
301,223,383737,37,2,1:2:0:0:
301,223,383799,1,0,1:0:0:0:
301,223,383862,1,0,1:0:0:0:
348,241,383924,1,0,1:0:0:0:
403,261,383987,1,0,1:0:0:0:
455,278,384049,1,0,1:0:0:0:
460,284,384112,6,0,L|471:328,28,28,8|0|0|0|0|0|0|0|0|0|0|0|0|0|0|0|0|0|0|0|0|0|0|0|0|0|0|0|0,1:2|1:0|1:0|1:0|1:0|1:0|1:0|1:0|1:0|1:0|1:0|1:0|1:0|1:0|1:0|1:0|1:0|1:0|1:0|1:0|1:0|1:0|1:0|1:0|1:0|1:0|1:0|1:0|1:0,0:0:0:0:
356,146,385112,38,0,L|350:117,56,19.2500005874634,10|2|2|2|2|2|2|2|2|2|2|2|2|2|2|2|2|2|2|2|2|2|2|2|2|2|2|2|2|2|2|2|2|2|2|2|2|2|2|2|2|2|2|2|2|2|2|2|2|2|2|2|2|2|2|2|2,3:2|3:0|3:0|3:0|3:0|3:0|3:0|3:0|3:0|3:0|3:0|3:0|3:0|3:0|3:0|3:0|3:0|3:0|3:0|3:0|3:0|3:0|3:0|3:0|3:0|3:0|3:0|3:0|3:0|3:0|3:0|3:0|3:0|3:0|3:0|3:0|3:0|3:0|3:0|3:0|3:0|3:0|3:0|3:0|3:0|3:0|3:0|3:0|3:0|3:0|3:0|3:0|3:0|3:0|3:0|3:0|3:0,0:0:0:0:
463,316,386112,5,14,0:0:0:0:
