osu file format v14

[General]
AudioFilename: [line-].mp3
AudioLeadIn: 0
PreviewTime: 115941
Countdown: 1
SampleSet: Soft
StackLeniency: 0.7
Mode: 2
LetterboxInBreaks: 0
EpilepsyWarning: 1
WidescreenStoryboard: 1

[Editor]
DistanceSpacing: 1.2
BeatDivisor: 2
GridSize: 4
TimelineZoom: 2.899999

[Metadata]
Title:[line-epsilon]
TitleUnicode:[line:ε]
Artist:nitro
ArtistUnicode:nitro
Creator:sxy62146214
Version:Past
Source:BMS
Tags:BOFU2017 -LEGENDA EST A MYTH- Kurorak Chronologia #67 Dance Machine
BeatmapID:1559360
BeatmapSetID:734464

[Difficulty]
HPDrainRate:5
CircleSize:3.5
OverallDifficulty:7
ApproachRate:7
SliderMultiplier:1.15
SliderTickRate:1

[Events]
//Background and Video events
0,0,"Future_20171027230929.jpg",0,0
Video,0,"Future1.avi"
//Break Periods
//Storyboard Layer 0 (Background)
//Storyboard Layer 1 (Fail)
//Storyboard Layer 2 (Pass)
//Storyboard Layer 3 (Foreground)
//Storyboard Sound Samples

[TimingPoints]
1566,375,4,2,0,50,1,0
13566,-100,4,2,0,50,0,0
63066,-100,4,2,0,50,0,1
72066,-100,4,2,0,50,0,0
75066,-100,4,2,0,50,0,0
103566,-100,4,2,0,50,0,0
116316,-100,4,2,0,50,0,1
126816,-100,4,2,0,50,0,0
128316,-100,4,2,0,50,0,1
135816,-100,4,2,0,50,0,0
138816,-100,4,2,0,50,0,0

[Colours]
Combo1 : 0,128,192
Combo2 : 255,0,0
Combo3 : 255,255,0
Combo4 : 0,255,64

[HitObjects]
328,320,1566,6,0,P|400:276|432:164,1,172.5
256,196,2316,6,0,P|196:180|272:88,1,230
124,256,3441,6,0,P|88:184|84:140,1,115
256,168,4003,6,0,P|324:152|376:60,1,172.5
188,196,4941,6,0,P|144:140|136:84,1,115
192,104,5503,1,0,0:0:0:0:
300,104,5691,6,0,L|360:104,1,57.5
184,320,6066,6,0,P|112:276|92:200,1,115
256,196,6628,6,0,P|316:180|256:88,1,172.5
188,88,7378,1,0,0:0:0:0:
356,164,7566,6,0,P|424:144|464:96,1,115
256,192,8316,5,0,0:0:0:0:
120,192,8503,2,0,L|28:192,2,86.25
256,192,9441,6,0,L|224:128,1,57.5
352,132,9816,2,0,P|416:124|456:76,1,115
224,272,10566,6,0,P|176:228|168:168,1,115
332,204,11128,2,0,P|368:184|392:104,1,115
256,192,11878,5,0,0:0:0:0:
392,192,12065,2,0,L|484:192,2,86.25
48,192,13191,5,0,0:0:0:0:
268,192,13566,5,0,0:0:0:0:
464,192,13847,1,0,0:0:0:0:
304,192,14128,5,0,0:0:0:0:
244,192,14316,1,0,0:0:0:0:
48,192,14597,1,0,0:0:0:0:
208,192,14878,5,0,0:0:0:0:
268,192,15066,1,0,0:0:0:0:
464,192,15347,1,0,0:0:0:0:
256,192,15816,5,0,0:0:0:0:
304,192,16191,6,0,L|336:192,2,28.75
244,192,16566,5,0,0:0:0:0:
48,192,16847,1,0,0:0:0:0:
208,192,17128,5,0,0:0:0:0:
268,192,17316,1,0,0:0:0:0:
464,192,17597,1,0,0:0:0:0:
304,192,17878,5,0,0:0:0:0:
244,192,18066,1,0,0:0:0:0:
48,192,18347,2,0,P|24:128|68:72,1,143.75
256,80,19191,5,0,0:0:0:0:
392,76,19566,6,0,L|412:200,1,115
180,152,20316,6,0,L|164:288,1,115
396,292,21066,5,0,0:0:0:0:
452,236,21253,1,0,0:0:0:0:
452,156,21441,1,0,0:0:0:0:
372,156,21628,1,0,0:0:0:0:
268,160,21816,6,0,L|212:124,1,57.5
384,96,22191,1,0,0:0:0:0:
256,192,22566,12,0,24066,0:0:0:0:
256,224,24816,6,0,L|300:168,1,57.5
132,168,25191,6,0,P|96:132|140:100,1,115
256,192,25941,5,0,0:0:0:0:
372,192,26316,5,0,0:0:0:0:
140,192,26691,5,0,0:0:0:0:
372,192,27066,6,0,P|432:168|444:104,2,115
272,196,28003,1,0,0:0:0:0:
184,200,28191,5,0,0:0:0:0:
48,196,28566,1,0,0:0:0:0:
184,200,28941,1,0,0:0:0:0:
304,132,29316,2,0,L|344:84,1,57.5
200,180,29691,5,0,0:0:0:0:
96,104,30066,1,0,0:0:0:0:
252,40,30441,1,0,0:0:0:0:
400,128,30816,2,0,L|440:80,1,57.5
272,196,31191,6,0,B|215:196|215:196|284:196,1,115
396,172,31941,1,0,0:0:0:0:
260,168,32316,2,0,L|224:112,1,57.5
360,120,32691,2,0,L|364:56,1,57.5
232,64,33066,5,0,0:0:0:0:
96,68,33441,1,0,0:0:0:0:
232,64,33816,2,0,L|174:64,1,57.5
360,64,34191,5,0,0:0:0:0:
224,68,34566,1,0,0:0:0:0:
360,64,34941,2,0,L|424:64,1,57.5
232,56,35316,5,0,0:0:0:0:
104,92,35691,2,0,P|72:128|108:184,1,115
252,192,36441,5,0,0:0:0:0:
344,192,36816,2,0,L|401:192,1,57.5
208,196,37191,5,0,0:0:0:0:
84,192,37566,2,0,L|64:112,1,57.5
256,132,37941,2,0,P|316:108|388:52,1,115
188,192,39066,6,0,L|188:128,1,57.5
312,136,39441,2,0,L|352:88,1,57.5
172,80,39816,1,0,0:0:0:0:
328,80,40191,6,0,L|372:80,2,28.75
156,120,40566,6,0,L|124:68,1,57.5
228,116,40941,2,0,L|236:60,1,57.5
124,124,41316,2,0,L|100:68,1,57.5
280,64,41691,6,0,L|348:64,1,57.5
392,64,42066,5,0,0:0:0:0:
120,64,42441,1,0,0:0:0:0:
392,64,42816,6,0,L|400:196,1,115
272,216,43566,6,0,L|264:148,1,57.5
352,152,43941,2,0,L|404:120,1,57.5
352,64,44316,2,0,L|284:64,1,57.5
192,64,44691,6,0,L|148:64,2,28.75
364,60,45066,6,0,L|364:152,1,57.5
272,124,45441,6,0,L|232:124,2,28.75
192,268,45816,6,0,L|128:268,1,57.5
64,212,46191,2,0,L|64:144,1,57.5
136,104,46566,2,0,L|208:104,1,57.5
376,244,46941,6,0,L|400:116,1,115
164,128,47691,1,0,0:0:0:0:
164,108,48066,6,0,P|136:184|184:216,1,115
360,208,48816,6,0,P|380:164|360:120,1,86.25
352,100,49191,1,0,0:0:0:0:
164,76,49566,6,0,P|136:116|148:176,1,86.25
368,216,50128,2,0,P|396:176|360:84,1,143.75
344,68,50691,1,0,0:0:0:0:
144,76,51066,6,0,P|88:120|100:236,1,172.5
172,240,51816,6,0,L|252:240,1,57.5
160,204,52191,2,0,L|120:204,2,28.75
256,204,52566,6,0,L|288:128,1,57.5
288,116,52847,1,0,0:0:0:0:
456,108,53128,1,0,0:0:0:0:
476,176,53316,6,0,L|464:120,1,57.5
276,184,53691,1,0,0:0:0:0:
276,184,53878,1,0,0:0:0:0:
188,200,54066,6,0,L|116:200,1,57.5
224,132,54441,2,0,L|256:132,2,28.75
72,136,54816,6,0,P|48:180|240:276,1,345
368,180,56316,5,0,0:0:0:0:
144,180,56691,1,0,0:0:0:0:
260,192,57066,6,0,L|296:132,1,57.5
204,140,57441,2,0,L|180:84,1,57.5
320,84,57816,6,0,L|384:84,1,57.5
308,84,58191,2,0,L|252:84,2,28.75
168,88,58566,6,0,L|104:88,1,57.5
184,88,58847,2,0,P|210:109|196:167,1,86.25
44,176,59316,6,0,L|40:104,1,57.5
156,128,59691,2,0,L|152:64,1,57.5
268,68,60066,6,0,L|326:68,1,57.5
181,70,60441,2,0,L|153:70,2,28.75
300,76,60816,6,0,L|328:160,1,57.5
184,104,61191,6,0,L|176:172,1,57.5
324,180,61566,6,0,L|388:180,1,57.5
168,180,61941,6,0,L|88:180,1,57.5
180,180,62316,5,0,0:0:0:0:
376,180,62691,1,0,0:0:0:0:
92,244,63066,6,0,L|68:160,1,57.5
144,112,63441,2,0,L|216:112,1,57.5
400,264,63816,6,0,L|412:204,1,57.5
316,160,64191,2,0,L|284:96,1,57.5
108,104,64566,6,0,L|48:104,1,57.5
88,192,64941,2,0,L|160:192,1,57.5
312,200,65316,6,0,L|360:200,2,28.75
192,176,65691,2,0,L|168:108,1,57.5
336,124,66066,6,0,L|364:68,1,57.5
264,64,66441,2,0,L|196:64,1,57.5
60,108,66816,5,0,0:0:0:0:
40,172,67003,1,0,0:0:0:0:
64,236,67191,1,0,0:0:0:0:
124,268,67378,1,0,0:0:0:0:
