osu file format v14

[General]
AudioFilename: audio.mp3
AudioLeadIn: 0
PreviewTime: 97977
Countdown: 0
SampleSet: Soft
StackLeniency: 0.7
Mode: 3
LetterboxInBreaks: 0
SpecialStyle: 0
WidescreenStoryboard: 1

[Editor]
DistanceSpacing: 1.5
BeatDivisor: 7
GridSize: 4
TimelineZoom: 1.5

[Metadata]
Title:summersick
TitleUnicode:summersick
Artist:nitro (as "summersick")
ArtistUnicode:nitro (as "summersick")
Creator:_Deafen
Version:tiredness | normal
Source:THE BMS OF FIGHTERS EighTeen -Summer Dream Traveler-
Tags:feverdream feaver dream electronic instrumental breakcore idm bms bofet bof et bof:et time[line] timeline tech technical
BeatmapID:4064172
BeatmapSetID:1959431

[Difficulty]
HPDrainRate:7
CircleSize:4
OverallDifficulty:7
ApproachRate:5
SliderMultiplier:1.4
SliderTickRate:1

[Events]
//Background and Video events
0,0,"bg.jpg",0,0
//Break Periods
2,90177,95177
//Storyboard Layer 0 (Background)
//Storyboard Layer 1 (Fail)
//Storyboard Layer 2 (Pass)
//Storyboard Layer 3 (Foreground)
//Storyboard Layer 4 (Overlay)
//Storyboard Sound Samples

[TimingPoints]
1977,400,5,2,1,35,1,0

[HitObjects]
320,192,1977,128,0,3977:0:0:0:0:
64,192,4577,1,0,0:0:0:0:
448,192,5148,1,0,0:0:0:0:
320,192,5577,1,0,0:0:0:0:
192,192,5977,128,0,7977:0:0:0:0:
192,192,8577,1,0,0:0:0:0:
320,192,9148,1,0,0:0:0:0:
64,192,9577,1,0,0:0:0:0:
448,192,9977,128,0,11977:0:0:0:0:
64,192,12577,1,0,0:0:0:0:
320,192,13148,1,0,0:0:0:0:
448,192,13577,1,0,0:0:0:0:
192,192,13977,128,0,15977:0:0:0:0:
192,192,17577,1,0,0:0:0:0:
320,192,17977,128,0,18577:0:0:0:0:
448,192,17977,1,0,0:0:0:0:
192,192,18719,1,0,0:0:0:0:
64,192,18719,1,0,0:0:0:0:
320,192,19005,1,0,0:0:0:0:
448,192,19005,1,0,0:0:0:0:
192,192,19710,1,0,0:0:0:0:
64,192,19977,1,0,0:0:0:0:
448,192,19977,1,0,0:0:0:0:
320,192,20577,1,0,0:0:0:0:
448,192,20577,1,0,0:0:0:0:
448,192,21005,1,0,0:0:0:0:
64,192,21005,1,0,0:0:0:0:
320,192,21291,1,0,0:0:0:0:
192,192,21291,1,0,0:0:0:0:
64,192,21577,1,0,0:0:0:0:
448,192,21577,1,0,0:0:0:0:
192,192,21977,128,0,22577:0:0:0:0:
64,192,21977,1,0,0:0:0:0:
320,192,22719,1,0,0:0:0:0:
448,192,22719,1,0,0:0:0:0:
192,192,23005,1,0,0:0:0:0:
64,192,23005,1,0,0:0:0:0:
320,192,23710,1,0,0:0:0:0:
64,192,23977,1,0,0:0:0:0:
448,192,23977,1,0,0:0:0:0:
192,192,24217,1,0,0:0:0:0:
320,192,24457,1,0,0:0:0:0:
192,192,24577,1,0,0:0:0:0:
64,192,24577,1,0,0:0:0:0:
320,192,24862,1,0,0:0:0:0:
448,192,24862,1,0,0:0:0:0:
192,192,25005,1,0,0:0:0:0:
64,192,25005,1,0,0:0:0:0:
320,192,25291,1,0,0:0:0:0:
448,192,25291,1,0,0:0:0:0:
192,192,25577,1,0,0:0:0:0:
448,192,25977,128,0,26577:0:0:0:0:
64,192,25977,1,0,0:0:0:0:
192,192,26719,1,0,0:0:0:0:
64,192,26719,1,0,0:0:0:0:
320,192,27005,1,0,0:0:0:0:
448,192,27005,1,0,0:0:0:0:
64,192,27710,1,0,0:0:0:0:
320,192,27977,1,0,0:0:0:0:
192,192,27977,1,0,0:0:0:0:
448,192,28577,128,0,29005:0:0:0:0:
320,192,28577,1,0,0:0:0:0:
192,192,29005,1,0,0:0:0:0:
64,192,29005,1,0,0:0:0:0:
320,192,29291,1,0,0:0:0:0:
448,192,29291,1,0,0:0:0:0:
64,192,29577,1,0,0:0:0:0:
192,192,29577,1,0,0:0:0:0:
320,192,29777,1,0,0:0:0:0:
64,192,29977,128,0,30577:0:0:0:0:
448,192,29977,1,0,0:0:0:0:
320,192,30719,1,0,0:0:0:0:
448,192,30719,1,0,0:0:0:0:
192,192,31005,1,0,0:0:0:0:
64,192,31005,1,0,0:0:0:0:
320,192,31710,1,0,0:0:0:0:
192,192,31977,1,0,0:0:0:0:
64,192,31977,1,0,0:0:0:0:
448,192,32217,1,0,0:0:0:0:
192,192,32457,1,0,0:0:0:0:
320,192,32577,1,0,0:0:0:0:
448,192,32577,1,0,0:0:0:0:
192,192,32862,1,0,0:0:0:0:
64,192,32862,1,0,0:0:0:0:
320,192,33005,1,0,0:0:0:0:
448,192,33005,1,0,0:0:0:0:
64,192,33291,1,0,0:0:0:0:
448,192,33291,1,0,0:0:0:0:
320,192,33577,1,0,0:0:0:0:
192,192,33577,1,0,0:0:0:0:
448,192,33777,1,0,0:0:0:0:
64,192,33977,128,0,34577:0:0:0:0:
192,192,33977,1,0,0:0:0:0:
448,192,34577,1,0,0:0:0:0:
320,192,34719,1,0,0:0:0:0:
192,192,34862,1,0,0:0:0:0:
64,192,35005,1,0,0:0:0:0:
448,192,35005,1,0,0:0:0:0:
64,192,35434,1,0,0:0:0:0:
192,192,35577,1,0,0:0:0:0:
320,192,35710,1,0,0:0:0:0:
448,192,35843,1,0,0:0:0:0:
192,192,35977,1,0,0:0:0:0:
64,192,35977,1,0,0:0:0:0:
320,192,36217,1,0,0:0:0:0:
448,192,36217,1,0,0:0:0:0:
64,192,36577,1,0,0:0:0:0:
192,192,36577,1,0,0:0:0:0:
320,192,36862,1,0,0:0:0:0:
448,192,37005,1,0,0:0:0:0:
64,192,37005,1,0,0:0:0:0:
320,192,37291,1,0,0:0:0:0:
192,192,37291,1,0,0:0:0:0:
64,192,37577,1,0,0:0:0:0:
448,192,37577,1,0,0:0:0:0:
192,192,37977,1,0,0:0:0:0:
320,192,37977,1,0,0:0:0:0:
192,192,38719,1,0,0:0:0:0:
64,192,38719,1,0,0:0:0:0:
320,192,38862,1,0,0:0:0:0:
448,192,39005,1,0,0:0:0:0:
64,192,39005,1,0,0:0:0:0:
192,192,39362,1,0,0:0:0:0:
320,192,39577,1,0,0:0:0:0:
192,192,39710,1,0,0:0:0:0:
64,192,39843,1,0,0:0:0:0:
320,192,39977,1,0,0:0:0:0:
448,192,39977,1,0,0:0:0:0:
448,192,40337,1,0,0:0:0:0:
64,192,40337,1,0,0:0:0:0:
192,192,40577,1,0,0:0:0:0:
320,192,40577,1,0,0:0:0:0:
64,192,40862,1,0,0:0:0:0:
192,192,40862,1,0,0:0:0:0:
320,192,41005,1,0,0:0:0:0:
448,192,41005,1,0,0:0:0:0:
64,192,41148,1,0,0:0:0:0:
192,192,41291,1,0,0:0:0:0:
320,192,41434,1,0,0:0:0:0:
192,192,41577,128,0,41977:0:0:0:0:
448,192,41977,1,0,0:0:0:0:
320,192,41977,128,0,42457:0:0:0:0:
192,192,42457,1,0,0:0:0:0:
64,192,42457,1,0,0:0:0:0:
320,192,42577,1,0,0:0:0:0:
448,192,42719,1,0,0:0:0:0:
64,192,42719,1,0,0:0:0:0:
320,192,43005,1,0,0:0:0:0:
448,192,43005,1,0,0:0:0:0:
192,192,43434,1,0,0:0:0:0:
320,192,43577,1,0,0:0:0:0:
448,192,43710,128,0,43977:0:0:0:0:
64,192,43977,1,0,0:0:0:0:
192,192,43977,1,0,0:0:0:0:
320,192,44217,1,0,0:0:0:0:
448,192,44217,1,0,0:0:0:0:
192,192,44337,1,0,0:0:0:0:
448,192,44457,1,0,0:0:0:0:
64,192,44457,1,0,0:0:0:0:
320,192,44577,1,0,0:0:0:0:
64,192,44862,1,0,0:0:0:0:
448,192,45005,1,0,0:0:0:0:
192,192,45005,1,0,0:0:0:0:
320,192,45291,1,0,0:0:0:0:
448,192,45291,1,0,0:0:0:0:
64,192,45577,1,0,0:0:0:0:
192,192,45577,1,0,0:0:0:0:
320,192,45777,1,0,0:0:0:0:
448,192,45977,128,0,46577:0:0:0:0:
64,192,45977,1,0,0:0:0:0:
448,192,49977,1,0,0:0:0:0:
64,192,49977,128,0,50577:0:0:0:0:
320,192,50577,1,0,0:0:0:0:
448,192,50577,1,0,0:0:0:0:
192,192,51005,1,0,0:0:0:0:
64,192,51005,1,0,0:0:0:0:
320,192,51291,1,0,0:0:0:0:
192,192,51577,1,0,0:0:0:0:
448,192,51577,1,0,0:0:0:0:
320,192,51977,1,0,0:0:0:0:
64,192,51977,1,0,0:0:0:0:
192,192,52337,1,0,0:0:0:0:
448,192,52577,1,0,0:0:0:0:
320,192,52577,1,0,0:0:0:0:
64,192,52777,1,0,0:0:0:0:
192,192,52777,1,0,0:0:0:0:
320,192,52891,1,0,0:0:0:0:
448,192,52891,1,0,0:0:0:0:
192,192,53148,1,0,0:0:0:0:
64,192,53262,128,0,53434:0:0:0:0:
320,192,53434,1,0,0:0:0:0:
448,192,53434,1,0,0:0:0:0:
64,192,53577,1,0,0:0:0:0:
192,192,53777,1,0,0:0:0:0:
448,192,53977,1,0,0:0:0:0:
320,192,53977,1,0,0:0:0:0:
192,192,54337,1,0,0:0:0:0:
64,192,54577,1,0,0:0:0:0:
448,192,54577,1,0,0:0:0:0:
320,192,55005,1,0,0:0:0:0:
192,192,55005,1,0,0:0:0:0:
448,192,55291,1,0,0:0:0:0:
64,192,55577,1,0,0:0:0:0:
192,192,55577,1,0,0:0:0:0:
320,192,55843,1,0,0:0:0:0:
448,192,56217,1,0,0:0:0:0:
64,192,56217,1,0,0:0:0:0:
192,192,56457,1,0,0:0:0:0:
320,192,56577,1,0,0:0:0:0:
448,192,56719,1,0,0:0:0:0:
64,192,56719,1,0,0:0:0:0:
192,192,56862,1,0,0:0:0:0:
320,192,57291,1,0,0:0:0:0:
192,192,57434,1,0,0:0:0:0:
448,192,57577,128,0,57977:0:0:0:0:
64,192,57577,1,0,0:0:0:0:
192,192,57977,1,0,0:0:0:0:
64,192,57977,128,0,58457:0:0:0:0:
320,192,58457,1,0,0:0:0:0:
448,192,58457,1,0,0:0:0:0:
64,192,58577,1,0,0:0:0:0:
192,192,58577,1,0,0:0:0:0:
320,192,58862,1,0,0:0:0:0:
448,192,59005,1,0,0:0:0:0:
64,192,59005,1,0,0:0:0:0:
320,192,59291,1,0,0:0:0:0:
192,192,59448,1,0,0:0:0:0:
64,192,59577,1,0,0:0:0:0:
448,192,59577,1,0,0:0:0:0:
320,192,59777,1,0,0:0:0:0:
64,192,59977,1,0,0:0:0:0:
192,192,59977,1,0,0:0:0:0:
320,192,60217,1,0,0:0:0:0:
448,192,60457,1,0,0:0:0:0:
64,192,60577,1,0,0:0:0:0:
192,192,60577,1,0,0:0:0:0:
320,192,60777,1,0,0:0:0:0:
64,192,60891,1,0,0:0:0:0:
192,192,60891,1,0,0:0:0:0:
448,192,61005,1,0,0:0:0:0:
320,192,61148,1,0,0:0:0:0:
192,192,61291,1,0,0:0:0:0:
64,192,61434,1,0,0:0:0:0:
448,192,61434,1,0,0:0:0:0:
320,192,61577,1,0,0:0:0:0:
192,192,61843,1,0,0:0:0:0:
448,192,61977,128,0,62457:0:0:0:0:
64,192,61977,1,0,0:0:0:0:
192,192,62457,1,0,0:0:0:0:
64,192,62457,1,0,0:0:0:0:
320,192,62577,1,0,0:0:0:0:
448,192,62577,1,0,0:0:0:0:
192,192,62862,1,0,0:0:0:0:
448,192,63005,1,0,0:0:0:0:
64,192,63005,1,0,0:0:0:0:
192,192,63291,1,0,0:0:0:0:
320,192,63434,1,0,0:0:0:0:
448,192,63577,1,0,0:0:0:0:
64,192,63577,128,0,63977:0:0:0:0:
320,192,63843,1,0,0:0:0:0:
192,192,64217,1,0,0:0:0:0:
64,192,64217,1,0,0:0:0:0:
448,192,64457,1,0,0:0:0:0:
320,192,64577,1,0,0:0:0:0:
192,192,64719,1,0,0:0:0:0:
64,192,64719,1,0,0:0:0:0:
320,192,64862,1,0,0:0:0:0:
448,192,65005,1,0,0:0:0:0:
192,192,65148,1,0,0:0:0:0:
320,192,65291,1,0,0:0:0:0:
64,192,65434,1,0,0:0:0:0:
448,192,65577,128,0,65977:0:0:0:0:
192,192,65577,1,0,0:0:0:0:
320,192,65777,1,0,0:0:0:0:
192,192,65977,1,0,0:0:0:0:
64,192,65977,128,0,66577:0:0:0:0:
320,192,66577,1,0,0:0:0:0:
448,192,66577,1,0,0:0:0:0:
192,192,66862,1,0,0:0:0:0:
448,192,67148,1,0,0:0:0:0:
64,192,67148,1,0,0:0:0:0:
192,192,67291,1,0,0:0:0:0:
320,192,67291,1,0,0:0:0:0:
64,192,67577,1,0,0:0:0:0:
448,192,67577,1,0,0:0:0:0:
192,192,67843,1,0,0:0:0:0:
448,192,67977,1,0,0:0:0:0:
320,192,67977,1,0,0:0:0:0:
192,192,68217,1,0,0:0:0:0:
64,192,68337,1,0,0:0:0:0:
448,192,68577,1,0,0:0:0:0:
320,192,68577,1,0,0:0:0:0:
64,192,68777,1,0,0:0:0:0:
192,192,68777,1,0,0:0:0:0:
320,192,68891,1,0,0:0:0:0:
448,192,68891,1,0,0:0:0:0:
192,192,69148,1,0,0:0:0:0:
64,192,69291,1,0,0:0:0:0:
320,192,69434,1,0,0:0:0:0:
448,192,69434,1,0,0:0:0:0:
64,192,69577,1,0,0:0:0:0:
192,192,69777,1,0,0:0:0:0:
448,192,69977,1,0,0:0:0:0:
320,192,69977,1,0,0:0:0:0:
64,192,70217,1,0,0:0:0:0:
448,192,70337,1,0,0:0:0:0:
192,192,70577,1,0,0:0:0:0:
320,192,70577,1,0,0:0:0:0:
64,192,70862,1,0,0:0:0:0:
192,192,71077,1,0,0:0:0:0:
320,192,71177,1,0,0:0:0:0:
192,192,71377,1,0,0:0:0:0:
448,192,71577,1,0,0:0:0:0:
64,192,71577,1,0,0:0:0:0:
320,192,71843,1,0,0:0:0:0:
64,192,72217,1,0,0:0:0:0:
192,192,72217,1,0,0:0:0:0:
320,192,72457,1,0,0:0:0:0:
448,192,72457,1,0,0:0:0:0:
64,192,72577,1,0,0:0:0:0:
192,192,72719,1,0,0:0:0:0:
320,192,72862,1,0,0:0:0:0:
320,192,73291,1,0,0:0:0:0:
192,192,73434,1,0,0:0:0:0:
448,192,73577,128,0,73977:0:0:0:0:
64,192,73577,1,0,0:0:0:0:
192,192,73977,1,0,0:0:0:0:
64,192,73977,128,0,74457:0:0:0:0:
320,192,74457,1,0,0:0:0:0:
448,192,74457,1,0,0:0:0:0:
64,192,74577,1,0,0:0:0:0:
192,192,74577,1,0,0:0:0:0:
320,192,74862,1,0,0:0:0:0:
448,192,75005,1,0,0:0:0:0:
64,192,75005,1,0,0:0:0:0:
320,192,75362,1,0,0:0:0:0:
192,192,75505,1,0,0:0:0:0:
64,192,75577,1,0,0:0:0:0:
448,192,75577,1,0,0:0:0:0:
320,192,75777,1,0,0:0:0:0:
64,192,75977,1,0,0:0:0:0:
192,192,75977,1,0,0:0:0:0:
320,192,76177,1,0,0:0:0:0:
448,192,76377,1,0,0:0:0:0:
64,192,76577,1,0,0:0:0:0:
192,192,76577,1,0,0:0:0:0:
448,192,76719,1,0,0:0:0:0:
320,192,76862,1,0,0:0:0:0:
192,192,76862,1,0,0:0:0:0:
64,192,77005,1,0,0:0:0:0:
448,192,77148,1,0,0:0:0:0:
320,192,77148,1,0,0:0:0:0:
192,192,77291,1,0,0:0:0:0:
64,192,77434,1,0,0:0:0:0:
448,192,77434,1,0,0:0:0:0:
320,192,77577,1,0,0:0:0:0:
192,192,77843,1,0,0:0:0:0:
448,192,77977,128,0,78443:0:0:0:0:
64,192,77977,1,0,0:0:0:0:
64,192,78443,1,0,0:0:0:0:
192,192,78443,1,0,0:0:0:0:
320,192,78577,1,0,0:0:0:0:
448,192,78577,1,0,0:0:0:0:
192,192,78862,1,0,0:0:0:0:
64,192,79005,1,0,0:0:0:0:
448,192,79005,1,0,0:0:0:0:
320,192,79177,1,0,0:0:0:0:
192,192,79377,1,0,0:0:0:0:
448,192,79577,1,0,0:0:0:0:
64,192,79577,128,0,79977:0:0:0:0:
320,192,79843,1,0,0:0:0:0:
192,192,80217,1,0,0:0:0:0:
64,192,80217,1,0,0:0:0:0:
448,192,80457,1,0,0:0:0:0:
320,192,80457,1,0,0:0:0:0:
192,192,80577,1,0,0:0:0:0:
64,192,80719,1,0,0:0:0:0:
320,192,80862,1,0,0:0:0:0:
448,192,81005,1,0,0:0:0:0:
192,192,81148,1,0,0:0:0:0:
320,192,81291,1,0,0:0:0:0:
64,192,81434,1,0,0:0:0:0:
448,192,81577,1,0,0:0:0:0:
192,192,81577,1,0,0:0:0:0:
320,192,81777,1,0,0:0:0:0:
64,192,81977,128,0,82577:0:0:0:0:
192,192,81977,1,0,0:0:0:0:
192,192,83577,1,0,0:0:0:0:
448,192,83977,1,0,0:0:0:0:
64,192,85977,1,0,0:0:0:0:
192,192,87577,1,0,0:0:0:0:
448,192,87977,1,0,0:0:0:0:
64,192,89977,1,0,0:0:0:0:
448,192,96434,132,0,97577:0:0:0:0:
192,192,97577,1,0,0:0:0:0:
64,192,97977,1,0,0:0:0:0:
448,192,97977,128,0,98217:0:0:0:0:
320,192,98217,1,0,0:0:0:0:
192,192,98337,1,0,0:0:0:0:
64,192,98337,128,0,98719:0:0:0:0:
448,192,98719,1,0,0:0:0:0:
320,192,98862,128,0,99577:0:0:0:0:
192,192,98862,1,0,0:0:0:0:
64,192,99577,1,0,0:0:0:0:
320,192,99710,1,0,0:0:0:0:
192,192,99843,1,0,0:0:0:0:
64,192,99977,1,0,0:0:0:0:
448,192,99977,128,0,100217:0:0:0:0:
64,192,100217,1,0,0:0:0:0:
320,192,100337,1,0,0:0:0:0:
192,192,100337,128,0,100719:0:0:0:0:
320,192,100719,1,0,0:0:0:0:
448,192,100719,1,0,0:0:0:0:
192,192,100862,1,0,0:0:0:0:
64,192,100862,128,0,101291:0:0:0:0:
320,192,101291,1,0,0:0:0:0:
192,192,101405,1,0,0:0:0:0:
64,192,101519,1,0,0:0:0:0:
320,192,101777,1,0,0:0:0:0:
448,192,101777,1,0,0:0:0:0:
192,192,101877,1,0,0:0:0:0:
64,192,101977,1,0,0:0:0:0:
448,192,101977,128,0,102457:0:0:0:0:
192,192,102457,1,0,0:0:0:0:
64,192,102457,1,0,0:0:0:0:
192,192,102719,1,0,0:0:0:0:
64,192,102719,128,0,103577:0:0:0:0:
448,192,103217,1,0,0:0:0:0:
320,192,103362,1,0,0:0:0:0:
192,192,103577,128,0,103843:0:0:0:0:
320,192,103977,128,0,104862:0:0:0:0:
448,192,103977,1,0,0:0:0:0:
448,192,104337,1,0,0:0:0:0:
192,192,104457,1,0,0:0:0:0:
64,192,104457,1,0,0:0:0:0:
192,192,104862,1,0,0:0:0:0:
64,192,104862,1,0,0:0:0:0:
448,192,105148,1,0,0:0:0:0:
64,192,105148,1,0,0:0:0:0:
192,192,105291,1,0,0:0:0:0:
320,192,105291,1,0,0:0:0:0:
448,192,105462,1,0,0:0:0:0:
192,192,105577,1,0,0:0:0:0:
64,192,105577,1,0,0:0:0:0:
320,192,105843,1,0,0:0:0:0:
448,192,105843,1,0,0:0:0:0:
64,192,105977,1,0,0:0:0:0:
192,192,105977,128,0,106217:0:0:0:0:
320,192,106217,1,0,0:0:0:0:
192,192,106337,1,0,0:0:0:0:
64,192,106337,128,0,106719:0:0:0:0:
448,192,106457,1,0,0:0:0:0:
192,192,106719,1,0,0:0:0:0:
448,192,106862,1,0,0:0:0:0:
320,192,106862,128,0,107577:0:0:0:0:
64,192,107177,1,0,0:0:0:0:
192,192,107177,1,0,0:0:0:0:
448,192,107377,1,0,0:0:0:0:
64,192,107577,1,0,0:0:0:0:
192,192,107577,1,0,0:0:0:0:
320,192,107777,1,0,0:0:0:0:
192,192,107977,1,0,0:0:0:0:
448,192,107977,128,0,108337:0:0:0:0:
64,192,108217,1,0,0:0:0:0:
320,192,108337,1,0,0:0:0:0:
192,192,108337,128,0,108719:0:0:0:0:
320,192,108719,1,0,0:0:0:0:
448,192,108719,1,0,0:0:0:0:
192,192,108862,1,0,0:0:0:0:
64,192,108862,128,0,109148:0:0:0:0:
448,192,109148,1,0,0:0:0:0:
320,192,109262,1,0,0:0:0:0:
192,192,109377,1,0,0:0:0:0:
448,192,109502,1,0,0:0:0:0:
64,192,109502,1,0,0:0:0:0:
320,192,109677,1,0,0:0:0:0:
192,192,109877,1,0,0:0:0:0:
320,192,109977,1,0,0:0:0:0:
448,192,109977,128,0,110457:0:0:0:0:
192,192,110457,1,0,0:0:0:0:
64,192,110457,1,0,0:0:0:0:
320,192,110577,1,0,0:0:0:0:
192,192,110719,1,0,0:0:0:0:
64,192,110719,128,0,111177:0:0:0:0:
192,192,111177,1,0,0:0:0:0:
448,192,111177,1,0,0:0:0:0:
320,192,111291,1,0,0:0:0:0:
192,192,111434,1,0,0:0:0:0:
64,192,111434,1,0,0:0:0:0:
448,192,111577,1,0,0:0:0:0:
320,192,111777,1,0,0:0:0:0:
192,192,111877,1,0,0:0:0:0:
64,192,111977,1,0,0:0:0:0:
448,192,111977,1,0,0:0:0:0:
320,192,112097,1,0,0:0:0:0:
192,192,112217,1,0,0:0:0:0:
448,192,112337,1,0,0:0:0:0:
64,192,112337,1,0,0:0:0:0:
192,192,112577,1,0,0:0:0:0:
64,192,112719,1,0,0:0:0:0:
320,192,112719,1,0,0:0:0:0:
448,192,112862,1,0,0:0:0:0:
192,192,113005,1,0,0:0:0:0:
320,192,113119,1,0,0:0:0:0:
448,192,113234,1,0,0:0:0:0:
192,192,113291,1,0,0:0:0:0:
64,192,113291,1,0,0:0:0:0:
320,192,113434,1,0,0:0:0:0:
448,192,113434,1,0,0:0:0:0:
64,192,113577,1,0,0:0:0:0:
320,192,113710,1,0,0:0:0:0:
192,192,113843,1,0,0:0:0:0:
64,192,113977,1,0,0:0:0:0:
448,192,113977,128,0,114217:0:0:0:0:
320,192,114217,1,0,0:0:0:0:
192,192,114337,1,0,0:0:0:0:
64,192,114337,128,0,114717:0:0:0:0:
448,192,114717,1,0,0:0:0:0:
192,192,114862,1,0,0:0:0:0:
320,192,114862,128,0,115577:0:0:0:0:
64,192,115291,1,0,0:0:0:0:
192,192,115434,1,0,0:0:0:0:
64,192,115577,1,0,0:0:0:0:
448,192,115577,1,0,0:0:0:0:
320,192,115710,1,0,0:0:0:0:
192,192,115843,1,0,0:0:0:0:
64,192,115977,1,0,0:0:0:0:
448,192,115977,128,0,116217:0:0:0:0:
64,192,116217,1,0,0:0:0:0:
320,192,116337,1,0,0:0:0:0:
192,192,116337,128,0,116748:0:0:0:0:
320,192,116748,1,0,0:0:0:0:
448,192,116748,1,0,0:0:0:0:
192,192,116862,1,0,0:0:0:0:
64,192,116862,128,0,117177:0:0:0:0:
448,192,117177,1,0,0:0:0:0:
192,192,117177,1,0,0:0:0:0:
320,192,117291,1,0,0:0:0:0:
192,192,117434,1,0,0:0:0:0:
64,192,117434,1,0,0:0:0:0:
448,192,117577,1,0,0:0:0:0:
192,192,117710,1,0,0:0:0:0:
320,192,117843,1,0,0:0:0:0:
64,192,117977,1,0,0:0:0:0:
448,192,117977,128,0,118457:0:0:0:0:
64,192,118457,1,0,0:0:0:0:
192,192,118457,1,0,0:0:0:0:
320,192,118591,1,0,0:0:0:0:
448,192,118591,1,0,0:0:0:0:
64,192,118719,128,0,119005:0:0:0:0:
192,192,118719,1,0,0:0:0:0:
320,192,119005,1,0,0:0:0:0:
64,192,119177,1,0,0:0:0:0:
448,192,119177,1,0,0:0:0:0:
192,192,119377,1,0,0:0:0:0:
320,192,119577,1,0,0:0:0:0:
448,192,119577,1,0,0:0:0:0:
192,192,119710,1,0,0:0:0:0:
64,192,119843,1,0,0:0:0:0:
320,192,119977,128,0,120577:0:0:0:0:
448,192,119977,1,0,0:0:0:0:
192,192,120217,1,0,0:0:0:0:
448,192,120457,1,0,0:0:0:0:
64,192,120577,1,0,0:0:0:0:
192,192,120577,1,0,0:0:0:0:
320,192,120862,1,0,0:0:0:0:
448,192,121005,1,0,0:0:0:0:
64,192,121148,1,0,0:0:0:0:
192,192,121291,1,0,0:0:0:0:
448,192,121434,1,0,0:0:0:0:
192,192,121634,1,0,0:0:0:0:
320,192,121843,128,0,121977:0:0:0:0:
64,192,121977,1,0,0:0:0:0:
448,192,121977,128,0,122217:0:0:0:0:
320,192,122217,1,0,0:0:0:0:
64,192,122337,128,0,122719:0:0:0:0:
192,192,122337,1,0,0:0:0:0:
320,192,122719,1,0,0:0:0:0:
448,192,122719,1,0,0:0:0:0:
64,192,122862,1,0,0:0:0:0:
192,192,122862,128,0,123148:0:0:0:0:
448,192,123148,1,0,0:0:0:0:
320,192,123291,128,0,123577:0:0:0:0:
64,192,123291,1,0,0:0:0:0:
192,192,123577,1,0,0:0:0:0:
64,192,123677,1,0,0:0:0:0:
320,192,123777,1,0,0:0:0:0:
192,192,123877,1,0,0:0:0:0:
64,192,123977,1,0,0:0:0:0:
448,192,123977,128,0,124217:0:0:0:0:
64,192,124217,1,0,0:0:0:0:
320,192,124337,1,0,0:0:0:0:
192,192,124337,128,0,124719:0:0:0:0:
320,192,124719,1,0,0:0:0:0:
448,192,124719,1,0,0:0:0:0:
192,192,124862,1,0,0:0:0:0:
64,192,124862,128,0,125177:0:0:0:0:
320,192,125177,1,0,0:0:0:0:
448,192,125177,1,0,0:0:0:0:
192,192,125434,1,0,0:0:0:0:
320,192,125577,1,0,0:0:0:0:
448,192,125577,1,0,0:0:0:0:
64,192,125710,1,0,0:0:0:0:
192,192,125843,1,0,0:0:0:0:
320,192,125977,1,0,0:0:0:0:
448,192,125977,128,0,126457:0:0:0:0:
192,192,126457,1,0,0:0:0:0:
320,192,126457,1,0,0:0:0:0:
192,192,126719,1,0,0:0:0:0:
64,192,126719,128,0,127291:0:0:0:0:
192,192,127291,1,0,0:0:0:0:
448,192,127434,1,0,0:0:0:0:
320,192,127577,1,0,0:0:0:0:
192,192,127710,1,0,0:0:0:0:
64,192,127843,1,0,0:0:0:0:
320,192,127977,128,0,129177:0:0:0:0:
448,192,127977,1,0,0:0:0:0:
