osu file format v14

[General]
AudioFilename: audio.mp3
AudioLeadIn: 0
PreviewTime: 97977
Countdown: 0
SampleSet: Normal
StackLeniency: 0.7
Mode: 1
LetterboxInBreaks: 0
WidescreenStoryboard: 1

[Editor]
Bookmarks: 3977
DistanceSpacing: 1.6
BeatDivisor: 16
GridSize: 4
TimelineZoom: 2.9

[Metadata]
Title:summersick
TitleUnicode:summersick
Artist:nitro (as "summersick")
ArtistUnicode:nitro (as "summersick")
Creator:Paraxia
Version:muzukashii
Source:THE BMS OF FIGHTERS EighTeen -Summer Dream Traveler-
Tags:fever dream electronic instrumental breakcore idm bms bofet bof et bof:et time[line] timeline tech technical
BeatmapID:4253505
BeatmapSetID:2039248

[Difficulty]
HPDrainRate:7
CircleSize:2
OverallDifficulty:4.7
ApproachRate:5
SliderMultiplier:1.4
SliderTickRate:1

[Events]
//Background and Video events
0,0,"winterhealthy.jpg",0,0
//Break Periods
2,90177,93277
//Storyboard Layer 0 (Background)
//Storyboard Layer 1 (Fail)
//Storyboard Layer 2 (Pass)
//Storyboard Layer 3 (Foreground)
//Storyboard Layer 4 (Overlay)
//Storyboard Sound Samples

[TimingPoints]
1977,400,5,1,1,70,1,0
1977,-74.0740740740741,5,1,0,70,0,0
16327,-74.0740740740741,5,1,0,35,0,0
17977,-74.0740740740741,5,1,0,70,0,0
94452,-74.0740740740741,5,1,0,20,0,0
96327,-74.0740740740741,5,1,0,35,0,0
97977,-74.0740740740741,5,1,0,70,0,1
105291,-74.0740740740741,5,1,0,70,0,0
105977,-74.0740740740741,5,1,0,70,0,1
113291,-74.0740740740741,5,1,0,70,0,0
113977,-74.0740740740741,5,1,0,70,0,1
121293,-74.0740740740741,5,1,0,70,0,0
121977,-74.0740740740741,5,1,0,70,0,1
129277,-74.0740740740741,5,1,0,70,0,0

[HitObjects]
256,192,1977,12,0,3977,0:0:0:0:
256,192,4577,5,0,0:0:0:0:
256,192,5152,1,8,0:0:0:0:
256,192,5577,1,8,0:0:0:0:
256,192,5977,12,0,7977,0:0:0:0:
256,192,8577,5,0,0:0:0:0:
256,192,9152,1,8,0:0:0:0:
256,192,9577,1,0,0:0:0:0:
256,192,9977,12,8,11977,0:0:0:0:
256,192,12577,5,0,0:0:0:0:
256,192,13152,1,8,0:0:0:0:
256,192,13577,1,8,0:0:0:0:
256,192,13977,12,0,15977,0:0:0:0:
256,192,17577,5,8,0:0:0:0:
256,192,17977,5,8,0:0:0:0:
256,192,18719,1,0,0:0:0:0:
256,192,19005,1,8,0:0:0:0:
256,192,19434,1,8,0:0:0:0:
256,192,19710,1,8,0:0:0:0:
256,192,19977,1,0,0:0:0:0:
256,192,20577,1,0,0:0:0:0:
256,192,20862,1,8,0:0:0:0:
256,192,21005,1,8,0:0:0:0:
256,192,21291,1,0,0:0:0:0:
256,192,21577,1,8,0:0:0:0:
256,192,21843,1,8,0:0:0:0:
256,192,21977,1,0,0:0:0:0:
256,192,22577,1,8,0:0:0:0:
256,192,22719,1,0,0:0:0:0:
256,192,23005,1,8,0:0:0:0:
256,192,23434,1,8,0:0:0:0:
256,192,23710,1,0,0:0:0:0:
256,192,23977,1,0,0:0:0:0:
256,192,24217,1,8,0:0:0:0:
256,192,24457,1,8,0:0:0:0:
256,192,24577,1,0,0:0:0:0:
256,192,24862,1,0,0:0:0:0:
256,192,25005,1,8,0:0:0:0:
256,192,25291,1,0,0:0:0:0:
256,192,25577,1,8,0:0:0:0:
256,192,25710,1,0,0:0:0:0:
256,192,25843,1,0,0:0:0:0:
256,192,25977,1,8,0:0:0:0:
256,192,26719,1,0,0:0:0:0:
256,192,27005,1,8,0:0:0:0:
256,192,27434,1,8,0:0:0:0:
256,192,27710,1,8,0:0:0:0:
256,192,27977,1,0,0:0:0:0:
256,192,28577,1,0,0:0:0:0:
256,192,28862,1,0,0:0:0:0:
256,192,29005,1,8,0:0:0:0:
256,192,29291,1,0,0:0:0:0:
256,192,29577,1,8,0:0:0:0:
256,192,29777,1,8,0:0:0:0:
256,192,29977,1,0,0:0:0:0:
256,192,30577,1,8,0:0:0:0:
256,192,30719,1,0,0:0:0:0:
256,192,31005,1,8,0:0:0:0:
256,192,31434,1,8,0:0:0:0:
256,192,31710,1,8,0:0:0:0:
256,192,31977,1,0,0:0:0:0:
256,192,32217,1,8,0:0:0:0:
256,192,32457,1,8,0:0:0:0:
256,192,32577,1,0,0:0:0:0:
256,192,32862,1,0,0:0:0:0:
256,192,33005,1,8,0:0:0:0:
256,192,33291,1,0,0:0:0:0:
256,192,33577,1,8,0:0:0:0:
256,192,33777,1,0,0:0:0:0:
256,192,33977,1,8,0:0:0:0:
256,192,34337,1,8,0:0:0:0:
256,192,34577,1,8,0:0:0:0:
256,192,34719,1,0,0:0:0:0:
256,192,34862,1,0,0:0:0:0:
256,192,35005,1,8,0:0:0:0:
256,192,35443,1,0,0:0:0:0:
256,192,35710,1,8,0:0:0:0:
256,192,35843,1,8,0:0:0:0:
256,192,35977,1,0,0:0:0:0:
256,192,36217,1,8,0:0:0:0:
256,192,36577,1,0,0:0:0:0:
256,192,36719,1,8,0:0:0:0:
256,192,36862,1,8,0:0:0:0:
256,192,37005,1,8,0:0:0:0:
256,192,37291,1,0,0:0:0:0:
256,192,37577,1,8,0:0:0:0:
256,192,37710,1,0,0:0:0:0:
256,192,37843,1,0,0:0:0:0:
256,192,37977,1,8,0:0:0:0:
256,192,38577,1,8,0:0:0:0:
256,192,38719,1,0,0:0:0:0:
256,192,38862,1,0,0:0:0:0:
256,192,39005,1,8,0:0:0:0:
256,192,39177,1,8,0:0:0:0:
256,192,39377,1,8,0:0:0:0:
256,192,39577,1,0,0:0:0:0:
256,192,39843,1,8,0:0:0:0:
256,192,39977,1,0,0:0:0:0:
256,192,40217,1,8,0:0:0:0:
256,192,40337,1,0,0:0:0:0:
256,192,40457,1,8,0:0:0:0:
256,192,40577,1,0,0:0:0:0:
256,192,40862,1,8,0:0:0:0:
256,192,41005,1,8,0:0:0:0:
256,192,41148,1,0,0:0:0:0:
256,192,41377,1,8,0:0:0:0:
256,192,41505,1,0,0:0:0:0:
256,192,41977,1,0,0:0:0:0:
256,192,42457,1,8,0:0:0:0:
256,192,42577,1,8,0:0:0:0:
256,192,42719,1,0,0:0:0:0:
256,192,43005,1,8,0:0:0:0:
256,192,43434,1,8,0:0:0:0:
256,192,43591,1,8,0:0:0:0:
256,192,43734,1,0,0:0:0:0:
256,192,43977,1,0,0:0:0:0:
256,192,44217,1,0,0:0:0:0:
256,192,44337,1,0,0:0:0:0:
256,192,44457,1,8,0:0:0:0:
256,192,44577,1,0,0:0:0:0:
256,192,45005,1,8,0:0:0:0:
256,192,45291,1,0,0:0:0:0:
256,192,45434,1,0,0:0:0:0:
256,192,45577,1,8,0:0:0:0:
256,192,45777,1,0,0:0:0:0:
256,192,45977,1,8,0:0:0:0:
256,192,49977,1,0,0:0:0:0:
256,192,50577,1,8,0:0:0:0:
256,192,50719,1,0,0:0:0:0:
256,192,51005,1,0,0:0:0:0:
256,192,51577,1,8,0:0:0:0:
256,192,51977,1,0,0:0:0:0:
256,192,52577,1,8,0:0:0:0:
256,192,52777,1,0,0:0:0:0:
256,192,53005,1,8,0:0:0:0:
256,192,53148,1,0,0:0:0:0:
256,192,53291,1,8,0:0:0:0:
256,192,53434,1,8,0:0:0:0:
256,192,53577,1,0,0:0:0:0:
256,192,53977,1,0,0:0:0:0:
256,192,54577,1,8,0:0:0:0:
256,192,55005,1,0,0:0:0:0:
256,192,55577,1,8,0:0:0:0:
256,192,56217,1,0,0:0:0:0:
256,192,56457,1,0,0:0:0:0:
256,192,56577,1,8,0:0:0:0:
256,192,56719,1,0,0:0:0:0:
256,192,56862,1,0,0:0:0:0:
256,192,57291,1,8,0:0:0:0:
256,192,57434,1,8,0:0:0:0:
256,192,57577,1,0,0:0:0:0:
256,192,57710,1,0,0:0:0:0:
256,192,57977,1,8,0:0:0:0:
256,192,58337,1,8,0:0:0:0:
256,192,58457,1,0,0:0:0:0:
256,192,58577,1,8,0:0:0:0:
256,192,58857,1,8,0:0:0:0:
256,192,59005,1,0,0:0:0:0:
256,192,59460,1,0,0:0:0:0:
256,192,59577,1,8,0:0:0:0:
256,192,59777,1,8,0:0:0:0:
256,192,59977,1,0,0:0:0:0:
256,192,60217,1,0,0:0:0:0:
256,192,60457,1,8,0:0:0:0:
256,192,60577,1,8,0:0:0:0:
256,192,60777,1,0,0:0:0:0:
256,192,60891,1,8,0:0:0:0:
256,192,61148,1,8,0:0:0:0:
256,192,61434,1,8,0:0:0:0:
256,192,61593,1,0,0:0:0:0:
256,192,61977,1,0,0:0:0:0:
256,192,62457,1,0,0:0:0:0:
256,192,62577,1,8,0:0:0:0:
256,192,62857,1,0,0:0:0:0:
256,192,63005,1,0,0:0:0:0:
256,192,63452,1,8,0:0:0:0:
256,192,63577,1,8,0:0:0:0:
256,192,63710,1,0,0:0:0:0:
256,192,63843,1,8,0:0:0:0:
256,192,64217,1,0,0:0:0:0:
256,192,64457,1,0,0:0:0:0:
256,192,64577,1,8,0:0:0:0:
256,192,64719,1,0,0:0:0:0:
256,192,64862,1,0,0:0:0:0:
256,192,65577,1,0,0:0:0:0:
256,192,65777,1,8,0:0:0:0:
256,192,65977,1,0,0:0:0:0:
256,192,66577,1,8,0:0:0:0:
256,192,67148,1,8,0:0:0:0:
256,192,67362,1,0,0:0:0:0:
256,192,67577,1,8,0:0:0:0:
256,192,67977,1,0,0:0:0:0:
256,192,68337,1,0,0:0:0:0:
256,192,68577,1,8,0:0:0:0:
256,192,68777,1,0,0:0:0:0:
256,192,69005,1,8,0:0:0:0:
256,192,69148,1,0,0:0:0:0:
256,192,69434,1,8,0:0:0:0:
256,192,69677,1,0,0:0:0:0:
256,192,69777,1,8,0:0:0:0:
256,192,69977,1,0,0:0:0:0:
256,192,70337,1,0,0:0:0:0:
256,192,70577,1,8,0:0:0:0:
256,192,70717,1,0,0:0:0:0:
256,192,71177,1,8,0:0:0:0:
256,192,71377,1,0,0:0:0:0:
256,192,71577,1,8,0:0:0:0:
256,192,71843,1,0,0:0:0:0:
256,192,72217,1,0,0:0:0:0:
256,192,72457,1,0,0:0:0:0:
256,192,72577,1,8,0:0:0:0:
256,192,72719,1,0,0:0:0:0:
256,192,72862,1,8,0:0:0:0:
256,192,73291,1,8,0:0:0:0:
256,192,73432,1,0,0:0:0:0:
256,192,73577,1,0,0:0:0:0:
256,192,73977,1,0,0:0:0:0:
256,192,74337,1,8,0:0:0:0:
256,192,74457,1,0,0:0:0:0:
256,192,74577,1,8,0:0:0:0:
256,192,74862,1,8,0:0:0:0:
256,192,75005,1,0,0:0:0:0:
256,192,75362,1,0,0:0:0:0:
256,192,75577,1,8,0:0:0:0:
256,192,75777,1,0,0:0:0:0:
256,192,75977,1,0,0:0:0:0:
256,192,76277,1,8,0:0:0:0:
256,192,76577,1,8,0:0:0:0:
256,192,76719,1,0,0:0:0:0:
256,192,76862,1,8,0:0:0:0:
256,192,77005,1,8,0:0:0:0:
256,192,77291,1,0,0:0:0:0:
256,192,77434,1,8,0:0:0:0:
256,192,77727,1,8,0:0:0:0:
256,192,77977,1,0,0:0:0:0:
256,192,78457,1,0,0:0:0:0:
256,192,78577,1,8,0:0:0:0:
256,192,79005,1,0,0:0:0:0:
256,192,79177,1,8,0:0:0:0:
256,192,79377,1,8,0:0:0:0:
256,192,79577,1,8,0:0:0:0:
256,192,79843,1,0,0:0:0:0:
256,192,80217,1,0,0:0:0:0:
256,192,80457,1,0,0:0:0:0:
256,192,80577,1,8,0:0:0:0:
256,192,80719,1,0,0:0:0:0:
256,192,80862,5,8,0:0:0:0:
256,192,81148,1,8,0:0:0:0:
256,192,81291,1,0,0:0:0:0:
256,192,81577,1,0,0:0:0:0:
256,192,81677,1,0,0:0:0:0:
256,192,81777,1,8,0:0:0:0:
256,192,81977,1,0,0:0:0:0:
256,192,83577,1,8,0:0:0:0:
256,192,83977,1,8,0:0:0:0:
256,192,85977,1,0,0:0:0:0:
256,192,87577,1,8,0:0:0:0:
256,192,87977,1,8,0:0:0:0:
256,192,89977,1,0,0:0:0:0:
256,192,94477,12,0,95977,0:0:0:0:
256,192,97577,5,8,0:0:0:0:
256,192,97977,5,8,0:0:0:0:
256,192,98217,1,8,0:0:0:0:
256,192,98337,1,0,0:0:0:0:
256,192,98719,1,8,0:0:0:0:
256,192,98862,1,8,0:0:0:0:
256,192,99291,1,0,0:0:0:0:
256,192,99434,1,0,0:0:0:0:
256,192,99577,1,0,0:0:0:0:
256,192,99843,1,8,0:0:0:0:
256,192,99977,1,0,0:0:0:0:
256,192,100217,1,8,0:0:0:0:
256,192,100337,1,8,0:0:0:0:
256,192,100719,1,8,0:0:0:0:
256,192,100862,1,0,0:0:0:0:
256,192,101291,1,0,0:0:0:0:
256,192,101577,1,8,0:0:0:0:
256,192,101777,1,8,0:0:0:0:
256,192,101877,1,8,0:0:0:0:
256,192,101977,1,0,0:0:0:0:
256,192,102457,1,8,0:0:0:0:
256,192,102719,1,0,0:0:0:0:
256,192,102977,1,0,0:0:0:0:
256,192,103221,1,8,0:0:0:0:
256,192,103436,1,0,0:0:0:0:
256,192,103643,1,8,0:0:0:0:
256,192,103977,1,0,0:0:0:0:
256,192,104337,1,0,0:0:0:0:
256,192,104457,1,8,0:0:0:0:
256,192,104719,1,0,0:0:0:0:
256,192,104862,1,0,0:0:0:0:
256,192,105148,1,0,0:0:0:0:
256,192,105291,1,8,0:0:0:0:
256,192,105977,1,8,0:0:0:0:
256,192,106217,1,8,0:0:0:0:
256,192,106337,1,0,0:0:0:0:
256,192,106457,1,0,0:0:0:0:
256,192,106719,1,8,0:0:0:0:
256,192,106862,1,8,0:0:0:0:
256,192,107177,1,0,0:0:0:0:
256,192,107377,1,0,0:0:0:0:
256,192,107577,1,8,0:0:0:0:
256,192,107843,1,0,0:0:0:0:
256,192,107977,1,8,0:0:0:0:
256,192,108217,1,8,0:0:0:0:
256,192,108337,1,0,0:0:0:0:
256,192,108477,1,0,0:0:0:0:
256,192,108719,1,0,0:0:0:0:
256,192,108862,1,8,0:0:0:0:
256,192,109134,1,0,0:0:0:0:
256,192,109505,1,8,0:0:0:0:
256,192,109677,1,8,0:0:0:0:
256,192,109877,1,8,0:0:0:0:
256,192,109977,1,0,0:0:0:0:
256,192,110217,1,8,0:0:0:0:
256,192,110457,1,8,0:0:0:0:
256,192,110577,1,0,0:0:0:0:
256,192,110719,1,8,0:0:0:0:
256,192,111177,1,8,0:0:0:0:
256,192,111291,1,0,0:0:0:0:
256,192,111434,1,0,0:0:0:0:
256,192,111677,1,0,0:0:0:0:
256,192,111877,1,8,0:0:0:0:
256,192,112577,1,0,0:0:0:0:
256,192,112719,1,8,0:0:0:0:
256,192,113005,1,8,0:0:0:0:
256,192,113291,1,0,0:0:0:0:
256,192,113434,1,8,0:0:0:0:
256,192,113977,1,8,0:0:0:0:
256,192,114217,1,8,0:0:0:0:
256,192,114337,1,0,0:0:0:0:
256,192,114577,1,0,0:0:0:0:
256,192,114712,1,8,0:0:0:0:
256,192,114862,1,8,0:0:0:0:
256,192,115291,1,8,0:0:0:0:
256,192,115491,1,0,0:0:0:0:
256,192,115577,1,0,0:0:0:0:
256,192,115843,1,8,0:0:0:0:
256,192,115977,1,0,0:0:0:0:
256,192,116217,1,8,0:0:0:0:
256,192,116337,1,8,0:0:0:0:
256,192,116734,1,0,0:0:0:0:
256,192,116862,1,0,0:0:0:0:
256,192,117177,1,8,0:0:0:0:
256,192,117434,1,8,0:0:0:0:
256,192,117577,1,0,0:0:0:0:
256,192,117877,1,0,0:0:0:0:
256,192,117977,1,0,0:0:0:0:
256,192,118219,1,0,0:0:0:0:
256,192,118457,1,8,0:0:0:0:
256,192,118583,1,8,0:0:0:0:
256,192,118719,1,0,0:0:0:0:
256,192,119177,1,8,0:0:0:0:
256,192,119277,1,0,0:0:0:0:
256,192,119477,1,0,0:0:0:0:
256,192,119577,1,8,0:0:0:0:
256,192,119848,1,8,0:0:0:0:
256,192,119977,1,0,0:0:0:0:
256,192,120102,1,0,0:0:0:0:
256,192,120217,1,0,0:0:0:0:
256,192,120457,1,0,0:0:0:0:
256,192,120577,1,8,0:0:0:0:
256,192,120877,1,0,0:0:0:0:
256,192,121143,1,0,0:0:0:0:
256,192,121485,1,8,0:0:0:0:
256,192,121718,1,8,0:0:0:0:
256,192,121843,1,8,0:0:0:0:
256,192,121977,1,0,0:0:0:0:
256,192,122217,1,8,0:0:0:0:
256,192,122719,1,8,0:0:0:0:
256,192,122857,1,8,0:0:0:0:
256,192,123148,1,0,0:0:0:0:
256,192,123291,1,8,0:0:0:0:
256,192,123591,1,8,0:0:0:0:
256,192,123852,1,0,0:0:0:0:
256,192,123977,1,8,0:0:0:0:
256,192,124217,1,8,0:0:0:0:
256,192,124337,1,8,0:0:0:0:
256,192,124719,1,8,0:0:0:0:
256,192,124857,1,0,0:0:0:0:
256,192,125177,1,8,0:0:0:0:
256,192,125577,1,0,0:0:0:0:
256,192,125710,1,8,0:0:0:0:
256,192,125977,1,0,0:0:0:0:
256,192,126457,1,8,0:0:0:0:
256,192,126717,1,0,0:0:0:0:
256,192,127277,1,0,0:0:0:0:
256,192,127577,1,8,0:0:0:0:
256,192,127710,1,8,0:0:0:0:
256,192,127977,1,0,0:0:0:0:
