osu file format v14

[General]
AudioFilename: audio.mp3
AudioLeadIn: 0
PreviewTime: 97977
Countdown: 0
SampleSet: Normal
StackLeniency: 0.7
Mode: 1
LetterboxInBreaks: 0
WidescreenStoryboard: 1

[Editor]
Bookmarks: 3977
DistanceSpacing: 1.6
BeatDivisor: 8
GridSize: 4
TimelineZoom: 4.199999

[Metadata]
Title:summersick
TitleUnicode:summersick
Artist:nitro (as "summersick")
ArtistUnicode:nitro (as "summersick")
Creator:Paraxia
Version:lite oni
Source:THE BMS OF FIGHTERS EighTeen -Summer Dream Traveler-
Tags:fever dream electronic instrumental breakcore idm bms bofet bof et bof:et time[line] timeline tech technical
BeatmapID:4253504
BeatmapSetID:2039248

[Difficulty]
HPDrainRate:6.5
CircleSize:2
OverallDifficulty:5
ApproachRate:5
SliderMultiplier:1.4
SliderTickRate:1

[Events]
//Background and Video events
0,0,"winterhealthy.jpg",0,0
//Break Periods
2,90177,93277
//Storyboard Layer 0 (Background)
//Storyboard Layer 1 (Fail)
//Storyboard Layer 2 (Pass)
//Storyboard Layer 3 (Foreground)
//Storyboard Layer 4 (Overlay)
//Storyboard Sound Samples

[TimingPoints]
1977,400,5,1,0,70,1,0
1977,-74.0740740740741,5,1,0,70,0,0
5147,-69.4444444444444,5,1,0,70,0,0
5576,-62.5,5,1,0,70,0,0
5977,-74.0740740740741,5,1,0,70,0,0
9147,-81.9672131147541,5,1,0,70,0,0
9576,-100,5,1,0,70,0,0
9977,-74.0740740740741,5,1,0,70,0,0
13148,-69.4444444444444,5,1,0,70,0,0
13577,-62.5,5,1,0,70,0,0
13977,-74.0740740740741,5,1,0,70,0,0
16326,-74.0740740740741,5,1,0,35,0,0
17977,-66.6666666666667,5,1,0,70,0,0
18719,-74.0740740740741,5,1,0,70,0,0
19005,-71.4285714285714,5,1,0,70,0,0
19434,-74.0740740740741,5,1,0,70,0,0
21005,-71.4285714285714,5,1,0,70,0,0
21291,-74.0740740740741,5,1,0,70,0,0
21577,-71.4285714285714,5,1,0,70,0,0
21710,-74.0740740740741,5,1,0,70,0,0
21977,-66.6666666666667,5,1,0,70,0,0
22577,-74.0740740740741,5,1,0,70,0,0
23005,-71.4285714285714,5,1,0,70,0,0
23434,-74.0740740740741,5,1,0,70,0,0
25005,-71.4285714285714,5,1,0,70,0,0
25291,-74.0740740740741,5,1,0,70,0,0
25977,-66.6666666666667,5,1,0,70,0,0
26719,-74.0740740740741,5,1,0,70,0,0
27005,-71.4285714285714,5,1,0,70,0,0
27434,-74.0740740740741,5,1,0,70,0,0
29005,-71.4285714285714,5,1,0,70,0,0
29291,-74.0740740740741,5,1,0,70,0,0
29577,-71.4285714285714,5,1,0,70,0,0
29677,-74.0740740740741,5,1,0,70,0,0
29977,-66.6666666666667,5,1,0,70,0,0
30577,-74.0740740740741,5,1,0,70,0,0
31005,-71.4285714285714,5,1,0,70,0,0
31434,-74.0740740740741,5,1,0,70,0,0
33005,-68.9655172413793,5,1,0,70,0,0
33291,-74.0740740740741,5,1,0,70,0,0
33577,-76.9230769230769,5,1,0,70,0,0
33777,-80,5,1,0,70,0,0
33977,-66.6666666666667,5,1,0,70,0,0
34337,-74.0740740740741,5,1,0,70,0,0
35005,-71.4285714285714,5,1,0,70,0,0
35443,-74.0740740740741,5,1,0,70,0,0
36577,-74.0740740740741,5,1,0,70,0,0
37005,-71.4285714285714,5,1,0,70,0,0
37291,-74.0740740740741,5,1,0,70,0,0
37577,-71.4285714285714,5,1,0,70,0,0
37710,-74.0740740740741,5,1,0,70,0,0
38577,-74.0740740740741,5,1,0,70,0,0
39005,-71.4285714285714,5,1,0,70,0,0
39148,-74.0740740740741,5,1,0,70,0,0
41005,-71.4285714285714,5,1,0,70,0,0
41148,-74.0740740740741,5,1,0,70,0,0
41977,-66.6666666666667,5,1,0,70,0,0
42337,-74.0740740740741,5,1,0,70,0,0
43005,-71.4285714285714,5,1,0,70,0,0
43434,-74.0740740740741,5,1,0,70,0,0
45005,-71.4285714285714,5,1,0,70,0,0
45148,-74.0740740740741,5,1,0,70,0,0
45977,-66.6666666666667,5,1,0,70,0,0
47977,-74.0740740740741,5,1,0,70,0,0
49977,-66.6666666666667,5,1,0,70,0,0
50337,-74.0740740740741,5,1,0,70,0,0
50577,-71.4285714285714,5,1,0,70,0,0
50719,-74.0740740740741,5,1,0,70,0,0
51577,-71.4285714285714,5,1,0,70,0,0
51843,-74.0740740740741,5,1,0,70,0,0
52577,-71.4285714285714,5,1,0,70,0,0
52777,-74.0740740740741,5,1,0,70,0,0
54577,-71.4285714285714,5,1,0,70,0,0
54719,-74.0740740740741,5,1,0,70,0,0
55577,-71.4285714285714,5,1,0,70,0,0
55843,-74.0740740740741,5,1,0,70,0,0
56577,-71.4285714285714,5,1,0,70,0,0
56719,-74.0740740740741,5,1,0,70,0,0
57577,-66.6666666666667,5,1,0,70,0,0
57710,-68.9655172413793,5,1,0,70,0,0
57977,-66.6666666666667,5,1,0,70,0,0
58337,-74.0740740740741,5,1,0,70,0,0
58577,-71.4285714285714,5,1,0,70,0,0
58719,-74.0740740740741,5,1,0,70,0,0
59577,-71.4285714285714,5,1,0,70,0,0
59677,-74.0740740740741,5,1,0,70,0,0
60577,-71.4285714285714,5,1,0,70,0,0
60777,-74.0740740740741,5,1,0,70,0,0
62577,-71.4285714285714,5,1,0,70,0,0
62719,-74.0740740740741,5,1,0,70,0,0
63577,-71.4285714285714,5,1,0,70,0,0
63710,-74.0740740740741,5,1,0,70,0,0
64577,-71.4285714285714,5,1,0,70,0,0
64719,-74.0740740740741,5,1,0,70,0,0
65977,-66.6666666666667,5,1,0,70,0,0
66217,-74.0740740740741,5,1,0,70,0,0
66577,-71.4285714285714,5,1,0,70,0,0
66719,-74.0740740740741,5,1,0,70,0,0
67577,-71.4285714285714,5,1,0,70,0,0
67843,-74.0740740740741,5,1,0,70,0,0
68577,-71.4285714285714,5,1,0,70,0,0
68777,-74.0740740740741,5,1,0,70,0,0
70577,-71.4285714285714,5,1,0,70,0,0
70719,-74.0740740740741,5,1,0,70,0,0
71577,-71.4285714285714,5,1,0,70,0,0
71710,-74.0740740740741,5,1,0,70,0,0
72577,-71.4285714285714,5,1,0,70,0,0
72719,-74.0740740740741,5,1,0,70,0,0
73577,-66.6666666666667,5,1,0,70,0,0
73843,-68.9655172413793,5,1,0,70,0,0
73977,-66.6666666666667,5,1,0,70,0,0
74217,-74.0740740740741,5,1,0,70,0,0
74577,-71.4285714285714,5,1,0,70,0,0
74719,-74.0740740740741,5,1,0,70,0,0
75577,-71.4285714285714,5,1,0,70,0,0
75777,-74.0740740740741,5,1,0,70,0,0
76577,-71.4285714285714,5,1,0,70,0,0
76719,-74.0740740740741,5,1,0,70,0,0
78577,-71.4285714285714,5,1,0,70,0,0
78862,-74.0740740740741,5,1,0,70,0,0
79577,-71.4285714285714,5,1,0,70,0,0
79710,-74.0740740740741,5,1,0,70,0,0
80577,-71.4285714285714,5,1,0,70,0,0
80719,-74.0740740740741,5,1,0,70,0,0
81977,-66.6666666666667,5,1,0,70,0,0
83577,-74.0740740740741,5,1,0,70,0,0
83977,-68.9655172413793,5,1,0,70,0,0
85977,-76.9230769230769,5,1,0,70,0,0
87577,-74.0740740740741,5,1,0,70,0,0
87977,-71.4285714285714,5,1,0,70,0,0
89977,-66.6666666666667,5,1,0,70,0,0
91977,-74.0740740740741,5,1,0,70,0,0
94452,-74.0740740740741,5,1,0,20,0,0
96326,-74.0740740740741,5,1,0,35,0,0
97977,-62.5,5,1,0,70,0,1
98217,-68.9655172413793,5,1,0,70,0,0
98337,-62.5,5,1,0,70,0,1
98577,-68.9655172413793,5,1,0,70,0,1
98719,-68.9655172413793,5,1,0,70,0,0
98862,-62.5,5,1,0,70,0,1
99291,-68.9655172413793,5,1,0,70,0,1
99577,-68.9655172413793,5,1,0,70,0,0
99977,-62.5,5,1,0,70,0,1
100217,-68.9655172413793,5,1,0,70,0,0
100337,-62.5,5,1,0,70,0,1
100577,-68.9655172413793,5,1,0,70,0,1
100719,-68.9655172413793,5,1,0,70,0,0
100862,-62.5,5,1,0,70,0,1
101291,-68.9655172413793,5,1,0,70,0,1
101577,-68.9655172413793,5,1,0,70,0,0
101977,-62.5,5,1,0,70,0,1
102217,-68.9655172413793,5,1,0,70,0,1
102457,-68.9655172413793,5,1,0,70,0,0
102719,-62.5,5,1,0,70,0,1
102977,-68.9655172413793,5,1,0,70,0,1
103577,-68.9655172413793,5,1,0,70,0,0
103977,-62.5,5,1,0,70,0,1
104217,-68.9655172413793,5,1,0,70,0,1
105291,-68.9655172413793,5,1,0,70,0,0
105977,-62.5,5,1,0,70,0,1
106217,-68.9655172413793,5,1,0,70,0,0
106337,-62.5,5,1,0,70,0,1
106457,-68.9655172413793,5,1,0,70,0,1
106719,-68.9655172413793,5,1,0,70,0,0
106862,-62.5,5,1,0,70,0,1
107177,-68.9655172413793,5,1,0,70,0,1
107577,-68.9655172413793,5,1,0,70,0,0
107977,-62.5,5,1,0,70,0,1
108217,-68.9655172413793,5,1,0,70,0,0
108337,-62.5,5,1,0,70,0,1
108577,-68.9655172413793,5,1,0,70,0,1
108719,-68.9655172413793,5,1,0,70,0,0
108862,-62.5,5,1,0,70,0,1
109134,-68.9655172413793,5,1,0,70,0,1
109577,-68.9655172413793,5,1,0,70,0,0
109977,-62.5,5,1,0,70,0,1
110217,-68.9655172413793,5,1,0,70,0,1
110457,-68.9655172413793,5,1,0,70,0,0
110719,-62.5,5,1,0,70,0,1
110977,-68.9655172413793,5,1,0,70,0,1
111291,-68.9655172413793,5,1,0,70,0,0
111977,-62.5,5,1,0,70,0,1
112097,-68.9655172413793,5,1,0,70,0,1
113291,-68.9655172413793,5,1,0,70,0,0
113977,-62.5,5,1,0,70,0,1
114217,-68.9655172413793,5,1,0,70,0,0
114337,-62.5,5,1,0,70,0,1
114577,-68.9655172413793,5,1,0,70,0,1
114712,-68.9655172413793,5,1,0,70,0,0
114862,-62.5,5,1,0,70,0,1
115148,-68.9655172413793,5,1,0,70,0,1
115577,-68.9655172413793,5,1,0,70,0,0
115977,-62.5,5,1,0,70,0,1
116217,-68.9655172413793,5,1,0,70,0,0
116337,-62.5,5,1,0,70,0,1
116591,-68.9655172413793,5,1,0,70,0,1
116734,-68.9655172413793,5,1,0,70,0,0
116862,-62.5,5,1,0,70,0,1
117177,-68.9655172413793,5,1,0,70,0,1
117577,-68.9655172413793,5,1,0,70,0,0
117977,-62.5,5,1,0,70,0,1
118219,-68.9655172413793,5,1,0,70,0,1
118457,-68.9655172413793,5,1,0,70,0,0
118719,-62.5,5,1,0,70,0,1
118934,-68.9655172413793,5,1,0,70,0,1
119577,-68.9655172413793,5,1,0,70,0,0
119977,-62.5,5,1,0,70,0,1
120097,-68.9655172413793,5,1,0,70,0,1
121293,-68.9655172413793,5,1,0,70,0,0
121977,-62.5,5,1,0,70,0,1
122097,-68.9655172413793,5,1,0,70,0,1
122217,-68.9655172413793,5,1,0,70,0,0
122337,-62.5,5,1,0,70,0,1
122577,-68.9655172413793,5,1,0,70,0,1
122717,-68.9655172413793,5,1,0,70,0,0
122857,-62.5,5,1,0,70,0,1
123148,-68.9655172413793,5,1,0,70,0,1
123591,-68.9655172413793,5,1,0,70,0,0
123977,-62.5,5,1,0,70,0,1
124217,-68.9655172413793,5,1,0,70,0,0
124337,-62.5,5,1,0,70,0,1
124577,-68.9655172413793,5,1,0,70,0,1
124717,-68.9655172413793,5,1,0,70,0,0
124857,-62.5,5,1,0,70,0,1
125077,-68.9655172413793,5,1,0,70,0,1
125577,-68.9655172413793,5,1,0,70,0,0
125977,-62.5,5,1,0,70,0,1
126457,-68.9655172413793,5,1,0,70,0,0
126717,-62.5,5,1,0,70,0,1
127277,-68.9655172413793,5,1,0,70,0,1
127577,-68.9655172413793,5,1,0,70,0,0
127977,-62.5,5,1,0,70,0,1
129277,-74.0740740740741,5,1,0,70,0,0

[HitObjects]
256,192,1977,12,0,3977,0:0:0:0:
256,192,4577,5,0,0:0:0:0:
256,192,5152,1,8,0:0:0:0:
256,192,5577,1,8,0:0:0:0:
256,192,5977,12,0,7977,0:0:0:0:
256,192,8577,5,0,0:0:0:0:
256,192,9152,1,8,0:0:0:0:
256,192,9577,1,0,0:0:0:0:
256,192,9977,12,8,11977,0:0:0:0:
256,192,12577,5,0,0:0:0:0:
256,192,13152,1,8,0:0:0:0:
256,192,13577,1,8,0:0:0:0:
256,192,13977,12,0,15977,0:0:0:0:
256,192,17577,5,8,0:0:0:0:
256,192,17727,1,0,0:0:0:0:
256,192,17977,5,12,0:0:0:0:
256,192,18719,1,0,0:0:0:0:
256,192,19005,1,8,0:0:0:0:
256,192,19434,1,8,0:0:0:0:
256,192,19710,1,8,0:0:0:0:
256,192,19843,1,0,0:0:0:0:
256,192,19977,1,0,0:0:0:0:
256,192,20577,1,0,0:0:0:0:
256,192,20719,1,0,0:0:0:0:
256,192,20862,1,8,0:0:0:0:
256,192,21005,1,8,0:0:0:0:
256,192,21291,1,0,0:0:0:0:
256,192,21577,1,8,0:0:0:0:
256,192,21710,1,0,0:0:0:0:
256,192,21843,1,0,0:0:0:0:
256,192,21977,1,12,0:0:0:0:
256,192,22577,1,8,0:0:0:0:
256,192,22719,1,0,0:0:0:0:
256,192,23005,1,8,0:0:0:0:
256,192,23434,1,8,0:0:0:0:
256,192,23710,1,8,0:0:0:0:
256,192,23843,1,0,0:0:0:0:
256,192,23977,1,0,0:0:0:0:
256,192,24217,1,8,0:0:0:0:
256,192,24457,1,8,0:0:0:0:
256,192,24577,1,0,0:0:0:0:
256,192,24719,1,8,0:0:0:0:
256,192,24862,1,8,0:0:0:0:
256,192,25005,1,8,0:0:0:0:
256,192,25291,1,0,0:0:0:0:
256,192,25577,1,8,0:0:0:0:
256,192,25710,1,0,0:0:0:0:
256,192,25843,1,0,0:0:0:0:
256,192,25977,1,4,0:0:0:0:
256,192,26719,1,0,0:0:0:0:
256,192,27005,1,8,0:0:0:0:
256,192,27434,1,8,0:0:0:0:
256,192,27710,1,8,0:0:0:0:
256,192,27843,1,0,0:0:0:0:
256,192,27977,1,0,0:0:0:0:
256,192,28577,1,0,0:0:0:0:
256,192,28719,1,8,0:0:0:0:
256,192,28862,1,0,0:0:0:0:
256,192,29005,1,8,0:0:0:0:
256,192,29291,1,0,0:0:0:0:
256,192,29577,1,8,0:0:0:0:
256,192,29677,1,0,0:0:0:0:
256,192,29877,1,8,0:0:0:0:
256,192,29977,1,4,0:0:0:0:
256,192,30577,1,8,0:0:0:0:
256,192,30719,1,0,0:0:0:0:
256,192,31005,1,8,0:0:0:0:
256,192,31434,1,8,0:0:0:0:
256,192,31710,1,8,0:0:0:0:
256,192,31843,1,8,0:0:0:0:
256,192,31977,1,0,0:0:0:0:
256,192,32217,1,8,0:0:0:0:
256,192,32457,1,8,0:0:0:0:
256,192,32577,1,0,0:0:0:0:
256,192,32719,1,8,0:0:0:0:
256,192,32862,1,8,0:0:0:0:
256,192,33005,1,8,0:0:0:0:
256,192,33291,1,0,0:0:0:0:
256,192,33577,1,0,0:0:0:0:
256,192,33777,1,0,0:0:0:0:
256,192,33977,1,12,0:0:0:0:
256,192,34337,1,8,0:0:0:0:
256,192,34577,1,8,0:0:0:0:
256,192,34719,1,0,0:0:0:0:
256,192,34862,1,0,0:0:0:0:
256,192,35005,1,8,0:0:0:0:
256,192,35443,1,0,0:0:0:0:
256,192,35527,1,8,0:0:0:0:
256,192,35627,1,8,0:0:0:0:
256,192,35710,1,0,0:0:0:0:
256,192,35843,1,8,0:0:0:0:
256,192,35977,1,0,0:0:0:0:
256,192,36097,1,0,0:0:0:0:
256,192,36217,1,8,0:0:0:0:
256,192,36577,1,0,0:0:0:0:
256,192,36719,1,8,0:0:0:0:
256,192,36862,1,8,0:0:0:0:
256,192,37005,1,8,0:0:0:0:
256,192,37291,1,0,0:0:0:0:
256,192,37577,1,8,0:0:0:0:
256,192,37710,1,0,0:0:0:0:
256,192,37843,1,8,0:0:0:0:
256,192,37977,1,0,0:0:0:0:
256,192,38577,1,8,0:0:0:0:
256,192,38719,1,0,0:0:0:0:
256,192,38862,1,0,0:0:0:0:
256,192,38934,1,0,0:0:0:0:
256,192,39005,1,8,0:0:0:0:
256,192,39148,1,0,0:0:0:0:
256,192,39377,1,8,0:0:0:0:
256,192,39577,1,0,0:0:0:0:
256,192,39710,1,8,0:0:0:0:
256,192,39843,1,8,0:0:0:0:
256,192,39977,1,0,0:0:0:0:
256,192,40217,1,8,0:0:0:0:
256,192,40337,1,0,0:0:0:0:
256,192,40457,1,8,0:0:0:0:
256,192,40577,1,0,0:0:0:0:
256,192,40719,1,8,0:0:0:0:
256,192,40862,1,0,0:0:0:0:
256,192,40934,1,0,0:0:0:0:
256,192,41005,1,8,0:0:0:0:
256,192,41148,1,0,0:0:0:0:
256,192,41291,1,0,0:0:0:0:
256,192,41362,1,8,0:0:0:0:
256,192,41434,1,8,0:0:0:0:
256,192,41505,1,0,0:0:0:0:
256,192,41977,1,4,0:0:0:0:
256,192,42337,1,0,0:0:0:0:
256,192,42457,1,8,0:0:0:0:
256,192,42577,1,8,0:0:0:0:
256,192,42648,1,8,0:0:0:0:
256,192,42719,1,0,0:0:0:0:
256,192,43005,1,8,0:0:0:0:
256,192,43434,1,8,0:0:0:0:
256,192,43519,1,8,0:0:0:0:
256,192,43591,1,8,0:0:0:0:
256,192,43734,1,0,0:0:0:0:
256,192,43977,1,0,0:0:0:0:
256,192,44097,1,8,0:0:0:0:
256,192,44217,1,0,0:0:0:0:
256,192,44337,1,0,0:0:0:0:
256,192,44457,1,8,0:0:0:0:
256,192,44577,1,0,0:0:0:0:
256,192,45005,1,8,0:0:0:0:
256,192,45148,1,8,0:0:0:0:
256,192,45219,1,8,0:0:0:0:
256,192,45291,1,0,0:0:0:0:
256,192,45434,1,0,0:0:0:0:
256,192,45577,1,8,0:0:0:0:
256,192,45677,1,0,0:0:0:0:
256,192,45877,1,0,0:0:0:0:
256,192,45977,1,12,0:0:0:0:
256,192,49977,1,4,0:0:0:0:
256,192,50337,1,0,0:0:0:0:
256,192,50577,1,8,0:0:0:0:
256,192,50719,1,0,0:0:0:0:
256,192,51005,1,0,0:0:0:0:
256,192,51291,1,0,0:0:0:0:
256,192,51577,1,8,0:0:0:0:
256,192,51843,1,0,0:0:0:0:
256,192,51977,1,0,0:0:0:0:
256,192,52337,1,0,0:0:0:0:
256,192,52577,1,8,0:0:0:0:
256,192,52777,1,8,0:0:0:0:
256,192,52891,1,8,0:0:0:0:
256,192,53005,1,8,0:0:0:0:
256,192,53148,1,0,0:0:0:0:
256,192,53219,1,8,0:0:0:0:
256,192,53291,1,8,0:0:0:0:
256,192,53434,1,8,0:0:0:0:
256,192,53577,1,0,0:0:0:0:
256,192,53777,1,8,0:0:0:0:
256,192,53877,1,8,0:0:0:0:
256,192,53977,1,0,0:0:0:0:
256,192,54337,1,0,0:0:0:0:
256,192,54577,1,8,0:0:0:0:
256,192,54719,1,0,0:0:0:0:
256,192,55005,1,0,0:0:0:0:
256,192,55291,1,0,0:0:0:0:
256,192,55577,1,8,0:0:0:0:
256,192,55843,1,0,0:0:0:0:
256,192,56217,1,0,0:0:0:0:
256,192,56337,1,8,0:0:0:0:
256,192,56457,1,0,0:0:0:0:
256,192,56577,1,8,0:0:0:0:
256,192,56719,1,8,0:0:0:0:
256,192,56862,1,0,0:0:0:0:
256,192,57291,1,8,0:0:0:0:
256,192,57434,1,8,0:0:0:0:
256,192,57577,1,0,0:0:0:0:
256,192,57710,1,0,0:0:0:0:
256,192,57777,1,0,0:0:0:0:
256,192,57843,1,0,0:0:0:0:
256,192,57977,1,12,0:0:0:0:
256,192,58337,1,8,0:0:0:0:
256,192,58457,1,0,0:0:0:0:
256,192,58577,1,8,0:0:0:0:
256,192,58719,1,0,0:0:0:0:
256,192,58862,1,8,0:0:0:0:
256,192,58934,1,8,0:0:0:0:
256,192,59005,1,0,0:0:0:0:
256,192,59291,1,8,0:0:0:0:
256,192,59460,1,0,0:0:0:0:
256,192,59577,1,8,0:0:0:0:
256,192,59677,1,0,0:0:0:0:
256,192,59777,1,8,0:0:0:0:
256,192,59877,1,8,0:0:0:0:
256,192,59977,1,0,0:0:0:0:
256,192,60217,1,0,0:0:0:0:
256,192,60337,1,0,0:0:0:0:
256,192,60457,1,8,0:0:0:0:
256,192,60577,1,8,0:0:0:0:
256,192,60777,1,0,0:0:0:0:
256,192,60891,1,8,0:0:0:0:
256,192,61005,1,8,0:0:0:0:
256,192,61077,1,8,0:0:0:0:
256,192,61148,1,8,0:0:0:0:
256,192,61291,1,0,0:0:0:0:
256,192,61434,1,8,0:0:0:0:
256,192,61727,1,8,0:0:0:0:
256,192,61860,1,8,0:0:0:0:
256,192,61977,1,0,0:0:0:0:
256,192,62337,1,8,0:0:0:0:
256,192,62457,1,0,0:0:0:0:
256,192,62577,1,8,0:0:0:0:
256,192,62727,1,0,0:0:0:0:
256,192,62862,1,8,0:0:0:0:
256,192,63005,1,0,0:0:0:0:
256,192,63291,1,0,0:0:0:0:
256,192,63452,1,8,0:0:0:0:
256,192,63577,1,8,0:0:0:0:
256,192,63710,1,0,0:0:0:0:
256,192,63843,1,8,0:0:0:0:
256,192,64217,1,0,0:0:0:0:
256,192,64457,1,0,0:0:0:0:
256,192,64577,1,8,0:0:0:0:
256,192,64719,1,0,0:0:0:0:
256,192,64862,1,8,0:0:0:0:
256,192,64934,1,8,0:0:0:0:
256,192,65005,1,0,0:0:0:0:
256,192,65291,1,8,0:0:0:0:
256,192,65434,1,0,0:0:0:0:
256,192,65577,1,8,0:0:0:0:
256,192,65777,1,8,0:0:0:0:
256,192,65977,1,4,0:0:0:0:
256,192,66217,1,8,0:0:0:0:
256,192,66337,1,0,0:0:0:0:
256,192,66577,1,8,0:0:0:0:
256,192,66719,1,0,0:0:0:0:
256,192,66862,1,0,0:0:0:0:
256,192,67148,1,8,0:0:0:0:
256,192,67362,1,0,0:0:0:0:
256,192,67505,1,8,0:0:0:0:
256,192,67577,1,8,0:0:0:0:
256,192,67843,1,8,0:0:0:0:
256,192,67977,1,0,0:0:0:0:
256,192,68217,1,0,0:0:0:0:
256,192,68337,1,0,0:0:0:0:
256,192,68577,1,8,0:0:0:0:
256,192,68777,1,0,0:0:0:0:
256,192,68891,1,0,0:0:0:0:
256,192,69005,1,8,0:0:0:0:
256,192,69077,1,0,0:0:0:0:
256,192,69148,1,0,0:0:0:0:
256,192,69219,1,8,0:0:0:0:
256,192,69434,1,8,0:0:0:0:
256,192,69677,1,0,0:0:0:0:
256,192,69777,1,8,0:0:0:0:
256,192,69877,1,8,0:0:0:0:
256,192,69977,1,0,0:0:0:0:
256,192,70217,1,0,0:0:0:0:
256,192,70337,1,0,0:0:0:0:
256,192,70577,1,8,0:0:0:0:
256,192,70719,1,0,0:0:0:0:
256,192,70862,1,0,0:0:0:0:
256,192,71077,1,0,0:0:0:0:
256,192,71177,1,8,0:0:0:0:
256,192,71277,1,0,0:0:0:0:
256,192,71377,1,0,0:0:0:0:
256,192,71477,1,8,0:0:0:0:
256,192,71577,1,8,0:0:0:0:
256,192,71710,1,0,0:0:0:0:
256,192,71843,1,0,0:0:0:0:
256,192,72217,1,0,0:0:0:0:
256,192,72457,1,0,0:0:0:0:
256,192,72577,1,8,0:0:0:0:
256,192,72719,1,0,0:0:0:0:
256,192,72862,1,8,0:0:0:0:
256,192,73291,1,8,0:0:0:0:
256,192,73434,1,8,0:0:0:0:
256,192,73577,1,4,0:0:0:0:
256,192,73843,1,8,0:0:0:0:
256,192,73977,1,4,0:0:0:0:
256,192,74217,1,8,0:0:0:0:
256,192,74337,1,8,0:0:0:0:
256,192,74457,1,0,0:0:0:0:
256,192,74577,1,8,0:0:0:0:
256,192,74727,1,0,0:0:0:0:
256,192,74862,1,0,0:0:0:0:
256,192,75005,1,0,0:0:0:0:
256,192,75291,1,0,0:0:0:0:
256,192,75362,1,8,0:0:0:0:
256,192,75505,1,8,0:0:0:0:
256,192,75577,1,8,0:0:0:0:
256,192,75777,1,8,0:0:0:0:
256,192,75877,1,8,0:0:0:0:
256,192,75977,1,0,0:0:0:0:
256,192,76177,1,0,0:0:0:0:
256,192,76277,1,8,0:0:0:0:
256,192,76377,1,0,0:0:0:0:
256,192,76477,1,8,0:0:0:0:
256,192,76577,1,8,0:0:0:0:
256,192,76719,1,0,0:0:0:0:
256,192,76862,1,8,0:0:0:0:
256,192,77005,1,8,0:0:0:0:
256,192,77077,1,8,0:0:0:0:
256,192,77148,1,0,0:0:0:0:
256,192,77291,1,0,0:0:0:0:
256,192,77362,1,0,0:0:0:0:
256,192,77434,1,8,0:0:0:0:
256,192,77727,1,8,0:0:0:0:
256,192,77860,1,8,0:0:0:0:
256,192,77977,1,0,0:0:0:0:
256,192,78217,1,8,0:0:0:0:
256,192,78337,1,8,0:0:0:0:
256,192,78457,1,0,0:0:0:0:
256,192,78577,1,8,0:0:0:0:
256,192,78862,1,0,0:0:0:0:
256,192,79005,1,0,0:0:0:0:
256,192,79177,1,8,0:0:0:0:
256,192,79377,1,8,0:0:0:0:
256,192,79477,1,0,0:0:0:0:
256,192,79577,1,8,0:0:0:0:
256,192,79710,1,0,0:0:0:0:
256,192,79843,1,0,0:0:0:0:
256,192,80217,1,0,0:0:0:0:
256,192,80457,1,0,0:0:0:0:
256,192,80577,1,8,0:0:0:0:
256,192,80719,1,0,0:0:0:0:
256,192,80862,5,8,0:0:0:0:
256,192,81005,1,0,0:0:0:0:
256,192,81077,1,0,0:0:0:0:
256,192,81148,1,8,0:0:0:0:
256,192,81291,1,0,0:0:0:0:
256,192,81362,1,8,0:0:0:0:
256,192,81434,1,8,0:0:0:0:
256,192,81577,1,0,0:0:0:0:
256,192,81677,1,0,0:0:0:0:
256,192,81777,1,8,0:0:0:0:
256,192,81843,1,8,0:0:0:0:
256,192,81910,1,8,0:0:0:0:
256,192,81977,1,0,0:0:0:0:
256,192,83577,1,8,0:0:0:0:
256,192,83977,1,8,0:0:0:0:
256,192,85977,1,0,0:0:0:0:
256,192,87577,1,8,0:0:0:0:
256,192,87977,1,8,0:0:0:0:
256,192,89977,1,0,0:0:0:0:
256,192,94477,12,0,95977,0:0:0:0:
256,192,97577,5,8,0:0:0:0:
256,192,97727,1,0,0:0:0:0:
256,192,97977,5,12,0:0:0:0:
256,192,98217,1,8,0:0:0:0:
256,192,98337,1,0,0:0:0:0:
256,192,98577,1,0,0:0:0:0:
256,192,98719,1,0,0:0:0:0:
256,192,98862,1,8,0:0:0:0:
256,192,99291,1,0,0:0:0:0:
256,192,99434,1,0,0:0:0:0:
256,192,99577,1,8,0:0:0:0:
256,192,99710,1,8,0:0:0:0:
256,192,99777,1,8,0:0:0:0:
256,192,99843,1,8,0:0:0:0:
256,192,99977,1,0,0:0:0:0:
256,192,100217,1,8,0:0:0:0:
256,192,100337,1,0,0:0:0:0:
256,192,100577,1,8,0:0:0:0:
256,192,100719,1,8,0:0:0:0:
256,192,100862,1,0,0:0:0:0:
256,192,101291,1,8,0:0:0:0:
256,192,101391,1,8,0:0:0:0:
256,192,101491,1,8,0:0:0:0:
256,192,101577,1,0,0:0:0:0:
256,192,101777,1,0,0:0:0:0:
256,192,101877,1,8,0:0:0:0:
256,192,101977,1,0,0:0:0:0:
256,192,102217,1,8,0:0:0:0:
256,192,102457,1,8,0:0:0:0:
256,192,102577,1,8,0:0:0:0:
256,192,102719,1,0,0:0:0:0:
256,192,102977,1,0,0:0:0:0:
256,192,103043,1,0,0:0:0:0:
256,192,103110,1,0,0:0:0:0:
256,192,103219,1,8,0:0:0:0:
256,192,103362,1,8,0:0:0:0:
256,192,103434,1,0,0:0:0:0:
256,192,103643,1,8,0:0:0:0:
256,192,103743,1,8,0:0:0:0:
256,192,103843,1,8,0:0:0:0:
256,192,103977,1,0,0:0:0:0:
256,192,104217,1,0,0:0:0:0:
256,192,104337,1,0,0:0:0:0:
256,192,104457,1,8,0:0:0:0:
256,192,104719,1,8,0:0:0:0:
256,192,104862,1,0,0:0:0:0:
256,192,105005,1,8,0:0:0:0:
256,192,105148,1,0,0:0:0:0:
256,192,105219,1,0,0:0:0:0:
256,192,105291,1,8,0:0:0:0:
256,192,105419,1,8,0:0:0:0:
256,192,105577,1,0,0:0:0:0:
256,192,105710,1,0,0:0:0:0:
256,192,105843,1,0,0:0:0:0:
256,192,105977,1,12,0:0:0:0:
256,192,106217,1,8,0:0:0:0:
256,192,106337,1,0,0:0:0:0:
256,192,106457,1,8,0:0:0:0:
256,192,106517,1,8,0:0:0:0:
256,192,106577,1,0,0:0:0:0:
256,192,106719,1,0,0:0:0:0:
256,192,106862,1,8,0:0:0:0:
256,192,107177,1,0,0:0:0:0:
256,192,107377,1,0,0:0:0:0:
256,192,107477,1,0,0:0:0:0:
256,192,107577,1,8,0:0:0:0:
256,192,107710,1,0,0:0:0:0:
256,192,107777,1,8,0:0:0:0:
256,192,107843,1,8,0:0:0:0:
256,192,107977,1,0,0:0:0:0:
256,192,108217,1,8,0:0:0:0:
256,192,108337,1,0,0:0:0:0:
256,192,108577,1,0,0:0:0:0:
256,192,108719,1,0,0:0:0:0:
256,192,108862,1,8,0:0:0:0:
256,192,109134,1,0,0:0:0:0:
256,192,109257,1,0,0:0:0:0:
256,192,109381,1,0,0:0:0:0:
256,192,109443,1,0,0:0:0:0:
256,192,109505,1,8,0:0:0:0:
256,192,109677,1,0,0:0:0:0:
256,192,109777,1,8,0:0:0:0:
256,192,109877,1,8,0:0:0:0:
256,192,109977,1,0,0:0:0:0:
256,192,110217,1,0,0:0:0:0:
256,192,110337,1,8,0:0:0:0:
256,192,110457,1,0,0:0:0:0:
256,192,110577,1,0,0:0:0:0:
256,192,110719,1,8,0:0:0:0:
256,192,110977,1,0,0:0:0:0:
256,192,111177,1,8,0:0:0:0:
256,192,111291,1,0,0:0:0:0:
256,192,111434,1,0,0:0:0:0:
256,192,111577,1,8,0:0:0:0:
256,192,111777,1,0,0:0:0:0:
256,192,111877,1,8,0:0:0:0:
256,192,111977,1,0,0:0:0:0:
256,192,112097,1,8,0:0:0:0:
256,192,112217,1,8,0:0:0:0:
256,192,112577,1,0,0:0:0:0:
256,192,112719,1,8,0:0:0:0:
256,192,112862,1,0,0:0:0:0:
256,192,113005,1,8,0:0:0:0:
256,192,113105,1,8,0:0:0:0:
256,192,113205,1,8,0:0:0:0:
256,192,113291,1,0,0:0:0:0:
256,192,113434,1,8,0:0:0:0:
256,192,113577,1,8,0:0:0:0:
256,192,113710,1,0,0:0:0:0:
256,192,113843,1,0,0:0:0:0:
256,192,113977,1,12,0:0:0:0:
256,192,114217,1,8,0:0:0:0:
256,192,114337,1,0,0:0:0:0:
256,192,114577,1,8,0:0:0:0:
256,192,114712,1,0,0:0:0:0:
256,192,114777,1,0,0:0:0:0:
256,192,114862,1,8,0:0:0:0:
256,192,115148,1,0,0:0:0:0:
256,192,115291,1,8,0:0:0:0:
256,192,115434,1,8,0:0:0:0:
256,192,115505,1,0,0:0:0:0:
256,192,115577,1,0,0:0:0:0:
256,192,115710,1,8,0:0:0:0:
256,192,115843,1,8,0:0:0:0:
256,192,115977,1,0,0:0:0:0:
256,192,116217,1,8,0:0:0:0:
256,192,116337,1,0,0:0:0:0:
256,192,116591,1,8,0:0:0:0:
256,192,116734,1,8,0:0:0:0:
256,192,116862,1,0,0:0:0:0:
256,192,117177,1,8,0:0:0:0:
256,192,117291,1,8,0:0:0:0:
256,192,117362,1,8,0:0:0:0:
256,192,117434,1,8,0:0:0:0:
256,192,117577,1,0,0:0:0:0:
256,192,117710,1,0,0:0:0:0:
256,192,117843,1,8,0:0:0:0:
256,192,117977,1,0,0:0:0:0:
256,192,118219,1,0,0:0:0:0:
256,192,118337,1,8,0:0:0:0:
256,192,118457,1,0,0:0:0:0:
256,192,118548,1,8,0:0:0:0:
256,192,118634,1,8,0:0:0:0:
256,192,118719,1,0,0:0:0:0:
256,192,118934,1,0,0:0:0:0:
256,192,119005,1,8,0:0:0:0:
256,192,119077,1,8,0:0:0:0:
256,192,119177,1,0,0:0:0:0:
256,192,119277,1,0,0:0:0:0:
256,192,119477,1,8,0:0:0:0:
256,192,119527,1,8,0:0:0:0:
256,192,119577,1,8,0:0:0:0:
256,192,119719,1,0,0:0:0:0:
256,192,119784,1,8,0:0:0:0:
256,192,119848,1,8,0:0:0:0:
256,192,119977,1,0,0:0:0:0:
256,192,120217,1,0,0:0:0:0:
256,192,120337,1,0,0:0:0:0:
256,192,120457,1,8,0:0:0:0:
256,192,120577,1,8,0:0:0:0:
256,192,120877,1,8,0:0:0:0:
256,192,121010,1,0,0:0:0:0:
256,192,121143,1,8,0:0:0:0:
256,192,121293,1,0,0:0:0:0:
256,192,121485,1,8,0:0:0:0:
256,192,121602,1,0,0:0:0:0:
256,192,121718,1,0,0:0:0:0:
256,192,121843,1,8,0:0:0:0:
256,192,121910,1,8,0:0:0:0:
256,192,121977,1,4,0:0:0:0:
256,192,122097,1,8,0:0:0:0:
256,192,122217,1,8,0:0:0:0:
256,192,122337,1,0,0:0:0:0:
256,192,122577,1,8,0:0:0:0:
256,192,122648,1,0,0:0:0:0:
256,192,122717,1,0,0:0:0:0:
256,192,122857,1,8,0:0:0:0:
256,192,123148,1,0,0:0:0:0:
256,192,123234,1,0,0:0:0:0:
256,192,123291,1,8,0:0:0:0:
256,192,123591,1,8,0:0:0:0:
256,192,123677,1,0,0:0:0:0:
256,192,123852,1,8,0:0:0:0:
256,192,123914,1,8,0:0:0:0:
256,192,123977,1,0,0:0:0:0:
256,192,124217,1,8,0:0:0:0:
256,192,124334,1,0,0:0:0:0:
256,192,124577,1,8,0:0:0:0:
256,192,124717,1,0,0:0:0:0:
256,192,124787,1,0,0:0:0:0:
256,192,124857,1,8,0:0:0:0:
256,192,125077,1,0,0:0:0:0:
256,192,125177,1,8,0:0:0:0:
256,192,125291,1,0,0:0:0:0:
256,192,125434,1,8,0:0:0:0:
256,192,125577,1,0,0:0:0:0:
256,192,125710,1,8,0:0:0:0:
256,192,125777,1,8,0:0:0:0:
256,192,125843,1,0,0:0:0:0:
256,192,125910,1,0,0:0:0:0:
256,192,125977,1,8,0:0:0:0:
256,192,126457,1,8,0:0:0:0:
256,192,126717,1,0,0:0:0:0:
256,192,127277,1,0,0:0:0:0:
256,192,127427,1,0,0:0:0:0:
256,192,127577,1,8,0:0:0:0:
256,192,127710,1,8,0:0:0:0:
256,192,127777,1,8,0:0:0:0:
256,192,127843,1,8,0:0:0:0:
256,192,127910,1,8,0:0:0:0:
256,192,127977,1,0,0:0:0:0:
