osu file format v14

[General]
AudioFilename: audio.mp3
AudioLeadIn: 0
PreviewTime: -1
Countdown: 0
SampleSet: Normal
StackLeniency: 0.7
Mode: 3
LetterboxInBreaks: 0
SpecialStyle: 0
WidescreenStoryboard: 0

[Editor]
Bookmarks: 69772,104366,121664,173555
DistanceSpacing: 0.8
BeatDivisor: 4
GridSize: 4
TimelineZoom: 2

[Metadata]
Title:furiae
TitleUnicode:furiae
Artist:ninomiya tatsuki
ArtistUnicode:ninomiya tatsuki
Creator:SitekX
Version:angery
Source:
Tags:speed rolls burst tech otherman records breakcore ep OTMN085 lenfried mwc
BeatmapID:1970423
BeatmapSetID:943517

[Difficulty]
HPDrainRate:8.5
CircleSize:4
OverallDifficulty:8.5
ApproachRate:5
SliderMultiplier:1.4
SliderTickRate:1

[Events]
//Background and Video events
0,0,"jonasdero-abandon-abandoned-house-ruins-1920x1080-81682.jpg",0,0
//Break Periods
//Storyboard Layer 0 (Background)
//Storyboard Layer 1 (Fail)
//Storyboard Layer 2 (Pass)
//Storyboard Layer 3 (Foreground)
//Storyboard Layer 4 (Overlay)
//Storyboard Sound Samples

[TimingPoints]
583,270.27027027027,4,1,0,20,1,0
121664,-100,4,1,0,20,0,1
173555,-100,4,1,0,20,0,0

[HitObjects]
448,192,17880,5,0,0:0:0:0:
192,192,18015,1,0,0:0:0:0:
448,192,18150,1,0,0:0:0:0:
192,192,18285,1,0,0:0:0:0:
320,192,18420,1,0,0:0:0:0:
192,192,18555,1,0,0:0:0:0:
64,192,18691,1,0,0:0:0:0:
192,192,18826,1,0,0:0:0:0:
64,192,18961,1,0,0:0:0:0:
192,192,22880,1,0,0:0:0:0:
320,192,23015,1,0,0:0:0:0:
192,192,23150,1,0,0:0:0:0:
320,192,23285,1,0,0:0:0:0:
192,192,23420,1,0,0:0:0:0:
448,192,23555,1,0,0:0:0:0:
192,192,23691,1,0,0:0:0:0:
448,192,23826,1,0,0:0:0:0:
192,192,23961,1,0,0:0:0:0:
448,192,24096,1,0,0:0:0:0:
192,192,24231,1,0,0:0:0:0:
448,192,24366,1,0,0:0:0:0:
192,192,24501,1,0,0:0:0:0:
448,192,24637,1,0,0:0:0:0:
192,192,24772,1,0,0:0:0:0:
448,192,24907,1,0,0:0:0:0:
192,192,25042,1,0,0:0:0:0:
448,192,25177,1,0,0:0:0:0:
192,192,25312,1,0,0:0:0:0:
448,192,25447,1,0,0:0:0:0:
192,192,25582,1,0,0:0:0:0:
448,192,25718,1,0,0:0:0:0:
192,192,25853,1,0,0:0:0:0:
448,192,25988,1,0,0:0:0:0:
192,192,26123,1,0,0:0:0:0:
448,192,26258,1,0,0:0:0:0:
192,192,26393,1,0,0:0:0:0:
320,192,26528,1,0,0:0:0:0:
64,192,26664,1,0,0:0:0:0:
320,192,26799,1,0,0:0:0:0:
64,192,26934,1,0,0:0:0:0:
320,192,27069,1,0,0:0:0:0:
64,192,27204,1,0,0:0:0:0:
192,192,31799,1,0,0:0:0:0:
320,192,31934,1,0,0:0:0:0:
192,192,32069,1,0,0:0:0:0:
320,192,32204,1,0,0:0:0:0:
192,192,32339,1,0,0:0:0:0:
320,192,32474,1,0,0:0:0:0:
192,192,32610,1,0,0:0:0:0:
320,192,32745,1,0,0:0:0:0:
192,192,32880,1,0,0:0:0:0:
320,192,33015,1,0,0:0:0:0:
192,192,33150,1,0,0:0:0:0:
320,192,33285,1,0,0:0:0:0:
448,192,33285,1,0,0:0:0:0:
192,192,33420,1,0,0:0:0:0:
320,192,33555,1,0,0:0:0:0:
448,192,33555,1,0,0:0:0:0:
192,192,33691,1,0,0:0:0:0:
320,192,33826,1,0,0:0:0:0:
448,192,33826,1,0,0:0:0:0:
192,192,33961,1,0,0:0:0:0:
64,192,34096,1,0,0:0:0:0:
448,192,34231,1,0,0:0:0:0:
64,192,34366,1,0,0:0:0:0:
448,192,34501,1,0,0:0:0:0:
64,192,34637,1,0,0:0:0:0:
448,192,34704,1,0,0:0:0:0:
64,192,34772,1,0,0:0:0:0:
448,192,34839,1,0,0:0:0:0:
64,192,34907,1,0,0:0:0:0:
448,192,34974,1,0,0:0:0:0:
64,192,35042,1,0,0:0:0:0:
448,192,35110,1,0,0:0:0:0:
64,192,35177,1,0,0:0:0:0:
192,192,35177,1,0,0:0:0:0:
320,192,35312,1,0,0:0:0:0:
64,192,35447,1,0,0:0:0:0:
448,192,35447,1,0,0:0:0:0:
192,192,35582,1,0,0:0:0:0:
320,192,35582,1,0,0:0:0:0:
448,192,35650,1,0,0:0:0:0:
192,192,35718,1,0,0:0:0:0:
320,192,35718,1,0,0:0:0:0:
64,192,35785,1,0,0:0:0:0:
320,192,35853,1,0,0:0:0:0:
192,192,35988,1,0,0:0:0:0:
448,192,35988,1,0,0:0:0:0:
64,192,36123,1,0,0:0:0:0:
192,192,36191,1,0,0:0:0:0:
64,192,36258,1,0,0:0:0:0:
320,192,36258,1,0,0:0:0:0:
448,192,36258,1,0,0:0:0:0:
192,192,36393,1,0,0:0:0:0:
448,192,36528,1,0,0:0:0:0:
320,192,36528,1,0,0:0:0:0:
64,192,36664,1,0,0:0:0:0:
320,192,36731,1,0,0:0:0:0:
64,192,36799,1,0,0:0:0:0:
192,192,36799,1,0,0:0:0:0:
320,192,36866,1,0,0:0:0:0:
64,192,36934,1,0,0:0:0:0:
192,192,36934,1,0,0:0:0:0:
192,192,37069,1,0,0:0:0:0:
448,192,37069,1,0,0:0:0:0:
320,192,37204,1,0,0:0:0:0:
192,192,37272,1,0,0:0:0:0:
64,192,37339,1,0,0:0:0:0:
448,192,37339,1,0,0:0:0:0:
320,192,37474,1,0,0:0:0:0:
448,192,37610,1,0,0:0:0:0:
192,192,37610,1,0,0:0:0:0:
64,192,37745,1,0,0:0:0:0:
192,192,37745,1,0,0:0:0:0:
448,192,37812,1,0,0:0:0:0:
64,192,37880,1,0,0:0:0:0:
192,192,37880,1,0,0:0:0:0:
448,192,37947,1,0,0:0:0:0:
64,192,38015,1,0,0:0:0:0:
192,192,38150,1,0,0:0:0:0:
320,192,38150,1,0,0:0:0:0:
64,192,38285,1,0,0:0:0:0:
320,192,38353,1,0,0:0:0:0:
192,192,38420,1,0,0:0:0:0:
64,192,38420,1,0,0:0:0:0:
448,192,38420,1,0,0:0:0:0:
320,192,38555,1,0,0:0:0:0:
192,192,38691,1,0,0:0:0:0:
64,192,38826,1,0,0:0:0:0:
320,192,38893,1,0,0:0:0:0:
192,192,38961,1,0,0:0:0:0:
448,192,38961,1,0,0:0:0:0:
448,192,39096,1,0,0:0:0:0:
192,192,39164,1,0,0:0:0:0:
64,192,39231,1,0,0:0:0:0:
320,192,39231,1,0,0:0:0:0:
320,192,39366,1,0,0:0:0:0:
64,192,39366,1,0,0:0:0:0:
192,192,39501,1,0,0:0:0:0:
320,192,39501,1,0,0:0:0:0:
448,192,39501,1,0,0:0:0:0:
192,192,39637,1,0,0:0:0:0:
64,192,39772,1,0,0:0:0:0:
448,192,39772,1,0,0:0:0:0:
320,192,39907,1,0,0:0:0:0:
448,192,39907,1,0,0:0:0:0:
64,192,39974,1,0,0:0:0:0:
320,192,40042,1,0,0:0:0:0:
448,192,40042,1,0,0:0:0:0:
64,192,40110,1,0,0:0:0:0:
320,192,40177,1,0,0:0:0:0:
192,192,40312,1,0,0:0:0:0:
448,192,40312,1,0,0:0:0:0:
320,192,40447,1,0,0:0:0:0:
192,192,40515,1,0,0:0:0:0:
64,192,40582,1,0,0:0:0:0:
448,192,40582,1,0,0:0:0:0:
320,192,40582,1,0,0:0:0:0:
192,192,40718,1,0,0:0:0:0:
320,192,40785,1,0,0:0:0:0:
192,192,40853,1,0,0:0:0:0:
64,192,40853,1,0,0:0:0:0:
320,192,40988,1,0,0:0:0:0:
320,192,41123,1,0,0:0:0:0:
192,192,41191,1,0,0:0:0:0:
448,192,41258,1,0,0:0:0:0:
64,192,41326,1,0,0:0:0:0:
320,192,41393,1,0,0:0:0:0:
192,192,41461,1,0,0:0:0:0:
448,192,41528,1,0,0:0:0:0:
64,192,41596,1,0,0:0:0:0:
320,192,41664,1,0,0:0:0:0:
192,192,41664,1,0,0:0:0:0:
320,192,41799,1,0,0:0:0:0:
64,192,41934,1,0,0:0:0:0:
448,192,41934,1,0,0:0:0:0:
64,192,42069,1,0,0:0:0:0:
320,192,42137,1,0,0:0:0:0:
192,192,42204,1,0,0:0:0:0:
448,192,42204,1,0,0:0:0:0:
320,192,42272,1,0,0:0:0:0:
64,192,42339,1,0,0:0:0:0:
192,192,42474,1,0,0:0:0:0:
320,192,42474,1,0,0:0:0:0:
448,192,42610,1,0,0:0:0:0:
64,192,42677,1,0,0:0:0:0:
192,192,42745,1,0,0:0:0:0:
320,192,42745,1,0,0:0:0:0:
448,192,42745,1,0,0:0:0:0:
192,192,42880,1,0,0:0:0:0:
64,192,43015,1,0,0:0:0:0:
448,192,43015,1,0,0:0:0:0:
192,192,43150,1,0,0:0:0:0:
320,192,43218,1,0,0:0:0:0:
192,192,43285,1,0,0:0:0:0:
448,192,43285,1,0,0:0:0:0:
192,192,43420,1,0,0:0:0:0:
320,192,43488,1,0,0:0:0:0:
448,192,43555,1,0,0:0:0:0:
64,192,43555,1,0,0:0:0:0:
64,192,43691,1,0,0:0:0:0:
448,192,43691,1,0,0:0:0:0:
192,192,43826,1,0,0:0:0:0:
320,192,43826,1,0,0:0:0:0:
448,192,43826,1,0,0:0:0:0:
64,192,43961,1,0,0:0:0:0:
320,192,44096,1,0,0:0:0:0:
448,192,44096,1,0,0:0:0:0:
64,192,44231,1,0,0:0:0:0:
192,192,44231,1,0,0:0:0:0:
320,192,44299,1,0,0:0:0:0:
64,192,44366,1,0,0:0:0:0:
192,192,44366,1,0,0:0:0:0:
320,192,44434,1,0,0:0:0:0:
64,192,44501,1,0,0:0:0:0:
192,192,44637,1,0,0:0:0:0:
320,192,44637,1,0,0:0:0:0:
448,192,44772,1,0,0:0:0:0:
192,192,44839,1,0,0:0:0:0:
320,192,44907,1,0,0:0:0:0:
64,192,44907,1,0,0:0:0:0:
448,192,44907,1,0,0:0:0:0:
64,192,45042,1,0,0:0:0:0:
320,192,45177,1,0,0:0:0:0:
320,192,45312,1,0,0:0:0:0:
64,192,45447,1,0,0:0:0:0:
192,192,45447,1,0,0:0:0:0:
448,192,45515,1,0,0:0:0:0:
64,192,45582,1,0,0:0:0:0:
192,192,45718,1,0,0:0:0:0:
320,192,45718,1,0,0:0:0:0:
448,192,45853,1,0,0:0:0:0:
320,192,45853,1,0,0:0:0:0:
64,192,45920,1,0,0:0:0:0:
192,192,45988,1,0,0:0:0:0:
320,192,45988,1,0,0:0:0:0:
448,192,46123,1,0,0:0:0:0:
64,192,46258,1,0,0:0:0:0:
320,192,46258,1,0,0:0:0:0:
192,192,46393,1,0,0:0:0:0:
320,192,46393,1,0,0:0:0:0:
448,192,46461,1,0,0:0:0:0:
320,192,46528,1,0,0:0:0:0:
192,192,46528,1,0,0:0:0:0:
448,192,46596,1,0,0:0:0:0:
192,192,46664,1,0,0:0:0:0:
64,192,46799,1,0,0:0:0:0:
448,192,46799,1,0,0:0:0:0:
192,192,46934,1,0,0:0:0:0:
320,192,47001,1,0,0:0:0:0:
448,192,47069,1,0,0:0:0:0:
64,192,47069,1,0,0:0:0:0:
192,192,47069,1,0,0:0:0:0:
320,192,47204,1,0,0:0:0:0:
192,192,47339,1,0,0:0:0:0:
64,192,47474,1,0,0:0:0:0:
192,192,47542,1,0,0:0:0:0:
320,192,47610,1,0,0:0:0:0:
448,192,47610,1,0,0:0:0:0:
192,192,47745,1,0,0:0:0:0:
64,192,47812,1,0,0:0:0:0:
320,192,47880,1,0,0:0:0:0:
448,192,47880,1,0,0:0:0:0:
192,192,47880,1,0,0:0:0:0:
448,192,48015,1,0,0:0:0:0:
320,192,48015,1,0,0:0:0:0:
192,192,48015,1,0,0:0:0:0:
192,192,48150,1,0,0:0:0:0:
320,192,48150,1,0,0:0:0:0:
64,192,48150,1,0,0:0:0:0:
448,192,48285,1,0,0:0:0:0:
64,192,48285,1,0,0:0:0:0:
192,192,48420,1,0,0:0:0:0:
448,192,48420,1,0,0:0:0:0:
320,192,48555,1,0,0:0:0:0:
448,192,48623,1,0,0:0:0:0:
320,192,48691,1,0,0:0:0:0:
64,192,48691,1,0,0:0:0:0:
448,192,48758,1,0,0:0:0:0:
320,192,48826,1,0,0:0:0:0:
64,192,48961,1,0,0:0:0:0:
192,192,48961,1,0,0:0:0:0:
320,192,49096,1,0,0:0:0:0:
64,192,49164,1,0,0:0:0:0:
448,192,49231,1,0,0:0:0:0:
192,192,49231,1,0,0:0:0:0:
192,192,49366,1,0,0:0:0:0:
64,192,49501,1,0,0:0:0:0:
320,192,49501,1,0,0:0:0:0:
320,192,49637,1,0,0:0:0:0:
64,192,49772,1,0,0:0:0:0:
192,192,49839,1,0,0:0:0:0:
320,192,49907,1,0,0:0:0:0:
448,192,49974,1,0,0:0:0:0:
64,192,50042,1,0,0:0:0:0:
192,192,50110,1,0,0:0:0:0:
320,192,50177,1,0,0:0:0:0:
448,192,50245,1,0,0:0:0:0:
64,192,50312,1,0,0:0:0:0:
192,192,50312,1,0,0:0:0:0:
64,192,50447,1,0,0:0:0:0:
192,192,50447,1,0,0:0:0:0:
64,192,50582,1,0,0:0:0:0:
448,192,50582,1,0,0:0:0:0:
320,192,50718,1,0,0:0:0:0:
192,192,50785,1,0,0:0:0:0:
320,192,50853,1,0,0:0:0:0:
448,192,50853,1,0,0:0:0:0:
192,192,50920,1,0,0:0:0:0:
320,192,50988,1,0,0:0:0:0:
64,192,51123,1,0,0:0:0:0:
448,192,51123,1,0,0:0:0:0:
192,192,51258,1,0,0:0:0:0:
320,192,51326,1,0,0:0:0:0:
448,192,51393,1,0,0:0:0:0:
192,192,51393,1,0,0:0:0:0:
64,192,51393,1,0,0:0:0:0:
320,192,51528,1,0,0:0:0:0:
64,192,51664,1,0,0:0:0:0:
448,192,51664,1,0,0:0:0:0:
192,192,51799,1,0,0:0:0:0:
320,192,51866,1,0,0:0:0:0:
64,192,51934,1,0,0:0:0:0:
448,192,51934,1,0,0:0:0:0:
320,192,52069,1,0,0:0:0:0:
192,192,52137,1,0,0:0:0:0:
64,192,52204,1,0,0:0:0:0:
448,192,52204,1,0,0:0:0:0:
64,192,52339,1,0,0:0:0:0:
448,192,52339,1,0,0:0:0:0:
320,192,52474,1,0,0:0:0:0:
448,192,52474,1,0,0:0:0:0:
192,192,52474,1,0,0:0:0:0:
192,192,52610,1,0,0:0:0:0:
320,192,52745,1,0,0:0:0:0:
64,192,52745,1,0,0:0:0:0:
192,192,52880,1,0,0:0:0:0:
448,192,52880,1,0,0:0:0:0:
64,192,52947,1,0,0:0:0:0:
448,192,53015,1,0,0:0:0:0:
192,192,53015,1,0,0:0:0:0:
64,192,53082,1,0,0:0:0:0:
320,192,53150,1,0,0:0:0:0:
448,192,53285,1,0,0:0:0:0:
64,192,53285,1,0,0:0:0:0:
192,192,53420,1,0,0:0:0:0:
64,192,53555,1,0,0:0:0:0:
448,192,53555,1,0,0:0:0:0:
320,192,53555,1,0,0:0:0:0:
192,192,53691,1,0,0:0:0:0:
320,192,53826,1,0,0:0:0:0:
64,192,53826,1,0,0:0:0:0:
448,192,53961,1,0,0:0:0:0:
192,192,54096,1,0,0:0:0:0:
448,192,54096,1,0,0:0:0:0:
320,192,54164,1,0,0:0:0:0:
192,192,54231,1,0,0:0:0:0:
64,192,54366,1,0,0:0:0:0:
448,192,54366,1,0,0:0:0:0:
64,192,54501,1,0,0:0:0:0:
448,192,54501,1,0,0:0:0:0:
320,192,54569,1,0,0:0:0:0:
448,192,54637,1,0,0:0:0:0:
192,192,54637,1,0,0:0:0:0:
192,192,54772,1,0,0:0:0:0:
64,192,54907,1,0,0:0:0:0:
320,192,54907,1,0,0:0:0:0:
448,192,55042,1,0,0:0:0:0:
64,192,55110,1,0,0:0:0:0:
448,192,55177,1,0,0:0:0:0:
320,192,55177,1,0,0:0:0:0:
64,192,55245,1,0,0:0:0:0:
448,192,55312,1,0,0:0:0:0:
192,192,55447,1,0,0:0:0:0:
320,192,55447,1,0,0:0:0:0:
64,192,55582,1,0,0:0:0:0:
192,192,55650,1,0,0:0:0:0:
448,192,55718,1,0,0:0:0:0:
64,192,55718,1,0,0:0:0:0:
320,192,55718,1,0,0:0:0:0:
192,192,55853,1,0,0:0:0:0:
320,192,55988,1,0,0:0:0:0:
192,192,56123,1,0,0:0:0:0:
64,192,56191,1,0,0:0:0:0:
320,192,56258,1,0,0:0:0:0:
448,192,56258,1,0,0:0:0:0:
64,192,56393,1,0,0:0:0:0:
192,192,56461,1,0,0:0:0:0:
320,192,56528,1,0,0:0:0:0:
448,192,56528,1,0,0:0:0:0:
64,192,56528,1,0,0:0:0:0:
448,192,56664,1,0,0:0:0:0:
320,192,56664,1,0,0:0:0:0:
64,192,56664,1,0,0:0:0:0:
448,192,56799,1,0,0:0:0:0:
64,192,56799,1,0,0:0:0:0:
192,192,56799,1,0,0:0:0:0:
192,192,56934,1,0,0:0:0:0:
320,192,57069,1,0,0:0:0:0:
448,192,57069,1,0,0:0:0:0:
192,192,57204,1,0,0:0:0:0:
64,192,57272,1,0,0:0:0:0:
192,192,57339,1,0,0:0:0:0:
320,192,57339,1,0,0:0:0:0:
64,192,57407,1,0,0:0:0:0:
192,192,57474,1,0,0:0:0:0:
64,192,57610,1,0,0:0:0:0:
448,192,57610,1,0,0:0:0:0:
192,192,57745,1,0,0:0:0:0:
320,192,57812,1,0,0:0:0:0:
448,192,57880,1,0,0:0:0:0:
192,192,57880,1,0,0:0:0:0:
64,192,57880,1,0,0:0:0:0:
448,192,58015,1,0,0:0:0:0:
192,192,58150,1,0,0:0:0:0:
320,192,58150,1,0,0:0:0:0:
192,192,58285,1,0,0:0:0:0:
64,192,58420,1,0,0:0:0:0:
320,192,58488,1,0,0:0:0:0:
192,192,58555,1,0,0:0:0:0:
448,192,58623,1,0,0:0:0:0:
64,192,58691,1,0,0:0:0:0:
320,192,58758,1,0,0:0:0:0:
192,192,58826,1,0,0:0:0:0:
448,192,58893,1,0,0:0:0:0:
64,192,58961,1,0,0:0:0:0:
320,192,58961,1,0,0:0:0:0:
64,192,59096,1,0,0:0:0:0:
192,192,59231,1,0,0:0:0:0:
448,192,59231,1,0,0:0:0:0:
320,192,59366,1,0,0:0:0:0:
64,192,59434,1,0,0:0:0:0:
320,192,59501,1,0,0:0:0:0:
448,192,59501,1,0,0:0:0:0:
64,192,59569,1,0,0:0:0:0:
320,192,59637,1,0,0:0:0:0:
64,192,59772,1,0,0:0:0:0:
448,192,59772,1,0,0:0:0:0:
192,192,59907,1,0,0:0:0:0:
448,192,59974,1,0,0:0:0:0:
320,192,60042,1,0,0:0:0:0:
192,192,60042,1,0,0:0:0:0:
64,192,60042,1,0,0:0:0:0:
448,192,60177,1,0,0:0:0:0:
64,192,60312,1,0,0:0:0:0:
320,192,60312,1,0,0:0:0:0:
192,192,60447,1,0,0:0:0:0:
448,192,60515,1,0,0:0:0:0:
64,192,60582,1,0,0:0:0:0:
320,192,60582,1,0,0:0:0:0:
320,192,60718,1,0,0:0:0:0:
64,192,60785,1,0,0:0:0:0:
192,192,60853,1,0,0:0:0:0:
448,192,60853,1,0,0:0:0:0:
192,192,60988,1,0,0:0:0:0:
448,192,60988,1,0,0:0:0:0:
320,192,61123,1,0,0:0:0:0:
448,192,61123,1,0,0:0:0:0:
64,192,61123,1,0,0:0:0:0:
64,192,61258,1,0,0:0:0:0:
320,192,61393,1,0,0:0:0:0:
192,192,61393,1,0,0:0:0:0:
64,192,61528,1,0,0:0:0:0:
448,192,61528,1,0,0:0:0:0:
192,192,61596,1,0,0:0:0:0:
448,192,61664,1,0,0:0:0:0:
64,192,61664,1,0,0:0:0:0:
192,192,61731,1,0,0:0:0:0:
320,192,61799,1,0,0:0:0:0:
192,192,61934,1,0,0:0:0:0:
64,192,61934,1,0,0:0:0:0:
448,192,62069,1,0,0:0:0:0:
64,192,62204,1,0,0:0:0:0:
192,192,62204,1,0,0:0:0:0:
320,192,62204,1,0,0:0:0:0:
448,192,62339,1,0,0:0:0:0:
320,192,62474,1,0,0:0:0:0:
64,192,62474,1,0,0:0:0:0:
448,192,62610,1,0,0:0:0:0:
64,192,62745,1,0,0:0:0:0:
448,192,62745,1,0,0:0:0:0:
320,192,62812,1,0,0:0:0:0:
192,192,62880,1,0,0:0:0:0:
64,192,63015,1,0,0:0:0:0:
320,192,63015,1,0,0:0:0:0:
192,192,63150,1,0,0:0:0:0:
448,192,63150,1,0,0:0:0:0:
320,192,63218,1,0,0:0:0:0:
448,192,63285,1,0,0:0:0:0:
64,192,63285,1,0,0:0:0:0:
320,192,63420,1,0,0:0:0:0:
64,192,63555,1,0,0:0:0:0:
192,192,63555,1,0,0:0:0:0:
320,192,63691,1,0,0:0:0:0:
192,192,63758,1,0,0:0:0:0:
448,192,63826,1,0,0:0:0:0:
320,192,63826,1,0,0:0:0:0:
192,192,63893,1,0,0:0:0:0:
320,192,63961,1,0,0:0:0:0:
64,192,64096,1,0,0:0:0:0:
448,192,64096,1,0,0:0:0:0:
320,192,64231,1,0,0:0:0:0:
192,192,64299,1,0,0:0:0:0:
448,192,64366,1,0,0:0:0:0:
64,192,64366,1,0,0:0:0:0:
320,192,64366,1,0,0:0:0:0:
192,192,64501,1,0,0:0:0:0:
448,192,64637,1,0,0:0:0:0:
64,192,64772,1,0,0:0:0:0:
320,192,64839,1,0,0:0:0:0:
192,192,64907,1,0,0:0:0:0:
448,192,64907,1,0,0:0:0:0:
448,192,65042,1,0,0:0:0:0:
192,192,65110,1,0,0:0:0:0:
320,192,65177,1,0,0:0:0:0:
448,192,65177,1,0,0:0:0:0:
64,192,65177,1,0,0:0:0:0:
448,192,65312,1,0,0:0:0:0:
320,192,65312,1,0,0:0:0:0:
64,192,65312,1,0,0:0:0:0:
320,192,65447,1,0,0:0:0:0:
64,192,65447,1,0,0:0:0:0:
192,192,65447,1,0,0:0:0:0:
192,192,65582,1,0,0:0:0:0:
448,192,65718,1,0,0:0:0:0:
192,192,65718,1,0,0:0:0:0:
64,192,65853,1,0,0:0:0:0:
320,192,65920,1,0,0:0:0:0:
448,192,65988,1,0,0:0:0:0:
64,192,65988,1,0,0:0:0:0:
320,192,66055,1,0,0:0:0:0:
64,192,66123,1,0,0:0:0:0:
320,192,66258,1,0,0:0:0:0:
448,192,66258,1,0,0:0:0:0:
192,192,66393,1,0,0:0:0:0:
448,192,66461,1,0,0:0:0:0:
320,192,66528,1,0,0:0:0:0:
64,192,66528,1,0,0:0:0:0:
320,192,66664,1,0,0:0:0:0:
192,192,66799,1,0,0:0:0:0:
448,192,66799,1,0,0:0:0:0:
192,192,66934,1,0,0:0:0:0:
64,192,67069,1,0,0:0:0:0:
448,192,67137,1,0,0:0:0:0:
192,192,67204,1,0,0:0:0:0:
320,192,67272,1,0,0:0:0:0:
64,192,67339,1,0,0:0:0:0:
448,192,67407,1,0,0:0:0:0:
192,192,67474,1,0,0:0:0:0:
320,192,67542,1,0,0:0:0:0:
64,192,67610,1,0,0:0:0:0:
448,192,67610,1,0,0:0:0:0:
64,192,67745,1,0,0:0:0:0:
448,192,67745,1,0,0:0:0:0:
320,192,67880,1,0,0:0:0:0:
448,192,67880,1,0,0:0:0:0:
64,192,68015,1,0,0:0:0:0:
320,192,68082,1,0,0:0:0:0:
64,192,68150,1,0,0:0:0:0:
192,192,68150,1,0,0:0:0:0:
320,192,68218,1,0,0:0:0:0:
64,192,68285,1,0,0:0:0:0:
320,192,68420,1,0,0:0:0:0:
448,192,68420,1,0,0:0:0:0:
192,192,68555,1,0,0:0:0:0:
448,192,68623,1,0,0:0:0:0:
320,192,68691,1,0,0:0:0:0:
192,192,68691,1,0,0:0:0:0:
64,192,68691,1,0,0:0:0:0:
320,192,68826,1,0,0:0:0:0:
64,192,68961,1,0,0:0:0:0:
448,192,68961,1,0,0:0:0:0:
320,192,69096,1,0,0:0:0:0:
192,192,69164,1,0,0:0:0:0:
64,192,69231,1,0,0:0:0:0:
448,192,69231,1,0,0:0:0:0:
192,192,69366,1,0,0:0:0:0:
320,192,69434,1,0,0:0:0:0:
64,192,69501,1,0,0:0:0:0:
448,192,69501,1,0,0:0:0:0:
64,192,69637,1,0,0:0:0:0:
448,192,69637,1,0,0:0:0:0:
320,192,69772,1,0,0:0:0:0:
64,192,69772,1,0,0:0:0:0:
192,192,69772,1,0,0:0:0:0:
448,192,69907,1,0,0:0:0:0:
192,192,70042,1,0,0:0:0:0:
320,192,70042,1,0,0:0:0:0:
448,192,70110,1,0,0:0:0:0:
64,192,70177,1,0,0:0:0:0:
320,192,70245,1,0,0:0:0:0:
64,192,70312,1,0,0:0:0:0:
448,192,70380,1,0,0:0:0:0:
64,192,70447,1,0,0:0:0:0:
320,192,70515,1,0,0:0:0:0:
192,192,70582,1,0,0:0:0:0:
64,192,70582,1,0,0:0:0:0:
448,192,70718,1,0,0:0:0:0:
64,192,70853,1,0,0:0:0:0:
320,192,70988,1,0,0:0:0:0:
192,192,71123,1,0,0:0:0:0:
448,192,71123,1,0,0:0:0:0:
64,192,71191,1,0,0:0:0:0:
320,192,71258,1,0,0:0:0:0:
64,192,71326,1,0,0:0:0:0:
320,192,71393,1,0,0:0:0:0:
192,192,71461,1,0,0:0:0:0:
320,192,71528,1,0,0:0:0:0:
192,192,71596,1,0,0:0:0:0:
448,192,71664,1,0,0:0:0:0:
320,192,71664,1,0,0:0:0:0:
192,192,71799,1,0,0:0:0:0:
64,192,71934,1,0,0:0:0:0:
448,192,71934,1,0,0:0:0:0:
320,192,72069,1,0,0:0:0:0:
64,192,72204,1,0,0:0:0:0:
448,192,72204,1,0,0:0:0:0:
320,192,72272,1,0,0:0:0:0:
192,192,72339,1,0,0:0:0:0:
448,192,72407,1,0,0:0:0:0:
192,192,72474,1,0,0:0:0:0:
320,192,72542,1,0,0:0:0:0:
192,192,72610,1,0,0:0:0:0:
448,192,72677,1,0,0:0:0:0:
64,192,72745,1,0,0:0:0:0:
192,192,72745,1,0,0:0:0:0:
320,192,72880,1,0,0:0:0:0:
64,192,73015,1,0,0:0:0:0:
448,192,73015,1,0,0:0:0:0:
192,192,73150,1,0,0:0:0:0:
320,192,73285,1,0,0:0:0:0:
64,192,73285,1,0,0:0:0:0:
192,192,73353,1,0,0:0:0:0:
448,192,73420,1,0,0:0:0:0:
64,192,73488,1,0,0:0:0:0:
448,192,73555,1,0,0:0:0:0:
192,192,73623,1,0,0:0:0:0:
448,192,73691,1,0,0:0:0:0:
64,192,73758,1,0,0:0:0:0:
320,192,73826,1,0,0:0:0:0:
448,192,73826,1,0,0:0:0:0:
192,192,73961,1,0,0:0:0:0:
320,192,74096,1,0,0:0:0:0:
64,192,74096,1,0,0:0:0:0:
448,192,74096,1,0,0:0:0:0:
192,192,74231,1,0,0:0:0:0:
192,192,74366,1,0,0:0:0:0:
320,192,74366,1,0,0:0:0:0:
448,192,74434,1,0,0:0:0:0:
64,192,74501,1,0,0:0:0:0:
320,192,74569,1,0,0:0:0:0:
64,192,74637,1,0,0:0:0:0:
448,192,74704,1,0,0:0:0:0:
64,192,74772,1,0,0:0:0:0:
320,192,74839,1,0,0:0:0:0:
192,192,74907,1,0,0:0:0:0:
64,192,74907,1,0,0:0:0:0:
448,192,75042,1,0,0:0:0:0:
64,192,75177,1,0,0:0:0:0:
320,192,75312,1,0,0:0:0:0:
192,192,75447,1,0,0:0:0:0:
448,192,75447,1,0,0:0:0:0:
64,192,75515,1,0,0:0:0:0:
320,192,75582,1,0,0:0:0:0:
64,192,75650,1,0,0:0:0:0:
320,192,75718,1,0,0:0:0:0:
192,192,75785,1,0,0:0:0:0:
320,192,75853,1,0,0:0:0:0:
192,192,75920,1,0,0:0:0:0:
448,192,75988,1,0,0:0:0:0:
320,192,75988,1,0,0:0:0:0:
64,192,76123,1,0,0:0:0:0:
192,192,76258,1,0,0:0:0:0:
448,192,76258,1,0,0:0:0:0:
320,192,76393,1,0,0:0:0:0:
64,192,76528,1,0,0:0:0:0:
192,192,76528,1,0,0:0:0:0:
448,192,76596,1,0,0:0:0:0:
192,192,76664,1,0,0:0:0:0:
320,192,76731,1,0,0:0:0:0:
192,192,76799,1,0,0:0:0:0:
448,192,76866,1,0,0:0:0:0:
192,192,76934,1,0,0:0:0:0:
448,192,77001,1,0,0:0:0:0:
64,192,77069,1,0,0:0:0:0:
320,192,77069,1,0,0:0:0:0:
192,192,77204,1,0,0:0:0:0:
64,192,77339,1,0,0:0:0:0:
448,192,77339,1,0,0:0:0:0:
192,192,77474,1,0,0:0:0:0:
320,192,77610,1,0,0:0:0:0:
448,192,77610,1,0,0:0:0:0:
64,192,77677,1,0,0:0:0:0:
320,192,77745,1,0,0:0:0:0:
192,192,77812,1,0,0:0:0:0:
320,192,77880,1,0,0:0:0:0:
64,192,77947,1,0,0:0:0:0:
320,192,78015,1,0,0:0:0:0:
192,192,78082,1,0,0:0:0:0:
64,192,78150,1,0,0:0:0:0:
448,192,78150,1,0,0:0:0:0:
320,192,78285,1,0,0:0:0:0:
320,192,78420,1,0,0:0:0:0:
64,192,78420,1,0,0:0:0:0:
192,192,78420,1,0,0:0:0:0:
448,192,78555,1,0,0:0:0:0:
192,192,78691,1,0,0:0:0:0:
320,192,78691,1,0,0:0:0:0:
448,192,78758,1,0,0:0:0:0:
64,192,78826,1,0,0:0:0:0:
320,192,78893,1,0,0:0:0:0:
64,192,78961,1,0,0:0:0:0:
448,192,79028,1,0,0:0:0:0:
64,192,79096,1,0,0:0:0:0:
320,192,79164,1,0,0:0:0:0:
192,192,79231,1,0,0:0:0:0:
64,192,79231,1,0,0:0:0:0:
448,192,79366,1,0,0:0:0:0:
64,192,79501,1,0,0:0:0:0:
320,192,79637,1,0,0:0:0:0:
192,192,79772,1,0,0:0:0:0:
448,192,79772,1,0,0:0:0:0:
64,192,79839,1,0,0:0:0:0:
320,192,79907,1,0,0:0:0:0:
64,192,79974,1,0,0:0:0:0:
320,192,80042,1,0,0:0:0:0:
192,192,80110,1,0,0:0:0:0:
320,192,80177,1,0,0:0:0:0:
192,192,80245,1,0,0:0:0:0:
448,192,80312,1,0,0:0:0:0:
320,192,80312,1,0,0:0:0:0:
192,192,80447,1,0,0:0:0:0:
64,192,80582,1,0,0:0:0:0:
448,192,80582,1,0,0:0:0:0:
320,192,80718,1,0,0:0:0:0:
64,192,80853,1,0,0:0:0:0:
448,192,80853,1,0,0:0:0:0:
320,192,80920,1,0,0:0:0:0:
192,192,80988,1,0,0:0:0:0:
448,192,81055,1,0,0:0:0:0:
192,192,81123,1,0,0:0:0:0:
320,192,81191,1,0,0:0:0:0:
192,192,81258,1,0,0:0:0:0:
448,192,81326,1,0,0:0:0:0:
64,192,81393,1,0,0:0:0:0:
192,192,81393,1,0,0:0:0:0:
320,192,81528,1,0,0:0:0:0:
64,192,81664,1,0,0:0:0:0:
448,192,81664,1,0,0:0:0:0:
192,192,81799,1,0,0:0:0:0:
320,192,81934,1,0,0:0:0:0:
64,192,81934,1,0,0:0:0:0:
192,192,82001,1,0,0:0:0:0:
448,192,82069,1,0,0:0:0:0:
64,192,82137,1,0,0:0:0:0:
448,192,82204,1,0,0:0:0:0:
192,192,82272,1,0,0:0:0:0:
448,192,82339,1,0,0:0:0:0:
64,192,82407,1,0,0:0:0:0:
320,192,82474,1,0,0:0:0:0:
448,192,82474,1,0,0:0:0:0:
192,192,82610,1,0,0:0:0:0:
320,192,82745,1,0,0:0:0:0:
64,192,82745,1,0,0:0:0:0:
448,192,82745,1,0,0:0:0:0:
192,192,82880,1,0,0:0:0:0:
192,192,83015,1,0,0:0:0:0:
320,192,83015,1,0,0:0:0:0:
448,192,83082,1,0,0:0:0:0:
64,192,83150,1,0,0:0:0:0:
320,192,83218,1,0,0:0:0:0:
64,192,83285,1,0,0:0:0:0:
448,192,83353,1,0,0:0:0:0:
64,192,83420,1,0,0:0:0:0:
320,192,83488,1,0,0:0:0:0:
192,192,83555,1,0,0:0:0:0:
64,192,83555,1,0,0:0:0:0:
448,192,83691,1,0,0:0:0:0:
64,192,83826,1,0,0:0:0:0:
320,192,83961,1,0,0:0:0:0:
192,192,84096,1,0,0:0:0:0:
448,192,84096,1,0,0:0:0:0:
64,192,84164,1,0,0:0:0:0:
320,192,84231,1,0,0:0:0:0:
64,192,84299,1,0,0:0:0:0:
320,192,84366,1,0,0:0:0:0:
192,192,84434,1,0,0:0:0:0:
320,192,84501,1,0,0:0:0:0:
192,192,84569,1,0,0:0:0:0:
448,192,84637,1,0,0:0:0:0:
320,192,84637,1,0,0:0:0:0:
64,192,84772,1,0,0:0:0:0:
192,192,84907,1,0,0:0:0:0:
448,192,84907,1,0,0:0:0:0:
320,192,85042,1,0,0:0:0:0:
64,192,85177,1,0,0:0:0:0:
192,192,85177,1,0,0:0:0:0:
448,192,85245,1,0,0:0:0:0:
192,192,85312,1,0,0:0:0:0:
320,192,85380,1,0,0:0:0:0:
192,192,85447,1,0,0:0:0:0:
448,192,85515,1,0,0:0:0:0:
192,192,85582,1,0,0:0:0:0:
448,192,85650,1,0,0:0:0:0:
64,192,85718,1,0,0:0:0:0:
320,192,85718,1,0,0:0:0:0:
192,192,85853,1,0,0:0:0:0:
64,192,85988,1,0,0:0:0:0:
448,192,85988,1,0,0:0:0:0:
192,192,86123,1,0,0:0:0:0:
320,192,86258,1,0,0:0:0:0:
448,192,86258,1,0,0:0:0:0:
64,192,86326,1,0,0:0:0:0:
320,192,86393,1,0,0:0:0:0:
192,192,86461,1,0,0:0:0:0:
320,192,86528,1,0,0:0:0:0:
64,192,86596,1,0,0:0:0:0:
320,192,86664,1,0,0:0:0:0:
192,192,86731,1,0,0:0:0:0:
64,192,86799,1,0,0:0:0:0:
448,192,86799,1,0,0:0:0:0:
320,192,86934,1,0,0:0:0:0:
192,192,87069,1,0,0:0:0:0:
448,192,87069,1,0,0:0:0:0:
320,192,87069,1,0,0:0:0:0:
64,192,87204,1,0,0:0:0:0:
320,192,87339,1,0,0:0:0:0:
192,192,87339,1,0,0:0:0:0:
64,192,87407,1,0,0:0:0:0:
448,192,87474,1,0,0:0:0:0:
192,192,87542,1,0,0:0:0:0:
448,192,87610,1,0,0:0:0:0:
64,192,87677,1,0,0:0:0:0:
448,192,87745,1,0,0:0:0:0:
192,192,87812,1,0,0:0:0:0:
320,192,87880,1,0,0:0:0:0:
448,192,87880,1,0,0:0:0:0:
64,192,88015,1,0,0:0:0:0:
448,192,88150,1,0,0:0:0:0:
192,192,88285,1,0,0:0:0:0:
320,192,88420,1,0,0:0:0:0:
64,192,88420,1,0,0:0:0:0:
448,192,88488,1,0,0:0:0:0:
192,192,88555,1,0,0:0:0:0:
448,192,88623,1,0,0:0:0:0:
192,192,88691,1,0,0:0:0:0:
320,192,88758,1,0,0:0:0:0:
192,192,88826,1,0,0:0:0:0:
320,192,88893,1,0,0:0:0:0:
64,192,88961,1,0,0:0:0:0:
192,192,88961,1,0,0:0:0:0:
320,192,89096,1,0,0:0:0:0:
448,192,89231,1,0,0:0:0:0:
64,192,89231,1,0,0:0:0:0:
192,192,89366,1,0,0:0:0:0:
448,192,89501,1,0,0:0:0:0:
64,192,89501,1,0,0:0:0:0:
192,192,89569,1,0,0:0:0:0:
320,192,89637,1,0,0:0:0:0:
64,192,89704,1,0,0:0:0:0:
320,192,89772,1,0,0:0:0:0:
192,192,89839,1,0,0:0:0:0:
320,192,89907,1,0,0:0:0:0:
64,192,89974,1,0,0:0:0:0:
448,192,90042,1,0,0:0:0:0:
320,192,90042,1,0,0:0:0:0:
192,192,90177,1,0,0:0:0:0:
448,192,90312,1,0,0:0:0:0:
64,192,90312,1,0,0:0:0:0:
320,192,90447,1,0,0:0:0:0:
192,192,90582,1,0,0:0:0:0:
448,192,90582,1,0,0:0:0:0:
320,192,90650,1,0,0:0:0:0:
64,192,90718,1,0,0:0:0:0:
448,192,90785,1,0,0:0:0:0:
64,192,90853,1,0,0:0:0:0:
320,192,90920,1,0,0:0:0:0:
64,192,90988,1,0,0:0:0:0:
448,192,91055,1,0,0:0:0:0:
192,192,91123,1,0,0:0:0:0:
64,192,91123,1,0,0:0:0:0:
320,192,91258,1,0,0:0:0:0:
192,192,91393,1,0,0:0:0:0:
448,192,91393,1,0,0:0:0:0:
64,192,91393,1,0,0:0:0:0:
320,192,91528,1,0,0:0:0:0:
320,192,91664,1,0,0:0:0:0:
192,192,91664,1,0,0:0:0:0:
64,192,91731,1,0,0:0:0:0:
448,192,91799,1,0,0:0:0:0:
192,192,91866,1,0,0:0:0:0:
448,192,91934,1,0,0:0:0:0:
64,192,92001,1,0,0:0:0:0:
448,192,92069,1,0,0:0:0:0:
192,192,92137,1,0,0:0:0:0:
320,192,92204,1,0,0:0:0:0:
448,192,92204,1,0,0:0:0:0:
64,192,92339,1,0,0:0:0:0:
448,192,92474,1,0,0:0:0:0:
192,192,92610,1,0,0:0:0:0:
320,192,92745,1,0,0:0:0:0:
64,192,92745,1,0,0:0:0:0:
448,192,92812,1,0,0:0:0:0:
192,192,92880,1,0,0:0:0:0:
448,192,92947,1,0,0:0:0:0:
192,192,93015,1,0,0:0:0:0:
320,192,93082,1,0,0:0:0:0:
192,192,93150,1,0,0:0:0:0:
320,192,93218,1,0,0:0:0:0:
64,192,93285,1,0,0:0:0:0:
192,192,93285,1,0,0:0:0:0:
448,192,93420,1,0,0:0:0:0:
320,192,93555,1,0,0:0:0:0:
64,192,93555,1,0,0:0:0:0:
192,192,93691,1,0,0:0:0:0:
448,192,93826,1,0,0:0:0:0:
320,192,93826,1,0,0:0:0:0:
64,192,93893,1,0,0:0:0:0:
320,192,93961,1,0,0:0:0:0:
192,192,94028,1,0,0:0:0:0:
320,192,94096,1,0,0:0:0:0:
64,192,94164,1,0,0:0:0:0:
320,192,94231,1,0,0:0:0:0:
64,192,94299,1,0,0:0:0:0:
448,192,94366,1,0,0:0:0:0:
192,192,94366,1,0,0:0:0:0:
320,192,94501,1,0,0:0:0:0:
448,192,94637,1,0,0:0:0:0:
64,192,94637,1,0,0:0:0:0:
320,192,94772,1,0,0:0:0:0:
192,192,94907,1,0,0:0:0:0:
64,192,94907,1,0,0:0:0:0:
448,192,94974,1,0,0:0:0:0:
192,192,95042,1,0,0:0:0:0:
320,192,95110,1,0,0:0:0:0:
192,192,95177,1,0,0:0:0:0:
448,192,95245,1,0,0:0:0:0:
192,192,95312,1,0,0:0:0:0:
320,192,95380,1,0,0:0:0:0:
448,192,95447,1,0,0:0:0:0:
64,192,95447,1,0,0:0:0:0:
192,192,95582,1,0,0:0:0:0:
192,192,95718,1,0,0:0:0:0:
448,192,95718,1,0,0:0:0:0:
320,192,95718,1,0,0:0:0:0:
64,192,95853,1,0,0:0:0:0:
320,192,95988,1,0,0:0:0:0:
192,192,95988,1,0,0:0:0:0:
64,192,96055,1,0,0:0:0:0:
448,192,96123,1,0,0:0:0:0:
192,192,96191,1,0,0:0:0:0:
448,192,96258,1,0,0:0:0:0:
64,192,96326,1,0,0:0:0:0:
448,192,96393,1,0,0:0:0:0:
192,192,96461,1,0,0:0:0:0:
320,192,96528,1,0,0:0:0:0:
448,192,96528,1,0,0:0:0:0:
64,192,96664,1,0,0:0:0:0:
448,192,96799,1,0,0:0:0:0:
192,192,96934,1,0,0:0:0:0:
320,192,97069,1,0,0:0:0:0:
64,192,97069,1,0,0:0:0:0:
448,192,97137,1,0,0:0:0:0:
192,192,97204,1,0,0:0:0:0:
448,192,97272,1,0,0:0:0:0:
192,192,97339,1,0,0:0:0:0:
320,192,97407,1,0,0:0:0:0:
192,192,97474,1,0,0:0:0:0:
320,192,97542,1,0,0:0:0:0:
64,192,97610,1,0,0:0:0:0:
192,192,97610,1,0,0:0:0:0:
320,192,97745,1,0,0:0:0:0:
448,192,97880,1,0,0:0:0:0:
64,192,97880,1,0,0:0:0:0:
192,192,98015,1,0,0:0:0:0:
448,192,98150,1,0,0:0:0:0:
64,192,98150,1,0,0:0:0:0:
192,192,98218,1,0,0:0:0:0:
320,192,98285,1,0,0:0:0:0:
64,192,98353,1,0,0:0:0:0:
320,192,98420,1,0,0:0:0:0:
192,192,98488,1,0,0:0:0:0:
320,192,98555,1,0,0:0:0:0:
64,192,98623,1,0,0:0:0:0:
448,192,98691,1,0,0:0:0:0:
320,192,98691,1,0,0:0:0:0:
192,192,98826,1,0,0:0:0:0:
448,192,98961,1,0,0:0:0:0:
64,192,98961,1,0,0:0:0:0:
320,192,99096,1,0,0:0:0:0:
192,192,99231,1,0,0:0:0:0:
448,192,99231,1,0,0:0:0:0:
320,192,99299,1,0,0:0:0:0:
64,192,99366,1,0,0:0:0:0:
448,192,99434,1,0,0:0:0:0:
64,192,99501,1,0,0:0:0:0:
320,192,99569,1,0,0:0:0:0:
64,192,99637,1,0,0:0:0:0:
448,192,99704,1,0,0:0:0:0:
192,192,99772,1,0,0:0:0:0:
64,192,99772,1,0,0:0:0:0:
320,192,99907,1,0,0:0:0:0:
192,192,100042,1,0,0:0:0:0:
448,192,100042,1,0,0:0:0:0:
64,192,100042,1,0,0:0:0:0:
320,192,100177,1,0,0:0:0:0:
320,192,100312,1,0,0:0:0:0:
192,192,100312,1,0,0:0:0:0:
64,192,100380,1,0,0:0:0:0:
448,192,100447,1,0,0:0:0:0:
192,192,100515,1,0,0:0:0:0:
448,192,100582,1,0,0:0:0:0:
64,192,100650,1,0,0:0:0:0:
448,192,100718,1,0,0:0:0:0:
192,192,100785,1,0,0:0:0:0:
320,192,100853,1,0,0:0:0:0:
448,192,100853,1,0,0:0:0:0:
64,192,100988,1,0,0:0:0:0:
448,192,101123,1,0,0:0:0:0:
192,192,101258,1,0,0:0:0:0:
320,192,101393,1,0,0:0:0:0:
64,192,101393,1,0,0:0:0:0:
448,192,101461,1,0,0:0:0:0:
192,192,101528,1,0,0:0:0:0:
448,192,101596,1,0,0:0:0:0:
192,192,101664,1,0,0:0:0:0:
320,192,101731,1,0,0:0:0:0:
192,192,101799,1,0,0:0:0:0:
320,192,101866,1,0,0:0:0:0:
64,192,101934,1,0,0:0:0:0:
192,192,101934,1,0,0:0:0:0:
448,192,102069,1,0,0:0:0:0:
320,192,102204,1,0,0:0:0:0:
64,192,102204,1,0,0:0:0:0:
192,192,102339,1,0,0:0:0:0:
448,192,102474,1,0,0:0:0:0:
320,192,102474,1,0,0:0:0:0:
64,192,102542,1,0,0:0:0:0:
320,192,102610,1,0,0:0:0:0:
192,192,102677,1,0,0:0:0:0:
320,192,102745,1,0,0:0:0:0:
64,192,102812,1,0,0:0:0:0:
320,192,102880,1,0,0:0:0:0:
64,192,102947,1,0,0:0:0:0:
448,192,103015,1,0,0:0:0:0:
192,192,103015,1,0,0:0:0:0:
320,192,103150,1,0,0:0:0:0:
192,192,103285,5,0,0:0:0:0:
64,192,103285,1,0,0:0:0:0:
64,192,103420,1,0,0:0:0:0:
320,192,103420,1,0,0:0:0:0:
192,192,103555,1,0,0:0:0:0:
320,192,103555,1,0,0:0:0:0:
192,192,103691,1,0,0:0:0:0:
448,192,103691,1,0,0:0:0:0:
64,192,103826,1,0,0:0:0:0:
320,192,103826,1,0,0:0:0:0:
448,192,103826,1,0,0:0:0:0:
64,192,104028,1,0,0:0:0:0:
192,192,104028,1,0,0:0:0:0:
448,192,104028,1,0,0:0:0:0:
64,192,104231,1,0,0:0:0:0:
320,192,104231,1,0,0:0:0:0:
448,192,104231,1,0,0:0:0:0:
64,192,104366,5,0,0:0:0:0:
192,192,104366,1,0,0:0:0:0:
448,192,104366,1,0,0:0:0:0:
320,192,104366,1,0,0:0:0:0:
64,192,104501,1,0,0:0:0:0:
320,192,104501,1,0,0:0:0:0:
192,192,104637,1,0,0:0:0:0:
320,192,104637,1,0,0:0:0:0:
192,192,104772,1,0,0:0:0:0:
448,192,104772,1,0,0:0:0:0:
64,192,104907,1,0,0:0:0:0:
320,192,104907,1,0,0:0:0:0:
448,192,104907,1,0,0:0:0:0:
320,192,105042,1,0,0:0:0:0:
192,192,105042,1,0,0:0:0:0:
64,192,105177,1,0,0:0:0:0:
192,192,105177,1,0,0:0:0:0:
320,192,105245,1,0,0:0:0:0:
448,192,105312,1,0,0:0:0:0:
64,192,105380,1,0,0:0:0:0:
192,192,105447,1,0,0:0:0:0:
320,192,105447,1,0,0:0:0:0:
448,192,105515,1,0,0:0:0:0:
320,192,105582,1,0,0:0:0:0:
192,192,105650,1,0,0:0:0:0:
64,192,105718,1,0,0:0:0:0:
320,192,105785,1,0,0:0:0:0:
448,192,105853,1,0,0:0:0:0:
64,192,105920,1,0,0:0:0:0:
192,192,105988,1,0,0:0:0:0:
320,192,106033,1,0,0:0:0:0:
448,192,106078,1,0,0:0:0:0:
64,192,106123,1,0,0:0:0:0:
320,192,106168,1,0,0:0:0:0:
448,192,106213,1,0,0:0:0:0:
192,192,106258,1,0,0:0:0:0:
320,192,106303,1,0,0:0:0:0:
448,192,106348,1,0,0:0:0:0:
64,192,106393,1,0,0:0:0:0:
320,192,106438,1,0,0:0:0:0:
448,192,106483,1,0,0:0:0:0:
64,192,106528,1,0,0:0:0:0:
192,192,106528,1,0,0:0:0:0:
320,192,106596,1,0,0:0:0:0:
192,192,106664,1,0,0:0:0:0:
64,192,106731,1,0,0:0:0:0:
448,192,106799,1,0,0:0:0:0:
320,192,106799,1,0,0:0:0:0:
192,192,106934,1,0,0:0:0:0:
320,192,106934,1,0,0:0:0:0:
64,192,107069,1,0,0:0:0:0:
448,192,107137,1,0,0:0:0:0:
64,192,107204,1,0,0:0:0:0:
192,192,107204,1,0,0:0:0:0:
320,192,107339,1,0,0:0:0:0:
64,192,107384,1,0,0:0:0:0:
448,192,107429,1,0,0:0:0:0:
192,192,107474,1,0,0:0:0:0:
64,192,107519,1,0,0:0:0:0:
448,192,107564,1,0,0:0:0:0:
320,192,107610,1,0,0:0:0:0:
64,192,107655,1,0,0:0:0:0:
448,192,107700,1,0,0:0:0:0:
192,192,107745,1,0,0:0:0:0:
64,192,107790,1,0,0:0:0:0:
448,192,107835,1,0,0:0:0:0:
320,192,107880,1,0,0:0:0:0:
192,192,107925,1,0,0:0:0:0:
64,192,107970,1,0,0:0:0:0:
320,192,108015,1,0,0:0:0:0:
448,192,108060,1,0,0:0:0:0:
64,192,108105,1,0,0:0:0:0:
192,192,108150,1,0,0:0:0:0:
320,192,108150,1,0,0:0:0:0:
64,192,108285,1,0,0:0:0:0:
448,192,108285,1,0,0:0:0:0:
64,192,108420,1,0,0:0:0:0:
320,192,108420,1,0,0:0:0:0:
192,192,108555,1,0,0:0:0:0:
320,192,108555,1,0,0:0:0:0:
64,192,108691,1,0,0:0:0:0:
192,192,108691,1,0,0:0:0:0:
448,192,108691,1,0,0:0:0:0:
64,192,108826,1,0,0:0:0:0:
320,192,108826,1,0,0:0:0:0:
64,192,108961,1,0,0:0:0:0:
192,192,108961,1,0,0:0:0:0:
192,192,109096,1,0,0:0:0:0:
320,192,109096,1,0,0:0:0:0:
448,192,109096,1,0,0:0:0:0:
320,192,109231,1,0,0:0:0:0:
448,192,109231,1,0,0:0:0:0:
64,192,109366,1,0,0:0:0:0:
448,192,109366,1,0,0:0:0:0:
64,192,109501,1,0,0:0:0:0:
192,192,109501,1,0,0:0:0:0:
320,192,109501,1,0,0:0:0:0:
192,192,109637,1,0,0:0:0:0:
320,192,109637,1,0,0:0:0:0:
320,192,109772,1,0,0:0:0:0:
448,192,109772,1,0,0:0:0:0:
192,192,109907,1,0,0:0:0:0:
320,192,109974,1,0,0:0:0:0:
64,192,110042,1,0,0:0:0:0:
448,192,110042,1,0,0:0:0:0:
192,192,110177,1,0,0:0:0:0:
320,192,110177,1,0,0:0:0:0:
64,192,110312,1,0,0:0:0:0:
320,192,110380,1,0,0:0:0:0:
192,192,110447,1,0,0:0:0:0:
448,192,110515,1,0,0:0:0:0:
64,192,110582,1,0,0:0:0:0:
192,192,110628,1,0,0:0:0:0:
320,192,110673,1,0,0:0:0:0:
448,192,110718,1,0,0:0:0:0:
64,192,110763,1,0,0:0:0:0:
192,192,110808,1,0,0:0:0:0:
448,192,110853,1,0,0:0:0:0:
320,192,110898,1,0,0:0:0:0:
192,192,110943,1,0,0:0:0:0:
64,192,110988,1,0,0:0:0:0:
448,192,111033,1,0,0:0:0:0:
320,192,111078,1,0,0:0:0:0:
192,192,111123,1,0,0:0:0:0:
64,192,111123,1,0,0:0:0:0:
448,192,111191,1,0,0:0:0:0:
64,192,111258,1,0,0:0:0:0:
448,192,111326,1,0,0:0:0:0:
192,192,111393,1,0,0:0:0:0:
320,192,111393,1,0,0:0:0:0:
64,192,111438,1,0,0:0:0:0:
448,192,111483,1,0,0:0:0:0:
192,192,111528,1,0,0:0:0:0:
64,192,111573,1,0,0:0:0:0:
320,192,111619,1,0,0:0:0:0:
192,192,111664,1,0,0:0:0:0:
64,192,111709,1,0,0:0:0:0:
448,192,111754,1,0,0:0:0:0:
192,192,111799,1,0,0:0:0:0:
64,192,111844,1,0,0:0:0:0:
320,192,111889,1,0,0:0:0:0:
448,192,111934,1,0,0:0:0:0:
192,192,111934,1,0,0:0:0:0:
448,192,112069,1,0,0:0:0:0:
64,192,112069,1,0,0:0:0:0:
64,192,112204,1,0,0:0:0:0:
320,192,112204,1,0,0:0:0:0:
448,192,112272,1,0,0:0:0:0:
192,192,112339,1,0,0:0:0:0:
320,192,112407,1,0,0:0:0:0:
64,192,112474,1,0,0:0:0:0:
192,192,112519,1,0,0:0:0:0:
320,192,112564,1,0,0:0:0:0:
448,192,112610,1,0,0:0:0:0:
64,192,112655,1,0,0:0:0:0:
192,192,112700,1,0,0:0:0:0:
320,192,112745,1,0,0:0:0:0:
448,192,112790,1,0,0:0:0:0:
192,192,112835,1,0,0:0:0:0:
64,192,112880,1,0,0:0:0:0:
448,192,112925,1,0,0:0:0:0:
320,192,112970,1,0,0:0:0:0:
192,192,113015,1,0,0:0:0:0:
64,192,113015,1,0,0:0:0:0:
64,192,113150,1,0,0:0:0:0:
448,192,113150,1,0,0:0:0:0:
320,192,113285,1,0,0:0:0:0:
448,192,113285,1,0,0:0:0:0:
64,192,113420,1,0,0:0:0:0:
192,192,113420,1,0,0:0:0:0:
320,192,113420,1,0,0:0:0:0:
64,192,113555,1,0,0:0:0:0:
192,192,113555,1,0,0:0:0:0:
64,192,113691,1,0,0:0:0:0:
448,192,113691,1,0,0:0:0:0:
192,192,113826,1,0,0:0:0:0:
320,192,113871,1,0,0:0:0:0:
448,192,113916,1,0,0:0:0:0:
64,192,113961,1,0,0:0:0:0:
320,192,114006,1,0,0:0:0:0:
448,192,114051,1,0,0:0:0:0:
192,192,114096,1,0,0:0:0:0:
64,192,114141,1,0,0:0:0:0:
448,192,114186,1,0,0:0:0:0:
320,192,114231,1,0,0:0:0:0:
192,192,114276,1,0,0:0:0:0:
64,192,114321,1,0,0:0:0:0:
448,192,114366,1,0,0:0:0:0:
320,192,114366,1,0,0:0:0:0:
448,192,114501,1,0,0:0:0:0:
192,192,114501,1,0,0:0:0:0:
448,192,114637,1,0,0:0:0:0:
64,192,114637,1,0,0:0:0:0:
192,192,114704,1,0,0:0:0:0:
320,192,114772,1,0,0:0:0:0:
448,192,114839,1,0,0:0:0:0:
64,192,114907,1,0,0:0:0:0:
192,192,114907,1,0,0:0:0:0:
320,192,114974,1,0,0:0:0:0:
192,192,115042,1,0,0:0:0:0:
448,192,115110,1,0,0:0:0:0:
64,192,115177,1,0,0:0:0:0:
320,192,115177,1,0,0:0:0:0:
192,192,115222,1,0,0:0:0:0:
320,192,115267,1,0,0:0:0:0:
64,192,115312,1,0,0:0:0:0:
448,192,115312,1,0,0:0:0:0:
64,192,115447,1,0,0:0:0:0:
192,192,115447,1,0,0:0:0:0:
448,192,115515,1,0,0:0:0:0:
192,192,115582,1,0,0:0:0:0:
448,192,115650,1,0,0:0:0:0:
192,192,115718,1,0,0:0:0:0:
320,192,115718,1,0,0:0:0:0:
320,192,115853,1,0,0:0:0:0:
64,192,115853,1,0,0:0:0:0:
64,192,115988,1,0,0:0:0:0:
192,192,115988,1,0,0:0:0:0:
320,192,116123,1,0,0:0:0:0:
64,192,116258,1,0,0:0:0:0:
448,192,116258,1,0,0:0:0:0:
192,192,116258,1,0,0:0:0:0:
192,192,116393,1,0,0:0:0:0:
320,192,116438,1,0,0:0:0:0:
448,192,116483,1,0,0:0:0:0:
64,192,116528,1,0,0:0:0:0:
320,192,116573,1,0,0:0:0:0:
448,192,116619,1,0,0:0:0:0:
192,192,116664,1,0,0:0:0:0:
320,192,116709,1,0,0:0:0:0:
448,192,116754,1,0,0:0:0:0:
64,192,116799,1,0,0:0:0:0:
192,192,116799,1,0,0:0:0:0:
320,192,116934,1,0,0:0:0:0:
192,192,117069,1,0,0:0:0:0:
64,192,117204,1,0,0:0:0:0:
448,192,117272,1,0,0:0:0:0:
192,192,117339,1,0,0:0:0:0:
320,192,117339,1,0,0:0:0:0:
64,192,117339,1,0,0:0:0:0:
320,192,117474,1,0,0:0:0:0:
64,192,117474,1,0,0:0:0:0:
192,192,117610,1,0,0:0:0:0:
320,192,117610,1,0,0:0:0:0:
64,192,117745,1,0,0:0:0:0:
192,192,117745,1,0,0:0:0:0:
448,192,117745,1,0,0:0:0:0:
64,192,117880,1,0,0:0:0:0:
448,192,117880,1,0,0:0:0:0:
320,192,118015,1,0,0:0:0:0:
64,192,118015,1,0,0:0:0:0:
192,192,118150,1,0,0:0:0:0:
320,192,118195,1,0,0:0:0:0:
448,192,118240,1,0,0:0:0:0:
192,192,118285,1,0,0:0:0:0:
64,192,118330,1,0,0:0:0:0:
320,192,118375,1,0,0:0:0:0:
448,192,118420,1,0,0:0:0:0:
192,192,118420,1,0,0:0:0:0:
448,192,118555,1,0,0:0:0:0:
64,192,118555,1,0,0:0:0:0:
192,192,118691,1,0,0:0:0:0:
320,192,118691,1,0,0:0:0:0:
64,192,118826,1,0,0:0:0:0:
192,192,118871,1,0,0:0:0:0:
320,192,118916,1,0,0:0:0:0:
64,192,118961,1,0,0:0:0:0:
192,192,119006,1,0,0:0:0:0:
448,192,119051,1,0,0:0:0:0:
64,192,119096,1,0,0:0:0:0:
320,192,119141,1,0,0:0:0:0:
448,192,119186,1,0,0:0:0:0:
64,192,119231,1,0,0:0:0:0:
320,192,119299,1,0,0:0:0:0:
192,192,119366,1,0,0:0:0:0:
448,192,119434,1,0,0:0:0:0:
64,192,119501,1,0,0:0:0:0:
320,192,119501,1,0,0:0:0:0:
192,192,119569,1,0,0:0:0:0:
448,192,119637,1,0,0:0:0:0:
320,192,119704,1,0,0:0:0:0:
64,192,119772,1,0,0:0:0:0:
192,192,119772,1,0,0:0:0:0:
448,192,119839,1,0,0:0:0:0:
192,192,119907,1,0,0:0:0:0:
64,192,119974,1,0,0:0:0:0:
320,192,120042,1,0,0:0:0:0:
192,192,120042,1,0,0:0:0:0:
64,192,120110,1,0,0:0:0:0:
448,192,120177,1,0,0:0:0:0:
320,192,120177,1,0,0:0:0:0:
64,192,120245,1,0,0:0:0:0:
320,192,120312,1,0,0:0:0:0:
192,192,120312,1,0,0:0:0:0:
448,192,120357,1,0,0:0:0:0:
64,192,120402,1,0,0:0:0:0:
192,192,120447,1,0,0:0:0:0:
320,192,120492,1,0,0:0:0:0:
448,192,120537,1,0,0:0:0:0:
64,192,120582,1,0,0:0:0:0:
192,192,120582,1,0,0:0:0:0:
64,192,120718,1,0,0:0:0:0:
448,192,120718,1,0,0:0:0:0:
192,192,120853,1,0,0:0:0:0:
448,192,120853,1,0,0:0:0:0:
320,192,120853,1,0,0:0:0:0:
64,192,120988,1,0,0:0:0:0:
192,192,120988,1,0,0:0:0:0:
320,192,120988,1,0,0:0:0:0:
192,192,121123,1,0,0:0:0:0:
448,192,121123,1,0,0:0:0:0:
448,192,121258,1,0,0:0:0:0:
320,192,121258,1,0,0:0:0:0:
64,192,121258,1,0,0:0:0:0:
64,192,121393,1,0,0:0:0:0:
192,192,121393,1,0,0:0:0:0:
448,192,121393,1,0,0:0:0:0:
192,192,121528,1,0,0:0:0:0:
64,192,121664,5,0,0:0:0:0:
320,192,121664,1,0,0:0:0:0:
448,192,121664,1,0,0:0:0:0:
192,192,121799,1,0,0:0:0:0:
320,192,121799,1,0,0:0:0:0:
192,192,121934,1,0,0:0:0:0:
448,192,121934,1,0,0:0:0:0:
64,192,122069,1,0,0:0:0:0:
448,192,122069,1,0,0:0:0:0:
320,192,122069,1,0,0:0:0:0:
192,192,122204,1,0,0:0:0:0:
320,192,122204,1,0,0:0:0:0:
64,192,122339,1,0,0:0:0:0:
192,192,122339,1,0,0:0:0:0:
64,192,122474,1,0,0:0:0:0:
448,192,122474,1,0,0:0:0:0:
320,192,122542,1,0,0:0:0:0:
192,192,122610,1,0,0:0:0:0:
448,192,122677,1,0,0:0:0:0:
192,192,122745,1,0,0:0:0:0:
64,192,122745,1,0,0:0:0:0:
320,192,122812,1,0,0:0:0:0:
192,192,122880,1,0,0:0:0:0:
64,192,122947,1,0,0:0:0:0:
448,192,123015,1,0,0:0:0:0:
192,192,123082,1,0,0:0:0:0:
320,192,123150,1,0,0:0:0:0:
64,192,123218,1,0,0:0:0:0:
192,192,123285,1,0,0:0:0:0:
320,192,123330,1,0,0:0:0:0:
448,192,123375,1,0,0:0:0:0:
64,192,123420,1,0,0:0:0:0:
320,192,123465,1,0,0:0:0:0:
448,192,123510,1,0,0:0:0:0:
192,192,123555,1,0,0:0:0:0:
320,192,123601,1,0,0:0:0:0:
448,192,123646,1,0,0:0:0:0:
64,192,123691,1,0,0:0:0:0:
320,192,123736,1,0,0:0:0:0:
448,192,123781,1,0,0:0:0:0:
64,192,123826,1,0,0:0:0:0:
192,192,123826,1,0,0:0:0:0:
320,192,123893,1,0,0:0:0:0:
192,192,123961,1,0,0:0:0:0:
64,192,124028,1,0,0:0:0:0:
448,192,124096,1,0,0:0:0:0:
320,192,124096,1,0,0:0:0:0:
192,192,124231,1,0,0:0:0:0:
320,192,124231,1,0,0:0:0:0:
64,192,124366,1,0,0:0:0:0:
448,192,124434,1,0,0:0:0:0:
64,192,124501,1,0,0:0:0:0:
192,192,124501,1,0,0:0:0:0:
320,192,124637,1,0,0:0:0:0:
64,192,124682,1,0,0:0:0:0:
448,192,124727,1,0,0:0:0:0:
192,192,124772,1,0,0:0:0:0:
64,192,124817,1,0,0:0:0:0:
448,192,124862,1,0,0:0:0:0:
320,192,124907,1,0,0:0:0:0:
64,192,124952,1,0,0:0:0:0:
448,192,124997,1,0,0:0:0:0:
192,192,125042,1,0,0:0:0:0:
64,192,125087,1,0,0:0:0:0:
448,192,125132,1,0,0:0:0:0:
320,192,125177,1,0,0:0:0:0:
192,192,125222,1,0,0:0:0:0:
64,192,125267,1,0,0:0:0:0:
320,192,125312,1,0,0:0:0:0:
448,192,125357,1,0,0:0:0:0:
64,192,125402,1,0,0:0:0:0:
192,192,125447,1,0,0:0:0:0:
320,192,125447,1,0,0:0:0:0:
192,192,125582,1,0,0:0:0:0:
192,192,125718,1,0,0:0:0:0:
448,192,125718,1,0,0:0:0:0:
320,192,125853,1,0,0:0:0:0:
448,192,125853,1,0,0:0:0:0:
64,192,125988,1,0,0:0:0:0:
192,192,125988,1,0,0:0:0:0:
320,192,125988,1,0,0:0:0:0:
64,192,126123,1,0,0:0:0:0:
320,192,126123,1,0,0:0:0:0:
64,192,126258,1,0,0:0:0:0:
448,192,126258,1,0,0:0:0:0:
192,192,126393,1,0,0:0:0:0:
320,192,126393,1,0,0:0:0:0:
448,192,126393,1,0,0:0:0:0:
320,192,126528,1,0,0:0:0:0:
448,192,126528,1,0,0:0:0:0:
64,192,126664,1,0,0:0:0:0:
448,192,126664,1,0,0:0:0:0:
64,192,126799,1,0,0:0:0:0:
192,192,126799,1,0,0:0:0:0:
320,192,126799,1,0,0:0:0:0:
192,192,126934,1,0,0:0:0:0:
64,192,126934,1,0,0:0:0:0:
64,192,127069,1,0,0:0:0:0:
448,192,127069,1,0,0:0:0:0:
192,192,127204,1,0,0:0:0:0:
448,192,127272,1,0,0:0:0:0:
64,192,127339,1,0,0:0:0:0:
320,192,127339,1,0,0:0:0:0:
192,192,127474,1,0,0:0:0:0:
320,192,127474,1,0,0:0:0:0:
64,192,127610,1,0,0:0:0:0:
320,192,127677,1,0,0:0:0:0:
192,192,127745,1,0,0:0:0:0:
448,192,127812,1,0,0:0:0:0:
64,192,127880,1,0,0:0:0:0:
320,192,127925,1,0,0:0:0:0:
192,192,127970,1,0,0:0:0:0:
448,192,128015,1,0,0:0:0:0:
64,192,128060,1,0,0:0:0:0:
192,192,128105,1,0,0:0:0:0:
448,192,128150,1,0,0:0:0:0:
64,192,128195,1,0,0:0:0:0:
320,192,128240,1,0,0:0:0:0:
192,192,128285,1,0,0:0:0:0:
448,192,128330,1,0,0:0:0:0:
320,192,128375,1,0,0:0:0:0:
192,192,128420,1,0,0:0:0:0:
64,192,128420,1,0,0:0:0:0:
448,192,128488,1,0,0:0:0:0:
192,192,128555,1,0,0:0:0:0:
448,192,128623,1,0,0:0:0:0:
64,192,128691,1,0,0:0:0:0:
320,192,128691,1,0,0:0:0:0:
192,192,128736,1,0,0:0:0:0:
448,192,128781,1,0,0:0:0:0:
64,192,128826,1,0,0:0:0:0:
192,192,128871,1,0,0:0:0:0:
320,192,128916,1,0,0:0:0:0:
64,192,128961,1,0,0:0:0:0:
192,192,129006,1,0,0:0:0:0:
448,192,129051,1,0,0:0:0:0:
64,192,129096,1,0,0:0:0:0:
192,192,129141,1,0,0:0:0:0:
320,192,129186,1,0,0:0:0:0:
448,192,129231,1,0,0:0:0:0:
64,192,129231,1,0,0:0:0:0:
448,192,129366,1,0,0:0:0:0:
64,192,129501,1,0,0:0:0:0:
320,192,129501,1,0,0:0:0:0:
192,192,129569,1,0,0:0:0:0:
320,192,129637,1,0,0:0:0:0:
448,192,129704,1,0,0:0:0:0:
64,192,129772,1,0,0:0:0:0:
192,192,129817,1,0,0:0:0:0:
320,192,129862,1,0,0:0:0:0:
448,192,129907,1,0,0:0:0:0:
64,192,129952,1,0,0:0:0:0:
192,192,129997,1,0,0:0:0:0:
320,192,130042,1,0,0:0:0:0:
448,192,130087,1,0,0:0:0:0:
192,192,130132,1,0,0:0:0:0:
64,192,130177,1,0,0:0:0:0:
448,192,130222,1,0,0:0:0:0:
320,192,130267,1,0,0:0:0:0:
192,192,130312,1,0,0:0:0:0:
64,192,130312,1,0,0:0:0:0:
192,192,130447,1,0,0:0:0:0:
448,192,130447,1,0,0:0:0:0:
64,192,130582,1,0,0:0:0:0:
448,192,130582,1,0,0:0:0:0:
64,192,130718,1,0,0:0:0:0:
192,192,130718,1,0,0:0:0:0:
320,192,130718,1,0,0:0:0:0:
64,192,130853,1,0,0:0:0:0:
448,192,130853,1,0,0:0:0:0:
320,192,130988,1,0,0:0:0:0:
448,192,130988,1,0,0:0:0:0:
64,192,131123,1,0,0:0:0:0:
320,192,131168,1,0,0:0:0:0:
448,192,131213,1,0,0:0:0:0:
192,192,131258,1,0,0:0:0:0:
320,192,131303,1,0,0:0:0:0:
448,192,131348,1,0,0:0:0:0:
64,192,131393,1,0,0:0:0:0:
320,192,131438,1,0,0:0:0:0:
192,192,131483,1,0,0:0:0:0:
448,192,131528,1,0,0:0:0:0:
64,192,131573,1,0,0:0:0:0:
320,192,131619,1,0,0:0:0:0:
448,192,131664,1,0,0:0:0:0:
192,192,131664,1,0,0:0:0:0:
448,192,131799,1,0,0:0:0:0:
64,192,131799,1,0,0:0:0:0:
320,192,131934,1,0,0:0:0:0:
64,192,131934,1,0,0:0:0:0:
192,192,132001,1,0,0:0:0:0:
448,192,132069,1,0,0:0:0:0:
320,192,132137,1,0,0:0:0:0:
64,192,132204,1,0,0:0:0:0:
448,192,132204,1,0,0:0:0:0:
192,192,132272,1,0,0:0:0:0:
320,192,132339,1,0,0:0:0:0:
448,192,132407,1,0,0:0:0:0:
64,192,132474,1,0,0:0:0:0:
192,192,132474,1,0,0:0:0:0:
448,192,132519,1,0,0:0:0:0:
320,192,132564,1,0,0:0:0:0:
64,192,132610,1,0,0:0:0:0:
192,192,132610,1,0,0:0:0:0:
448,192,132745,1,0,0:0:0:0:
192,192,132745,1,0,0:0:0:0:
320,192,132812,1,0,0:0:0:0:
64,192,132880,1,0,0:0:0:0:
320,192,132947,1,0,0:0:0:0:
192,192,133015,1,0,0:0:0:0:
448,192,133015,1,0,0:0:0:0:
448,192,133150,1,0,0:0:0:0:
64,192,133150,1,0,0:0:0:0:
64,192,133285,1,0,0:0:0:0:
320,192,133285,1,0,0:0:0:0:
192,192,133420,1,0,0:0:0:0:
64,192,133555,1,0,0:0:0:0:
448,192,133555,1,0,0:0:0:0:
192,192,133555,1,0,0:0:0:0:
448,192,133691,1,0,0:0:0:0:
64,192,133736,1,0,0:0:0:0:
192,192,133781,1,0,0:0:0:0:
320,192,133826,1,0,0:0:0:0:
64,192,133871,1,0,0:0:0:0:
192,192,133916,1,0,0:0:0:0:
448,192,133961,1,0,0:0:0:0:
64,192,134006,1,0,0:0:0:0:
192,192,134051,1,0,0:0:0:0:
448,192,134096,1,0,0:0:0:0:
320,192,134096,1,0,0:0:0:0:
320,192,134231,1,0,0:0:0:0:
192,192,134366,1,0,0:0:0:0:
64,192,134501,1,0,0:0:0:0:
320,192,134569,1,0,0:0:0:0:
192,192,134637,1,0,0:0:0:0:
448,192,134637,1,0,0:0:0:0:
64,192,134637,1,0,0:0:0:0:
448,192,134772,1,0,0:0:0:0:
64,192,134772,1,0,0:0:0:0:
192,192,134907,1,0,0:0:0:0:
448,192,134907,1,0,0:0:0:0:
320,192,135042,1,0,0:0:0:0:
192,192,135042,1,0,0:0:0:0:
64,192,135042,1,0,0:0:0:0:
64,192,135177,1,0,0:0:0:0:
448,192,135177,1,0,0:0:0:0:
448,192,135312,1,0,0:0:0:0:
192,192,135312,1,0,0:0:0:0:
64,192,135447,1,0,0:0:0:0:
192,192,135492,1,0,0:0:0:0:
320,192,135537,1,0,0:0:0:0:
448,192,135582,1,0,0:0:0:0:
192,192,135628,1,0,0:0:0:0:
64,192,135673,1,0,0:0:0:0:
448,192,135718,1,0,0:0:0:0:
320,192,135718,1,0,0:0:0:0:
448,192,135853,1,0,0:0:0:0:
192,192,135853,1,0,0:0:0:0:
192,192,135988,1,0,0:0:0:0:
320,192,135988,1,0,0:0:0:0:
64,192,136123,1,0,0:0:0:0:
320,192,136168,1,0,0:0:0:0:
448,192,136213,1,0,0:0:0:0:
64,192,136258,1,0,0:0:0:0:
192,192,136303,1,0,0:0:0:0:
448,192,136348,1,0,0:0:0:0:
64,192,136393,1,0,0:0:0:0:
192,192,136438,1,0,0:0:0:0:
320,192,136483,1,0,0:0:0:0:
448,192,136528,1,0,0:0:0:0:
64,192,136596,1,0,0:0:0:0:
192,192,136664,1,0,0:0:0:0:
448,192,136731,1,0,0:0:0:0:
64,192,136799,1,0,0:0:0:0:
320,192,136799,1,0,0:0:0:0:
192,192,136866,1,0,0:0:0:0:
448,192,136934,1,0,0:0:0:0:
320,192,137001,1,0,0:0:0:0:
64,192,137069,1,0,0:0:0:0:
192,192,137069,1,0,0:0:0:0:
448,192,137137,1,0,0:0:0:0:
192,192,137204,1,0,0:0:0:0:
64,192,137272,1,0,0:0:0:0:
320,192,137339,1,0,0:0:0:0:
192,192,137339,1,0,0:0:0:0:
64,192,137407,1,0,0:0:0:0:
448,192,137474,1,0,0:0:0:0:
320,192,137474,1,0,0:0:0:0:
64,192,137542,1,0,0:0:0:0:
320,192,137610,1,0,0:0:0:0:
192,192,137610,1,0,0:0:0:0:
448,192,137655,1,0,0:0:0:0:
64,192,137700,1,0,0:0:0:0:
192,192,137745,1,0,0:0:0:0:
320,192,137790,1,0,0:0:0:0:
448,192,137835,1,0,0:0:0:0:
64,192,137880,1,0,0:0:0:0:
192,192,137880,1,0,0:0:0:0:
64,192,138015,1,0,0:0:0:0:
448,192,138015,1,0,0:0:0:0:
192,192,138150,1,0,0:0:0:0:
448,192,138150,1,0,0:0:0:0:
320,192,138150,1,0,0:0:0:0:
64,192,138285,1,0,0:0:0:0:
192,192,138285,1,0,0:0:0:0:
320,192,138285,1,0,0:0:0:0:
192,192,138420,1,0,0:0:0:0:
448,192,138420,1,0,0:0:0:0:
448,192,138555,1,0,0:0:0:0:
320,192,138555,1,0,0:0:0:0:
64,192,138555,1,0,0:0:0:0:
64,192,138691,1,0,0:0:0:0:
192,192,138691,1,0,0:0:0:0:
448,192,138691,1,0,0:0:0:0:
64,192,138961,5,0,0:0:0:0:
448,192,138961,1,0,0:0:0:0:
320,192,138961,1,0,0:0:0:0:
192,192,139096,1,0,0:0:0:0:
448,192,139096,1,0,0:0:0:0:
192,192,139231,1,0,0:0:0:0:
320,192,139231,1,0,0:0:0:0:
64,192,139366,1,0,0:0:0:0:
320,192,139366,1,0,0:0:0:0:
64,192,139501,1,0,0:0:0:0:
320,192,139501,1,0,0:0:0:0:
448,192,139501,1,0,0:0:0:0:
448,192,139637,1,0,0:0:0:0:
192,192,139637,1,0,0:0:0:0:
64,192,139772,1,0,0:0:0:0:
192,192,139772,1,0,0:0:0:0:
320,192,139839,1,0,0:0:0:0:
448,192,139907,1,0,0:0:0:0:
64,192,139974,1,0,0:0:0:0:
192,192,140042,1,0,0:0:0:0:
320,192,140042,1,0,0:0:0:0:
448,192,140110,1,0,0:0:0:0:
320,192,140177,1,0,0:0:0:0:
192,192,140245,1,0,0:0:0:0:
64,192,140312,1,0,0:0:0:0:
320,192,140380,1,0,0:0:0:0:
448,192,140447,1,0,0:0:0:0:
64,192,140515,1,0,0:0:0:0:
192,192,140582,1,0,0:0:0:0:
320,192,140628,1,0,0:0:0:0:
448,192,140673,1,0,0:0:0:0:
64,192,140718,1,0,0:0:0:0:
320,192,140763,1,0,0:0:0:0:
448,192,140808,1,0,0:0:0:0:
192,192,140853,1,0,0:0:0:0:
320,192,140898,1,0,0:0:0:0:
448,192,140943,1,0,0:0:0:0:
64,192,140988,1,0,0:0:0:0:
320,192,141033,1,0,0:0:0:0:
448,192,141078,1,0,0:0:0:0:
64,192,141123,1,0,0:0:0:0:
192,192,141123,1,0,0:0:0:0:
320,192,141191,1,0,0:0:0:0:
192,192,141258,1,0,0:0:0:0:
64,192,141326,1,0,0:0:0:0:
448,192,141393,1,0,0:0:0:0:
320,192,141393,1,0,0:0:0:0:
192,192,141528,1,0,0:0:0:0:
320,192,141528,1,0,0:0:0:0:
64,192,141664,1,0,0:0:0:0:
448,192,141731,1,0,0:0:0:0:
64,192,141799,1,0,0:0:0:0:
192,192,141799,1,0,0:0:0:0:
320,192,141934,1,0,0:0:0:0:
64,192,141979,1,0,0:0:0:0:
448,192,142024,1,0,0:0:0:0:
192,192,142069,1,0,0:0:0:0:
64,192,142114,1,0,0:0:0:0:
448,192,142159,1,0,0:0:0:0:
320,192,142204,1,0,0:0:0:0:
64,192,142249,1,0,0:0:0:0:
448,192,142294,1,0,0:0:0:0:
192,192,142339,1,0,0:0:0:0:
64,192,142384,1,0,0:0:0:0:
448,192,142429,1,0,0:0:0:0:
320,192,142474,1,0,0:0:0:0:
192,192,142519,1,0,0:0:0:0:
64,192,142564,1,0,0:0:0:0:
320,192,142610,1,0,0:0:0:0:
448,192,142655,1,0,0:0:0:0:
64,192,142700,1,0,0:0:0:0:
192,192,142745,1,0,0:0:0:0:
320,192,142745,1,0,0:0:0:0:
448,192,142812,1,0,0:0:0:0:
64,192,142880,1,0,0:0:0:0:
320,192,142880,1,0,0:0:0:0:
192,192,142947,1,0,0:0:0:0:
64,192,143015,1,0,0:0:0:0:
448,192,143015,1,0,0:0:0:0:
320,192,143082,1,0,0:0:0:0:
192,192,143150,1,0,0:0:0:0:
64,192,143150,1,0,0:0:0:0:
320,192,143218,1,0,0:0:0:0:
64,192,143285,1,0,0:0:0:0:
192,192,143285,1,0,0:0:0:0:
448,192,143285,1,0,0:0:0:0:
192,192,143420,1,0,0:0:0:0:
320,192,143420,1,0,0:0:0:0:
64,192,143555,1,0,0:0:0:0:
320,192,143555,1,0,0:0:0:0:
192,192,143691,1,0,0:0:0:0:
64,192,143691,1,0,0:0:0:0:
448,192,143691,1,0,0:0:0:0:
192,192,143826,1,0,0:0:0:0:
320,192,143826,1,0,0:0:0:0:
64,192,143961,1,0,0:0:0:0:
448,192,143961,1,0,0:0:0:0:
64,192,144096,1,0,0:0:0:0:
192,192,144096,1,0,0:0:0:0:
320,192,144096,1,0,0:0:0:0:
192,192,144231,1,0,0:0:0:0:
320,192,144231,1,0,0:0:0:0:
320,192,144366,1,0,0:0:0:0:
448,192,144366,1,0,0:0:0:0:
192,192,144501,1,0,0:0:0:0:
320,192,144569,1,0,0:0:0:0:
64,192,144637,1,0,0:0:0:0:
448,192,144637,1,0,0:0:0:0:
192,192,144704,1,0,0:0:0:0:
320,192,144738,1,0,0:0:0:0:
448,192,144772,1,0,0:0:0:0:
64,192,144805,1,0,0:0:0:0:
192,192,144839,1,0,0:0:0:0:
320,192,144907,1,0,0:0:0:0:
448,192,144974,1,0,0:0:0:0:
64,192,145042,1,0,0:0:0:0:
192,192,145110,1,0,0:0:0:0:
320,192,145177,1,0,0:0:0:0:
448,192,145222,1,0,0:0:0:0:
64,192,145267,1,0,0:0:0:0:
192,192,145312,1,0,0:0:0:0:
320,192,145357,1,0,0:0:0:0:
448,192,145402,1,0,0:0:0:0:
192,192,145447,1,0,0:0:0:0:
64,192,145492,1,0,0:0:0:0:
448,192,145537,1,0,0:0:0:0:
320,192,145582,1,0,0:0:0:0:
192,192,145628,1,0,0:0:0:0:
64,192,145673,1,0,0:0:0:0:
320,192,145718,1,0,0:0:0:0:
448,192,145718,1,0,0:0:0:0:
192,192,145785,1,0,0:0:0:0:
320,192,145853,1,0,0:0:0:0:
64,192,145920,1,0,0:0:0:0:
448,192,145988,1,0,0:0:0:0:
320,192,145988,1,0,0:0:0:0:
192,192,146033,1,0,0:0:0:0:
64,192,146078,1,0,0:0:0:0:
448,192,146123,1,0,0:0:0:0:
192,192,146168,1,0,0:0:0:0:
64,192,146213,1,0,0:0:0:0:
320,192,146258,1,0,0:0:0:0:
192,192,146303,1,0,0:0:0:0:
64,192,146348,1,0,0:0:0:0:
448,192,146393,1,0,0:0:0:0:
192,192,146438,1,0,0:0:0:0:
64,192,146483,1,0,0:0:0:0:
448,192,146528,1,0,0:0:0:0:
320,192,146528,1,0,0:0:0:0:
448,192,146664,1,0,0:0:0:0:
64,192,146664,1,0,0:0:0:0:
64,192,146799,1,0,0:0:0:0:
320,192,146799,1,0,0:0:0:0:
448,192,146866,1,0,0:0:0:0:
192,192,146934,1,0,0:0:0:0:
320,192,147001,1,0,0:0:0:0:
64,192,147069,1,0,0:0:0:0:
192,192,147114,1,0,0:0:0:0:
320,192,147159,1,0,0:0:0:0:
448,192,147204,1,0,0:0:0:0:
64,192,147249,1,0,0:0:0:0:
192,192,147294,1,0,0:0:0:0:
320,192,147339,1,0,0:0:0:0:
448,192,147384,1,0,0:0:0:0:
192,192,147429,1,0,0:0:0:0:
64,192,147474,1,0,0:0:0:0:
448,192,147519,1,0,0:0:0:0:
320,192,147564,1,0,0:0:0:0:
192,192,147610,1,0,0:0:0:0:
64,192,147610,1,0,0:0:0:0:
64,192,147745,1,0,0:0:0:0:
448,192,147745,1,0,0:0:0:0:
320,192,147880,1,0,0:0:0:0:
448,192,147880,1,0,0:0:0:0:
64,192,148015,1,0,0:0:0:0:
192,192,148015,1,0,0:0:0:0:
320,192,148015,1,0,0:0:0:0:
64,192,148150,1,0,0:0:0:0:
192,192,148150,1,0,0:0:0:0:
64,192,148285,1,0,0:0:0:0:
448,192,148285,1,0,0:0:0:0:
192,192,148420,1,0,0:0:0:0:
320,192,148465,1,0,0:0:0:0:
448,192,148510,1,0,0:0:0:0:
64,192,148555,1,0,0:0:0:0:
320,192,148601,1,0,0:0:0:0:
448,192,148646,1,0,0:0:0:0:
192,192,148691,1,0,0:0:0:0:
64,192,148736,1,0,0:0:0:0:
448,192,148781,1,0,0:0:0:0:
320,192,148826,1,0,0:0:0:0:
192,192,148871,1,0,0:0:0:0:
64,192,148916,1,0,0:0:0:0:
448,192,148961,1,0,0:0:0:0:
320,192,148961,1,0,0:0:0:0:
448,192,149096,1,0,0:0:0:0:
192,192,149096,1,0,0:0:0:0:
448,192,149231,1,0,0:0:0:0:
64,192,149231,1,0,0:0:0:0:
192,192,149299,1,0,0:0:0:0:
320,192,149366,1,0,0:0:0:0:
448,192,149434,1,0,0:0:0:0:
64,192,149501,1,0,0:0:0:0:
192,192,149501,1,0,0:0:0:0:
320,192,149569,1,0,0:0:0:0:
192,192,149637,1,0,0:0:0:0:
448,192,149704,1,0,0:0:0:0:
64,192,149772,1,0,0:0:0:0:
320,192,149772,1,0,0:0:0:0:
192,192,149817,1,0,0:0:0:0:
448,192,149862,1,0,0:0:0:0:
64,192,149907,1,0,0:0:0:0:
320,192,149907,1,0,0:0:0:0:
64,192,150042,1,0,0:0:0:0:
192,192,150042,1,0,0:0:0:0:
448,192,150110,1,0,0:0:0:0:
192,192,150177,1,0,0:0:0:0:
448,192,150245,1,0,0:0:0:0:
192,192,150312,1,0,0:0:0:0:
320,192,150312,1,0,0:0:0:0:
64,192,150312,1,0,0:0:0:0:
320,192,150447,1,0,0:0:0:0:
64,192,150447,1,0,0:0:0:0:
64,192,150582,1,0,0:0:0:0:
192,192,150582,1,0,0:0:0:0:
320,192,150718,1,0,0:0:0:0:
64,192,150853,1,0,0:0:0:0:
448,192,150853,1,0,0:0:0:0:
192,192,150853,1,0,0:0:0:0:
192,192,150988,1,0,0:0:0:0:
320,192,151033,1,0,0:0:0:0:
448,192,151078,1,0,0:0:0:0:
64,192,151123,1,0,0:0:0:0:
320,192,151168,1,0,0:0:0:0:
448,192,151213,1,0,0:0:0:0:
192,192,151258,1,0,0:0:0:0:
320,192,151303,1,0,0:0:0:0:
448,192,151348,1,0,0:0:0:0:
64,192,151393,1,0,0:0:0:0:
192,192,151393,1,0,0:0:0:0:
320,192,151461,1,0,0:0:0:0:
64,192,151528,1,0,0:0:0:0:
448,192,151528,1,0,0:0:0:0:
192,192,151596,1,0,0:0:0:0:
320,192,151664,1,0,0:0:0:0:
448,192,151664,1,0,0:0:0:0:
64,192,151731,1,0,0:0:0:0:
192,192,151799,1,0,0:0:0:0:
320,192,151799,1,0,0:0:0:0:
448,192,151866,1,0,0:0:0:0:
192,192,151934,1,0,0:0:0:0:
320,192,151934,1,0,0:0:0:0:
64,192,151934,1,0,0:0:0:0:
320,192,152069,1,0,0:0:0:0:
64,192,152069,1,0,0:0:0:0:
192,192,152204,1,0,0:0:0:0:
320,192,152204,1,0,0:0:0:0:
64,192,152339,1,0,0:0:0:0:
192,192,152339,1,0,0:0:0:0:
448,192,152339,1,0,0:0:0:0:
64,192,152474,1,0,0:0:0:0:
448,192,152474,1,0,0:0:0:0:
320,192,152610,1,0,0:0:0:0:
64,192,152610,1,0,0:0:0:0:
192,192,152745,1,0,0:0:0:0:
320,192,152790,1,0,0:0:0:0:
448,192,152835,1,0,0:0:0:0:
192,192,152880,1,0,0:0:0:0:
64,192,152925,1,0,0:0:0:0:
320,192,152970,1,0,0:0:0:0:
448,192,153015,1,0,0:0:0:0:
192,192,153015,1,0,0:0:0:0:
448,192,153150,1,0,0:0:0:0:
64,192,153150,1,0,0:0:0:0:
192,192,153285,1,0,0:0:0:0:
320,192,153285,1,0,0:0:0:0:
64,192,153420,1,0,0:0:0:0:
192,192,153465,1,0,0:0:0:0:
320,192,153510,1,0,0:0:0:0:
64,192,153555,1,0,0:0:0:0:
192,192,153601,1,0,0:0:0:0:
448,192,153646,1,0,0:0:0:0:
64,192,153691,1,0,0:0:0:0:
320,192,153736,1,0,0:0:0:0:
448,192,153781,1,0,0:0:0:0:
64,192,153826,1,0,0:0:0:0:
320,192,153893,1,0,0:0:0:0:
192,192,153961,1,0,0:0:0:0:
448,192,154028,1,0,0:0:0:0:
64,192,154096,1,0,0:0:0:0:
320,192,154096,1,0,0:0:0:0:
192,192,154164,1,0,0:0:0:0:
448,192,154231,1,0,0:0:0:0:
320,192,154299,1,0,0:0:0:0:
64,192,154366,1,0,0:0:0:0:
192,192,154366,1,0,0:0:0:0:
448,192,154434,1,0,0:0:0:0:
192,192,154501,1,0,0:0:0:0:
64,192,154569,1,0,0:0:0:0:
320,192,154637,1,0,0:0:0:0:
192,192,154637,1,0,0:0:0:0:
64,192,154704,1,0,0:0:0:0:
448,192,154772,1,0,0:0:0:0:
320,192,154772,1,0,0:0:0:0:
64,192,154839,1,0,0:0:0:0:
320,192,154907,1,0,0:0:0:0:
192,192,154907,1,0,0:0:0:0:
448,192,154952,1,0,0:0:0:0:
64,192,154997,1,0,0:0:0:0:
192,192,155042,1,0,0:0:0:0:
320,192,155087,1,0,0:0:0:0:
448,192,155132,1,0,0:0:0:0:
64,192,155177,1,0,0:0:0:0:
192,192,155177,1,0,0:0:0:0:
64,192,155312,1,0,0:0:0:0:
448,192,155312,1,0,0:0:0:0:
192,192,155447,1,0,0:0:0:0:
448,192,155447,1,0,0:0:0:0:
320,192,155447,1,0,0:0:0:0:
64,192,155582,1,0,0:0:0:0:
192,192,155582,1,0,0:0:0:0:
320,192,155582,1,0,0:0:0:0:
192,192,155718,1,0,0:0:0:0:
448,192,155718,1,0,0:0:0:0:
448,192,155853,1,0,0:0:0:0:
320,192,155853,1,0,0:0:0:0:
64,192,155853,1,0,0:0:0:0:
192,192,155920,1,0,0:0:0:0:
64,192,155988,1,0,0:0:0:0:
448,192,155988,1,0,0:0:0:0:
320,192,156055,1,0,0:0:0:0:
64,192,156123,1,0,0:0:0:0:
192,192,156191,1,0,0:0:0:0:
64,192,156258,5,0,0:0:0:0:
320,192,156258,1,0,0:0:0:0:
448,192,156258,1,0,0:0:0:0:
192,192,156393,1,0,0:0:0:0:
320,192,156393,1,0,0:0:0:0:
192,192,156528,1,0,0:0:0:0:
448,192,156528,1,0,0:0:0:0:
64,192,156664,1,0,0:0:0:0:
448,192,156664,1,0,0:0:0:0:
320,192,156664,1,0,0:0:0:0:
192,192,156799,1,0,0:0:0:0:
320,192,156799,1,0,0:0:0:0:
64,192,156934,1,0,0:0:0:0:
192,192,156934,1,0,0:0:0:0:
64,192,157069,1,0,0:0:0:0:
448,192,157069,1,0,0:0:0:0:
320,192,157137,1,0,0:0:0:0:
192,192,157204,1,0,0:0:0:0:
448,192,157272,1,0,0:0:0:0:
192,192,157339,1,0,0:0:0:0:
64,192,157339,1,0,0:0:0:0:
320,192,157407,1,0,0:0:0:0:
192,192,157474,1,0,0:0:0:0:
64,192,157542,1,0,0:0:0:0:
448,192,157610,1,0,0:0:0:0:
192,192,157677,1,0,0:0:0:0:
320,192,157745,1,0,0:0:0:0:
64,192,157812,1,0,0:0:0:0:
192,192,157880,1,0,0:0:0:0:
320,192,157925,1,0,0:0:0:0:
448,192,157970,1,0,0:0:0:0:
64,192,158015,1,0,0:0:0:0:
320,192,158060,1,0,0:0:0:0:
448,192,158105,1,0,0:0:0:0:
192,192,158150,1,0,0:0:0:0:
320,192,158195,1,0,0:0:0:0:
448,192,158240,1,0,0:0:0:0:
64,192,158285,1,0,0:0:0:0:
320,192,158330,1,0,0:0:0:0:
448,192,158375,1,0,0:0:0:0:
64,192,158420,1,0,0:0:0:0:
192,192,158420,1,0,0:0:0:0:
320,192,158488,1,0,0:0:0:0:
192,192,158555,1,0,0:0:0:0:
64,192,158623,1,0,0:0:0:0:
448,192,158691,1,0,0:0:0:0:
320,192,158691,1,0,0:0:0:0:
192,192,158826,1,0,0:0:0:0:
320,192,158826,1,0,0:0:0:0:
64,192,158961,1,0,0:0:0:0:
448,192,159028,1,0,0:0:0:0:
64,192,159096,1,0,0:0:0:0:
192,192,159096,1,0,0:0:0:0:
320,192,159231,1,0,0:0:0:0:
64,192,159276,1,0,0:0:0:0:
448,192,159321,1,0,0:0:0:0:
192,192,159366,1,0,0:0:0:0:
64,192,159411,1,0,0:0:0:0:
448,192,159456,1,0,0:0:0:0:
320,192,159501,1,0,0:0:0:0:
64,192,159546,1,0,0:0:0:0:
448,192,159592,1,0,0:0:0:0:
192,192,159637,1,0,0:0:0:0:
64,192,159682,1,0,0:0:0:0:
448,192,159727,1,0,0:0:0:0:
320,192,159772,1,0,0:0:0:0:
192,192,159817,1,0,0:0:0:0:
64,192,159862,1,0,0:0:0:0:
320,192,159907,1,0,0:0:0:0:
448,192,159952,1,0,0:0:0:0:
64,192,159997,1,0,0:0:0:0:
192,192,160042,1,0,0:0:0:0:
320,192,160042,1,0,0:0:0:0:
448,192,160110,1,0,0:0:0:0:
320,192,160177,1,0,0:0:0:0:
64,192,160177,1,0,0:0:0:0:
192,192,160245,1,0,0:0:0:0:
448,192,160312,1,0,0:0:0:0:
64,192,160312,1,0,0:0:0:0:
320,192,160380,1,0,0:0:0:0:
192,192,160447,1,0,0:0:0:0:
448,192,160447,1,0,0:0:0:0:
320,192,160515,1,0,0:0:0:0:
64,192,160582,1,0,0:0:0:0:
192,192,160582,1,0,0:0:0:0:
448,192,160582,1,0,0:0:0:0:
64,192,160718,1,0,0:0:0:0:
320,192,160718,1,0,0:0:0:0:
64,192,160853,1,0,0:0:0:0:
448,192,160853,1,0,0:0:0:0:
192,192,160988,1,0,0:0:0:0:
320,192,160988,1,0,0:0:0:0:
448,192,160988,1,0,0:0:0:0:
320,192,161123,1,0,0:0:0:0:
448,192,161123,1,0,0:0:0:0:
64,192,161258,1,0,0:0:0:0:
448,192,161258,1,0,0:0:0:0:
64,192,161393,1,0,0:0:0:0:
192,192,161393,1,0,0:0:0:0:
320,192,161393,1,0,0:0:0:0:
192,192,161528,1,0,0:0:0:0:
64,192,161528,1,0,0:0:0:0:
64,192,161664,1,0,0:0:0:0:
448,192,161664,1,0,0:0:0:0:
192,192,161799,1,0,0:0:0:0:
448,192,161866,1,0,0:0:0:0:
64,192,161934,1,0,0:0:0:0:
320,192,161934,1,0,0:0:0:0:
192,192,162069,1,0,0:0:0:0:
320,192,162069,1,0,0:0:0:0:
64,192,162204,1,0,0:0:0:0:
320,192,162272,1,0,0:0:0:0:
192,192,162339,1,0,0:0:0:0:
448,192,162407,1,0,0:0:0:0:
64,192,162474,1,0,0:0:0:0:
320,192,162519,1,0,0:0:0:0:
192,192,162564,1,0,0:0:0:0:
448,192,162610,1,0,0:0:0:0:
64,192,162655,1,0,0:0:0:0:
192,192,162700,1,0,0:0:0:0:
448,192,162745,1,0,0:0:0:0:
64,192,162790,1,0,0:0:0:0:
320,192,162835,1,0,0:0:0:0:
192,192,162880,1,0,0:0:0:0:
448,192,162925,1,0,0:0:0:0:
320,192,162970,1,0,0:0:0:0:
192,192,163015,1,0,0:0:0:0:
64,192,163015,1,0,0:0:0:0:
448,192,163082,1,0,0:0:0:0:
192,192,163150,1,0,0:0:0:0:
448,192,163218,1,0,0:0:0:0:
64,192,163285,1,0,0:0:0:0:
320,192,163285,1,0,0:0:0:0:
192,192,163330,1,0,0:0:0:0:
448,192,163375,1,0,0:0:0:0:
64,192,163420,1,0,0:0:0:0:
192,192,163465,1,0,0:0:0:0:
320,192,163510,1,0,0:0:0:0:
64,192,163555,1,0,0:0:0:0:
192,192,163601,1,0,0:0:0:0:
448,192,163646,1,0,0:0:0:0:
64,192,163691,1,0,0:0:0:0:
192,192,163736,1,0,0:0:0:0:
320,192,163781,1,0,0:0:0:0:
448,192,163826,1,0,0:0:0:0:
64,192,163826,1,0,0:0:0:0:
448,192,163961,1,0,0:0:0:0:
64,192,164096,1,0,0:0:0:0:
320,192,164096,1,0,0:0:0:0:
192,192,164164,1,0,0:0:0:0:
320,192,164231,1,0,0:0:0:0:
448,192,164299,1,0,0:0:0:0:
64,192,164366,1,0,0:0:0:0:
192,192,164411,1,0,0:0:0:0:
320,192,164456,1,0,0:0:0:0:
448,192,164501,1,0,0:0:0:0:
64,192,164546,1,0,0:0:0:0:
192,192,164592,1,0,0:0:0:0:
320,192,164637,1,0,0:0:0:0:
448,192,164682,1,0,0:0:0:0:
192,192,164727,1,0,0:0:0:0:
64,192,164772,1,0,0:0:0:0:
448,192,164817,1,0,0:0:0:0:
320,192,164862,1,0,0:0:0:0:
192,192,164907,1,0,0:0:0:0:
64,192,164907,1,0,0:0:0:0:
192,192,165042,1,0,0:0:0:0:
448,192,165042,1,0,0:0:0:0:
64,192,165177,1,0,0:0:0:0:
448,192,165177,1,0,0:0:0:0:
64,192,165312,1,0,0:0:0:0:
192,192,165312,1,0,0:0:0:0:
320,192,165312,1,0,0:0:0:0:
64,192,165447,1,0,0:0:0:0:
448,192,165447,1,0,0:0:0:0:
320,192,165582,1,0,0:0:0:0:
448,192,165582,1,0,0:0:0:0:
64,192,165718,1,0,0:0:0:0:
320,192,165763,1,0,0:0:0:0:
448,192,165808,1,0,0:0:0:0:
192,192,165853,1,0,0:0:0:0:
320,192,165898,1,0,0:0:0:0:
448,192,165943,1,0,0:0:0:0:
64,192,165988,1,0,0:0:0:0:
320,192,166033,1,0,0:0:0:0:
192,192,166078,1,0,0:0:0:0:
448,192,166123,1,0,0:0:0:0:
64,192,166168,1,0,0:0:0:0:
320,192,166213,1,0,0:0:0:0:
448,192,166258,1,0,0:0:0:0:
192,192,166258,1,0,0:0:0:0:
448,192,166393,1,0,0:0:0:0:
64,192,166393,1,0,0:0:0:0:
320,192,166528,1,0,0:0:0:0:
64,192,166528,1,0,0:0:0:0:
192,192,166596,1,0,0:0:0:0:
448,192,166664,1,0,0:0:0:0:
64,192,166664,1,0,0:0:0:0:
320,192,166731,1,0,0:0:0:0:
448,192,166799,1,0,0:0:0:0:
192,192,166799,1,0,0:0:0:0:
64,192,166866,1,0,0:0:0:0:
320,192,166934,1,0,0:0:0:0:
448,192,167001,1,0,0:0:0:0:
64,192,167069,1,0,0:0:0:0:
192,192,167069,1,0,0:0:0:0:
448,192,167114,1,0,0:0:0:0:
320,192,167159,1,0,0:0:0:0:
64,192,167204,1,0,0:0:0:0:
192,192,167204,1,0,0:0:0:0:
448,192,167339,1,0,0:0:0:0:
192,192,167339,1,0,0:0:0:0:
320,192,167407,1,0,0:0:0:0:
64,192,167474,1,0,0:0:0:0:
320,192,167542,1,0,0:0:0:0:
192,192,167610,1,0,0:0:0:0:
448,192,167610,1,0,0:0:0:0:
448,192,167745,1,0,0:0:0:0:
64,192,167745,1,0,0:0:0:0:
64,192,167880,1,0,0:0:0:0:
320,192,167880,1,0,0:0:0:0:
192,192,168015,1,0,0:0:0:0:
64,192,168150,1,0,0:0:0:0:
448,192,168150,1,0,0:0:0:0:
192,192,168150,1,0,0:0:0:0:
448,192,168285,1,0,0:0:0:0:
64,192,168330,1,0,0:0:0:0:
192,192,168375,1,0,0:0:0:0:
320,192,168420,1,0,0:0:0:0:
64,192,168465,1,0,0:0:0:0:
192,192,168510,1,0,0:0:0:0:
448,192,168555,1,0,0:0:0:0:
64,192,168601,1,0,0:0:0:0:
192,192,168646,1,0,0:0:0:0:
448,192,168691,1,0,0:0:0:0:
320,192,168691,1,0,0:0:0:0:
64,192,168758,1,0,0:0:0:0:
192,192,168826,1,0,0:0:0:0:
448,192,168826,1,0,0:0:0:0:
320,192,168893,1,0,0:0:0:0:
64,192,168961,1,0,0:0:0:0:
192,192,168961,1,0,0:0:0:0:
448,192,169028,1,0,0:0:0:0:
64,192,169096,1,0,0:0:0:0:
320,192,169096,1,0,0:0:0:0:
192,192,169164,1,0,0:0:0:0:
448,192,169231,1,0,0:0:0:0:
64,192,169231,1,0,0:0:0:0:
320,192,169231,1,0,0:0:0:0:
448,192,169366,1,0,0:0:0:0:
192,192,169366,1,0,0:0:0:0:
448,192,169501,1,0,0:0:0:0:
64,192,169501,1,0,0:0:0:0:
320,192,169637,1,0,0:0:0:0:
192,192,169637,1,0,0:0:0:0:
64,192,169637,1,0,0:0:0:0:
448,192,169772,1,0,0:0:0:0:
192,192,169772,1,0,0:0:0:0:
320,192,169907,1,0,0:0:0:0:
192,192,169907,1,0,0:0:0:0:
64,192,170042,1,0,0:0:0:0:
192,192,170087,1,0,0:0:0:0:
320,192,170132,1,0,0:0:0:0:
448,192,170177,1,0,0:0:0:0:
192,192,170222,1,0,0:0:0:0:
64,192,170267,1,0,0:0:0:0:
448,192,170312,1,0,0:0:0:0:
320,192,170312,1,0,0:0:0:0:
448,192,170447,1,0,0:0:0:0:
192,192,170447,1,0,0:0:0:0:
192,192,170582,1,0,0:0:0:0:
320,192,170582,1,0,0:0:0:0:
64,192,170718,1,0,0:0:0:0:
320,192,170763,1,0,0:0:0:0:
448,192,170808,1,0,0:0:0:0:
64,192,170853,1,0,0:0:0:0:
192,192,170898,1,0,0:0:0:0:
448,192,170943,1,0,0:0:0:0:
64,192,170988,1,0,0:0:0:0:
192,192,171033,1,0,0:0:0:0:
320,192,171078,1,0,0:0:0:0:
448,192,171123,1,0,0:0:0:0:
64,192,171191,1,0,0:0:0:0:
192,192,171258,1,0,0:0:0:0:
448,192,171326,1,0,0:0:0:0:
64,192,171393,1,0,0:0:0:0:
320,192,171393,1,0,0:0:0:0:
192,192,171461,1,0,0:0:0:0:
448,192,171528,1,0,0:0:0:0:
320,192,171596,1,0,0:0:0:0:
64,192,171664,1,0,0:0:0:0:
192,192,171664,1,0,0:0:0:0:
448,192,171731,1,0,0:0:0:0:
192,192,171799,1,0,0:0:0:0:
64,192,171866,1,0,0:0:0:0:
320,192,171934,1,0,0:0:0:0:
192,192,171934,1,0,0:0:0:0:
64,192,172001,1,0,0:0:0:0:
448,192,172069,1,0,0:0:0:0:
320,192,172069,1,0,0:0:0:0:
64,192,172137,1,0,0:0:0:0:
320,192,172204,1,0,0:0:0:0:
192,192,172204,1,0,0:0:0:0:
448,192,172249,1,0,0:0:0:0:
64,192,172294,1,0,0:0:0:0:
192,192,172339,1,0,0:0:0:0:
320,192,172384,1,0,0:0:0:0:
448,192,172429,1,0,0:0:0:0:
64,192,172474,1,0,0:0:0:0:
192,192,172474,1,0,0:0:0:0:
64,192,172610,1,0,0:0:0:0:
448,192,172610,1,0,0:0:0:0:
192,192,172745,1,0,0:0:0:0:
448,192,172745,1,0,0:0:0:0:
320,192,172745,1,0,0:0:0:0:
64,192,172880,1,0,0:0:0:0:
192,192,172880,1,0,0:0:0:0:
320,192,172880,1,0,0:0:0:0:
192,192,173015,1,0,0:0:0:0:
448,192,173015,1,0,0:0:0:0:
64,192,173082,1,0,0:0:0:0:
448,192,173150,1,0,0:0:0:0:
192,192,173150,1,0,0:0:0:0:
320,192,173150,1,0,0:0:0:0:
64,192,173218,1,0,0:0:0:0:
448,192,173285,1,0,0:0:0:0:
320,192,173285,1,0,0:0:0:0:
192,192,173285,1,0,0:0:0:0:
64,192,173353,1,0,0:0:0:0:
320,192,173420,1,0,0:0:0:0:
192,192,173420,1,0,0:0:0:0:
448,192,173488,1,0,0:0:0:0:
