osu file format v14

[General]
AudioFilename: audio.mp3
AudioLeadIn: 0
PreviewTime: -1
Countdown: 1
SampleSet: Normal
StackLeniency: 0.7
Mode: 3
LetterboxInBreaks: 0
SpecialStyle: 0
WidescreenStoryboard: 0

[Editor]
DistanceSpacing: 0.8
BeatDivisor: 4
GridSize: 4
TimelineZoom: 1.2

[Metadata]
Title:furiae
TitleUnicode:furiae
Artist:ninomiya tatsuki
ArtistUnicode:ninomiya tatsuki
Creator:Lenfried-
Version:Desolate
Source:
Tags:otherman records breakcore ep OTMN085
BeatmapID:1624696
BeatmapSetID:772925

[Difficulty]
HPDrainRate:8
CircleSize:7
OverallDifficulty:8
ApproachRate:5
SliderMultiplier:1.4
SliderTickRate:1

[Events]
//Background and Video events
0,0,"jonasdero-abandon-abandoned-house-ruins-1920x1080-81682.jpg",0,0
//Break Periods
//Storyboard Layer 0 (Background)
//Storyboard Layer 1 (Fail)
//Storyboard Layer 2 (Pass)
//Storyboard Layer 3 (Foreground)
//Storyboard Sound Samples

[TimingPoints]
583,270.27027027027,4,1,0,5,1,0

[HitObjects]
182,192,583,128,0,5042:0:0:0:0:
402,192,583,128,0,9501:0:0:0:0:
475,192,583,128,0,9501:0:0:0:0:
109,192,5042,128,0,9501:0:0:0:0:
36,192,5042,128,0,17880:0:0:0:0:
256,192,8420,128,0,17880:0:0:0:0:
329,192,9501,128,0,13691:0:0:0:0:
182,192,9501,128,0,13691:0:0:0:0:
109,192,13691,128,0,17880:0:0:0:0:
402,192,13691,128,0,17880:0:0:0:0:
182,192,17880,128,0,22339:0:0:0:0:
329,192,17880,1,0,0:0:0:0:
329,192,18015,1,0,0:0:0:0:
475,192,18150,1,0,0:0:0:0:
475,192,18285,1,0,0:0:0:0:
36,192,18420,1,0,0:0:0:0:
402,192,18555,1,0,0:0:0:0:
402,192,18691,1,0,0:0:0:0:
256,192,18826,1,0,0:0:0:0:
402,192,18961,1,0,0:0:0:0:
475,192,20177,1,0,0:0:0:0:
475,192,20312,1,0,0:0:0:0:
329,192,20447,1,0,0:0:0:0:
36,192,22339,128,0,26799:0:0:0:0:
329,192,22339,1,0,0:0:0:0:
182,192,22610,1,0,0:0:0:0:
182,192,22745,1,0,0:0:0:0:
402,192,22880,1,0,0:0:0:0:
402,192,23015,1,0,0:0:0:0:
256,192,23150,1,0,0:0:0:0:
256,192,23285,1,0,0:0:0:0:
109,192,23420,1,0,0:0:0:0:
109,192,23555,1,0,0:0:0:0:
329,192,23691,1,0,0:0:0:0:
329,192,23826,1,0,0:0:0:0:
182,192,23961,1,0,0:0:0:0:
182,192,24096,1,0,0:0:0:0:
402,192,24231,1,0,0:0:0:0:
402,192,24366,1,0,0:0:0:0:
256,192,24501,1,0,0:0:0:0:
256,192,24637,1,0,0:0:0:0:
475,192,24772,1,0,0:0:0:0:
475,192,24907,1,0,0:0:0:0:
182,192,25042,1,0,0:0:0:0:
182,192,25177,1,0,0:0:0:0:
402,192,25312,1,0,0:0:0:0:
402,192,25447,1,0,0:0:0:0:
109,192,25582,1,0,0:0:0:0:
109,192,25718,1,0,0:0:0:0:
329,192,25853,1,0,0:0:0:0:
329,192,25988,1,0,0:0:0:0:
182,192,26123,1,0,0:0:0:0:
182,192,26258,1,0,0:0:0:0:
402,192,26393,1,0,0:0:0:0:
402,192,26528,1,0,0:0:0:0:
256,192,26664,1,0,0:0:0:0:
475,192,26799,128,0,33150:0:0:0:0:
256,192,26799,1,0,0:0:0:0:
402,192,26799,128,0,33150:0:0:0:0:
109,192,26934,1,0,0:0:0:0:
329,192,27069,1,0,0:0:0:0:
109,192,27204,1,0,0:0:0:0:
329,192,30988,128,0,34096:0:0:0:0:
109,192,30988,128,0,33150:0:0:0:0:
36,192,30988,128,0,33150:0:0:0:0:
475,192,33285,128,0,33420:0:0:0:0:
402,192,33285,128,0,33420:0:0:0:0:
36,192,33285,128,0,33420:0:0:0:0:
109,192,33285,128,0,33420:0:0:0:0:
109,192,33555,128,0,33691:0:0:0:0:
36,192,33555,128,0,33691:0:0:0:0:
402,192,33555,128,0,33691:0:0:0:0:
475,192,33555,128,0,33691:0:0:0:0:
109,192,33826,128,0,33961:0:0:0:0:
36,192,33826,128,0,33961:0:0:0:0:
402,192,33826,128,0,33961:0:0:0:0:
475,192,33826,128,0,33961:0:0:0:0:
256,192,34096,128,0,35177:0:0:0:0:
109,192,34096,128,0,34164:0:0:0:0:
36,192,34096,128,0,34164:0:0:0:0:
402,192,34231,128,0,34299:0:0:0:0:
475,192,34231,128,0,34299:0:0:0:0:
109,192,34366,128,0,34434:0:0:0:0:
36,192,34366,128,0,34434:0:0:0:0:
402,192,34501,128,0,34569:0:0:0:0:
475,192,34501,128,0,34569:0:0:0:0:
36,192,34637,128,0,34704:0:0:0:0:
402,192,34704,128,0,34772:0:0:0:0:
182,192,34772,128,0,34839:0:0:0:0:
475,192,34907,128,0,34974:0:0:0:0:
109,192,34974,128,0,35042:0:0:0:0:
329,192,35042,128,0,35110:0:0:0:0:
36,192,35110,128,0,35177:0:0:0:0:
475,192,35177,128,0,38420:0:0:0:0:
182,192,35177,1,0,0:0:0:0:
402,192,35177,1,0,0:0:0:0:
109,192,35312,1,0,0:0:0:0:
36,192,35447,1,0,0:0:0:0:
256,192,35447,1,0,0:0:0:0:
329,192,35582,1,0,0:0:0:0:
109,192,35650,1,0,0:0:0:0:
402,192,35718,1,0,0:0:0:0:
256,192,35718,1,0,0:0:0:0:
109,192,35785,1,0,0:0:0:0:
329,192,35853,1,0,0:0:0:0:
256,192,35988,1,0,0:0:0:0:
36,192,35988,1,0,0:0:0:0:
256,192,36123,1,0,0:0:0:0:
182,192,36191,1,0,0:0:0:0:
109,192,36258,1,0,0:0:0:0:
402,192,36258,1,0,0:0:0:0:
329,192,36258,1,0,0:0:0:0:
256,192,36393,1,0,0:0:0:0:
182,192,36528,128,0,36664:0:0:0:0:
36,192,36528,128,0,36664:0:0:0:0:
402,192,36528,1,0,0:0:0:0:
256,192,36664,1,0,0:0:0:0:
402,192,36731,1,0,0:0:0:0:
182,192,36799,1,0,0:0:0:0:
36,192,36799,1,0,0:0:0:0:
329,192,36866,1,0,0:0:0:0:
109,192,36934,1,0,0:0:0:0:
256,192,37069,1,0,0:0:0:0:
109,192,37069,1,0,0:0:0:0:
256,192,37204,1,0,0:0:0:0:
182,192,37272,1,0,0:0:0:0:
109,192,37339,1,0,0:0:0:0:
329,192,37339,1,0,0:0:0:0:
256,192,37474,1,0,0:0:0:0:
182,192,37610,1,0,0:0:0:0:
36,192,37610,1,0,0:0:0:0:
256,192,37745,1,0,0:0:0:0:
109,192,37812,1,0,0:0:0:0:
329,192,37880,1,0,0:0:0:0:
402,192,37880,1,0,0:0:0:0:
109,192,37947,1,0,0:0:0:0:
256,192,38015,1,0,0:0:0:0:
182,192,38150,1,0,0:0:0:0:
36,192,38150,1,0,0:0:0:0:
329,192,38285,1,0,0:0:0:0:
256,192,38353,1,0,0:0:0:0:
182,192,38420,1,0,0:0:0:0:
36,192,38420,1,0,0:0:0:0:
402,192,38420,1,0,0:0:0:0:
329,192,38555,1,0,0:0:0:0:
256,192,38691,128,0,38826:0:0:0:0:
475,192,38691,128,0,38826:0:0:0:0:
109,192,38691,1,0,0:0:0:0:
329,192,38826,1,0,0:0:0:0:
256,192,38893,1,0,0:0:0:0:
182,192,38961,1,0,0:0:0:0:
36,192,38961,1,0,0:0:0:0:
402,192,39096,1,0,0:0:0:0:
329,192,39164,1,0,0:0:0:0:
256,192,39231,1,0,0:0:0:0:
109,192,39231,1,0,0:0:0:0:
109,192,39366,1,0,0:0:0:0:
256,192,39366,1,0,0:0:0:0:
36,192,39501,1,0,0:0:0:0:
182,192,39501,1,0,0:0:0:0:
329,192,39637,1,0,0:0:0:0:
402,192,39772,1,0,0:0:0:0:
182,192,39772,1,0,0:0:0:0:
329,192,39907,1,0,0:0:0:0:
109,192,39974,1,0,0:0:0:0:
475,192,40042,1,0,0:0:0:0:
256,192,40042,1,0,0:0:0:0:
109,192,40110,1,0,0:0:0:0:
329,192,40177,1,0,0:0:0:0:
182,192,40312,1,0,0:0:0:0:
36,192,40312,1,0,0:0:0:0:
329,192,40447,1,0,0:0:0:0:
256,192,40515,1,0,0:0:0:0:
475,192,40582,1,0,0:0:0:0:
182,192,40582,1,0,0:0:0:0:
36,192,40582,1,0,0:0:0:0:
329,192,40718,1,0,0:0:0:0:
329,192,40853,1,0,0:0:0:0:
36,192,40853,1,0,0:0:0:0:
182,192,40853,1,0,0:0:0:0:
402,192,40988,1,0,0:0:0:0:
402,192,41123,1,0,0:0:0:0:
36,192,41123,1,0,0:0:0:0:
256,192,41191,1,0,0:0:0:0:
109,192,41258,1,0,0:0:0:0:
329,192,41326,1,0,0:0:0:0:
109,192,41393,1,0,0:0:0:0:
475,192,41393,1,0,0:0:0:0:
256,192,41461,1,0,0:0:0:0:
402,192,41528,1,0,0:0:0:0:
182,192,41596,1,0,0:0:0:0:
329,192,41664,1,0,0:0:0:0:
475,192,41664,1,0,0:0:0:0:
36,192,41664,1,0,0:0:0:0:
329,192,41799,1,0,0:0:0:0:
182,192,41934,1,0,0:0:0:0:
36,192,41934,1,0,0:0:0:0:
329,192,42069,1,0,0:0:0:0:
109,192,42137,1,0,0:0:0:0:
475,192,42204,1,0,0:0:0:0:
256,192,42204,1,0,0:0:0:0:
109,192,42272,1,0,0:0:0:0:
329,192,42339,1,0,0:0:0:0:
182,192,42474,1,0,0:0:0:0:
36,192,42474,1,0,0:0:0:0:
256,192,42610,1,0,0:0:0:0:
402,192,42677,1,0,0:0:0:0:
329,192,42745,1,0,0:0:0:0:
182,192,42745,1,0,0:0:0:0:
36,192,42745,1,0,0:0:0:0:
109,192,42880,1,0,0:0:0:0:
256,192,43015,1,0,0:0:0:0:
475,192,43015,1,0,0:0:0:0:
329,192,43150,1,0,0:0:0:0:
109,192,43218,1,0,0:0:0:0:
256,192,43285,1,0,0:0:0:0:
475,192,43285,1,0,0:0:0:0:
329,192,43420,1,0,0:0:0:0:
109,192,43488,1,0,0:0:0:0:
256,192,43555,1,0,0:0:0:0:
475,192,43555,1,0,0:0:0:0:
256,192,43691,1,0,0:0:0:0:
475,192,43691,1,0,0:0:0:0:
109,192,43826,1,0,0:0:0:0:
329,192,43826,1,0,0:0:0:0:
182,192,43961,1,0,0:0:0:0:
256,192,44096,1,0,0:0:0:0:
36,192,44096,1,0,0:0:0:0:
329,192,44231,1,0,0:0:0:0:
182,192,44299,1,0,0:0:0:0:
256,192,44366,1,0,0:0:0:0:
402,192,44366,1,0,0:0:0:0:
182,192,44434,1,0,0:0:0:0:
329,192,44501,1,0,0:0:0:0:
182,192,44637,1,0,0:0:0:0:
36,192,44637,1,0,0:0:0:0:
329,192,44772,1,0,0:0:0:0:
36,192,44839,1,0,0:0:0:0:
256,192,44907,1,0,0:0:0:0:
402,192,44907,1,0,0:0:0:0:
182,192,44907,1,0,0:0:0:0:
329,192,45042,1,0,0:0:0:0:
182,192,45177,128,0,45312:0:0:0:0:
36,192,45177,128,0,45312:0:0:0:0:
329,192,45177,1,0,0:0:0:0:
475,192,45312,1,0,0:0:0:0:
329,192,45447,1,0,0:0:0:0:
109,192,45447,1,0,0:0:0:0:
182,192,45515,1,0,0:0:0:0:
256,192,45582,1,0,0:0:0:0:
329,192,45718,1,0,0:0:0:0:
475,192,45718,1,0,0:0:0:0:
182,192,45853,1,0,0:0:0:0:
36,192,45920,1,0,0:0:0:0:
256,192,45988,1,0,0:0:0:0:
402,192,45988,1,0,0:0:0:0:
329,192,46123,1,0,0:0:0:0:
329,192,46258,1,0,0:0:0:0:
109,192,46258,1,0,0:0:0:0:
182,192,46393,1,0,0:0:0:0:
402,192,46461,1,0,0:0:0:0:
256,192,46528,1,0,0:0:0:0:
36,192,46528,1,0,0:0:0:0:
402,192,46596,1,0,0:0:0:0:
182,192,46664,1,0,0:0:0:0:
329,192,46799,1,0,0:0:0:0:
475,192,46799,1,0,0:0:0:0:
182,192,46934,1,0,0:0:0:0:
256,192,47001,1,0,0:0:0:0:
329,192,47069,1,0,0:0:0:0:
109,192,47069,1,0,0:0:0:0:
475,192,47069,1,0,0:0:0:0:
182,192,47204,1,0,0:0:0:0:
36,192,47339,128,0,47474:0:0:0:0:
256,192,47339,128,0,47474:0:0:0:0:
402,192,47339,1,0,0:0:0:0:
182,192,47474,1,0,0:0:0:0:
36,192,47542,1,0,0:0:0:0:
329,192,47610,1,0,0:0:0:0:
475,192,47610,1,0,0:0:0:0:
182,192,47745,1,0,0:0:0:0:
36,192,47812,1,0,0:0:0:0:
329,192,47880,1,0,0:0:0:0:
475,192,47880,1,0,0:0:0:0:
329,192,48015,1,0,0:0:0:0:
475,192,48015,1,0,0:0:0:0:
182,192,48150,1,0,0:0:0:0:
36,192,48150,1,0,0:0:0:0:
256,192,48285,1,0,0:0:0:0:
329,192,48420,1,0,0:0:0:0:
109,192,48420,1,0,0:0:0:0:
182,192,48555,1,0,0:0:0:0:
402,192,48623,1,0,0:0:0:0:
256,192,48691,1,0,0:0:0:0:
36,192,48691,1,0,0:0:0:0:
402,192,48758,1,0,0:0:0:0:
182,192,48826,1,0,0:0:0:0:
329,192,48961,1,0,0:0:0:0:
475,192,48961,1,0,0:0:0:0:
256,192,49096,1,0,0:0:0:0:
402,192,49164,1,0,0:0:0:0:
182,192,49231,1,0,0:0:0:0:
36,192,49231,1,0,0:0:0:0:
329,192,49231,1,0,0:0:0:0:
182,192,49366,1,0,0:0:0:0:
36,192,49501,1,0,0:0:0:0:
402,192,49501,1,0,0:0:0:0:
402,192,49637,1,0,0:0:0:0:
182,192,49772,1,0,0:0:0:0:
402,192,49839,1,0,0:0:0:0:
182,192,49907,1,0,0:0:0:0:
36,192,49907,1,0,0:0:0:0:
256,192,49974,1,0,0:0:0:0:
329,192,50042,1,0,0:0:0:0:
475,192,50042,1,0,0:0:0:0:
109,192,50110,1,0,0:0:0:0:
329,192,50177,1,0,0:0:0:0:
256,192,50245,1,0,0:0:0:0:
182,192,50312,1,0,0:0:0:0:
36,192,50312,1,0,0:0:0:0:
182,192,50447,1,0,0:0:0:0:
256,192,50582,1,0,0:0:0:0:
475,192,50582,1,0,0:0:0:0:
329,192,50718,1,0,0:0:0:0:
109,192,50785,1,0,0:0:0:0:
256,192,50853,1,0,0:0:0:0:
402,192,50853,1,0,0:0:0:0:
109,192,50920,1,0,0:0:0:0:
329,192,50988,1,0,0:0:0:0:
182,192,51123,1,0,0:0:0:0:
36,192,51123,1,0,0:0:0:0:
329,192,51258,1,0,0:0:0:0:
402,192,51326,1,0,0:0:0:0:
256,192,51393,1,0,0:0:0:0:
36,192,51393,1,0,0:0:0:0:
109,192,51393,1,0,0:0:0:0:
182,192,51528,1,0,0:0:0:0:
256,192,51664,1,0,0:0:0:0:
402,192,51664,1,0,0:0:0:0:
182,192,51799,1,0,0:0:0:0:
36,192,51866,1,0,0:0:0:0:
256,192,51934,1,0,0:0:0:0:
402,192,51934,1,0,0:0:0:0:
182,192,52069,1,0,0:0:0:0:
36,192,52137,1,0,0:0:0:0:
256,192,52204,1,0,0:0:0:0:
402,192,52204,1,0,0:0:0:0:
256,192,52339,1,0,0:0:0:0:
402,192,52339,1,0,0:0:0:0:
329,192,52474,1,0,0:0:0:0:
109,192,52474,1,0,0:0:0:0:
182,192,52610,1,0,0:0:0:0:
256,192,52745,1,0,0:0:0:0:
475,192,52745,1,0,0:0:0:0:
109,192,52880,1,0,0:0:0:0:
329,192,52947,1,0,0:0:0:0:
182,192,53015,1,0,0:0:0:0:
36,192,53015,1,0,0:0:0:0:
329,192,53082,1,0,0:0:0:0:
109,192,53150,1,0,0:0:0:0:
256,192,53285,1,0,0:0:0:0:
402,192,53285,1,0,0:0:0:0:
182,192,53420,1,0,0:0:0:0:
109,192,53555,1,0,0:0:0:0:
329,192,53555,1,0,0:0:0:0:
475,192,53555,1,0,0:0:0:0:
256,192,53691,1,0,0:0:0:0:
182,192,53826,128,0,53961:0:0:0:0:
36,192,53826,128,0,53961:0:0:0:0:
402,192,53826,1,0,0:0:0:0:
329,192,53961,1,0,0:0:0:0:
329,192,54096,1,0,0:0:0:0:
109,192,54096,1,0,0:0:0:0:
256,192,54164,1,0,0:0:0:0:
182,192,54231,1,0,0:0:0:0:
329,192,54366,1,0,0:0:0:0:
475,192,54366,1,0,0:0:0:0:
256,192,54501,1,0,0:0:0:0:
402,192,54569,1,0,0:0:0:0:
182,192,54637,1,0,0:0:0:0:
36,192,54637,1,0,0:0:0:0:
329,192,54772,1,0,0:0:0:0:
329,192,54907,1,0,0:0:0:0:
109,192,54907,1,0,0:0:0:0:
475,192,54907,1,0,0:0:0:0:
182,192,55042,1,0,0:0:0:0:
402,192,55110,1,0,0:0:0:0:
256,192,55177,1,0,0:0:0:0:
36,192,55177,1,0,0:0:0:0:
402,192,55245,1,0,0:0:0:0:
182,192,55312,1,0,0:0:0:0:
329,192,55447,1,0,0:0:0:0:
475,192,55447,1,0,0:0:0:0:
182,192,55582,1,0,0:0:0:0:
256,192,55650,1,0,0:0:0:0:
329,192,55718,1,0,0:0:0:0:
475,192,55718,1,0,0:0:0:0:
109,192,55718,1,0,0:0:0:0:
182,192,55853,1,0,0:0:0:0:
256,192,55988,128,0,56123:0:0:0:0:
402,192,55988,128,0,56123:0:0:0:0:
36,192,55988,1,0,0:0:0:0:
109,192,56123,1,0,0:0:0:0:
182,192,56191,1,0,0:0:0:0:
256,192,56258,1,0,0:0:0:0:
402,192,56258,1,0,0:0:0:0:
109,192,56393,1,0,0:0:0:0:
182,192,56461,1,0,0:0:0:0:
256,192,56528,1,0,0:0:0:0:
402,192,56528,1,0,0:0:0:0:
256,192,56664,1,0,0:0:0:0:
402,192,56664,1,0,0:0:0:0:
329,192,56799,1,0,0:0:0:0:
109,192,56799,1,0,0:0:0:0:
182,192,56934,1,0,0:0:0:0:
256,192,57069,1,0,0:0:0:0:
475,192,57069,1,0,0:0:0:0:
109,192,57204,1,0,0:0:0:0:
329,192,57272,1,0,0:0:0:0:
182,192,57339,1,0,0:0:0:0:
36,192,57339,1,0,0:0:0:0:
329,192,57407,1,0,0:0:0:0:
109,192,57474,1,0,0:0:0:0:
256,192,57610,1,0,0:0:0:0:
475,192,57610,1,0,0:0:0:0:
182,192,57745,1,0,0:0:0:0:
256,192,57812,1,0,0:0:0:0:
329,192,57880,1,0,0:0:0:0:
475,192,57880,1,0,0:0:0:0:
109,192,57880,1,0,0:0:0:0:
182,192,58015,1,0,0:0:0:0:
182,192,58150,1,0,0:0:0:0:
402,192,58150,1,0,0:0:0:0:
256,192,58285,1,0,0:0:0:0:
256,192,58420,1,0,0:0:0:0:
402,192,58420,1,0,0:0:0:0:
109,192,58488,1,0,0:0:0:0:
402,192,58555,1,0,0:0:0:0:
182,192,58623,1,0,0:0:0:0:
329,192,58691,1,0,0:0:0:0:
475,192,58691,1,0,0:0:0:0:
109,192,58758,1,0,0:0:0:0:
329,192,58826,1,0,0:0:0:0:
256,192,58893,1,0,0:0:0:0:
182,192,58961,1,0,0:0:0:0:
36,192,58961,1,0,0:0:0:0:
182,192,59096,1,0,0:0:0:0:
329,192,59231,1,0,0:0:0:0:
475,192,59231,1,0,0:0:0:0:
182,192,59366,1,0,0:0:0:0:
402,192,59434,1,0,0:0:0:0:
256,192,59501,1,0,0:0:0:0:
36,192,59501,1,0,0:0:0:0:
402,192,59569,1,0,0:0:0:0:
182,192,59637,1,0,0:0:0:0:
329,192,59772,1,0,0:0:0:0:
475,192,59772,1,0,0:0:0:0:
256,192,59907,1,0,0:0:0:0:
329,192,59974,1,0,0:0:0:0:
182,192,60042,1,0,0:0:0:0:
36,192,60042,1,0,0:0:0:0:
402,192,60042,1,0,0:0:0:0:
256,192,60177,1,0,0:0:0:0:
329,192,60312,1,0,0:0:0:0:
109,192,60312,1,0,0:0:0:0:
182,192,60447,1,0,0:0:0:0:
256,192,60515,1,0,0:0:0:0:
329,192,60582,1,0,0:0:0:0:
109,192,60582,1,0,0:0:0:0:
182,192,60718,1,0,0:0:0:0:
256,192,60785,1,0,0:0:0:0:
329,192,60853,1,0,0:0:0:0:
109,192,60853,1,0,0:0:0:0:
109,192,60988,1,0,0:0:0:0:
329,192,60988,1,0,0:0:0:0:
182,192,61123,1,0,0:0:0:0:
402,192,61123,1,0,0:0:0:0:
256,192,61258,1,0,0:0:0:0:
329,192,61393,1,0,0:0:0:0:
36,192,61393,1,0,0:0:0:0:
182,192,61528,1,0,0:0:0:0:
402,192,61596,1,0,0:0:0:0:
256,192,61664,1,0,0:0:0:0:
109,192,61664,1,0,0:0:0:0:
402,192,61731,1,0,0:0:0:0:
182,192,61799,1,0,0:0:0:0:
329,192,61934,1,0,0:0:0:0:
475,192,61934,1,0,0:0:0:0:
182,192,62069,1,0,0:0:0:0:
256,192,62137,1,0,0:0:0:0:
329,192,62204,1,0,0:0:0:0:
475,192,62204,1,0,0:0:0:0:
109,192,62204,1,0,0:0:0:0:
182,192,62339,1,0,0:0:0:0:
256,192,62474,128,0,62610:0:0:0:0:
36,192,62474,128,0,62610:0:0:0:0:
402,192,62474,1,0,0:0:0:0:
182,192,62610,1,0,0:0:0:0:
329,192,62745,1,0,0:0:0:0:
475,192,62745,1,0,0:0:0:0:
256,192,62812,1,0,0:0:0:0:
182,192,62880,1,0,0:0:0:0:
402,192,63015,1,0,0:0:0:0:
182,192,63015,1,0,0:0:0:0:
256,192,63150,1,0,0:0:0:0:
182,192,63218,1,0,0:0:0:0:
109,192,63285,1,0,0:0:0:0:
329,192,63285,1,0,0:0:0:0:
256,192,63420,1,0,0:0:0:0:
182,192,63555,1,0,0:0:0:0:
36,192,63555,1,0,0:0:0:0:
329,192,63691,1,0,0:0:0:0:
109,192,63758,1,0,0:0:0:0:
475,192,63826,1,0,0:0:0:0:
256,192,63826,1,0,0:0:0:0:
109,192,63893,1,0,0:0:0:0:
329,192,63961,1,0,0:0:0:0:
182,192,64096,1,0,0:0:0:0:
36,192,64096,1,0,0:0:0:0:
329,192,64231,1,0,0:0:0:0:
256,192,64299,1,0,0:0:0:0:
182,192,64366,1,0,0:0:0:0:
402,192,64366,1,0,0:0:0:0:
475,192,64366,1,0,0:0:0:0:
329,192,64501,1,0,0:0:0:0:
256,192,64637,128,0,64772:0:0:0:0:
36,192,64637,128,0,64772:0:0:0:0:
402,192,64772,1,0,0:0:0:0:
329,192,64839,1,0,0:0:0:0:
256,192,64907,1,0,0:0:0:0:
36,192,64907,1,0,0:0:0:0:
402,192,65042,1,0,0:0:0:0:
329,192,65110,1,0,0:0:0:0:
256,192,65177,1,0,0:0:0:0:
36,192,65177,1,0,0:0:0:0:
256,192,65312,1,0,0:0:0:0:
36,192,65312,1,0,0:0:0:0:
182,192,65447,1,0,0:0:0:0:
402,192,65447,1,0,0:0:0:0:
329,192,65582,1,0,0:0:0:0:
256,192,65718,1,0,0:0:0:0:
109,192,65718,1,0,0:0:0:0:
329,192,65853,1,0,0:0:0:0:
182,192,65920,1,0,0:0:0:0:
256,192,65988,1,0,0:0:0:0:
402,192,65988,1,0,0:0:0:0:
182,192,66055,1,0,0:0:0:0:
329,192,66123,1,0,0:0:0:0:
256,192,66258,1,0,0:0:0:0:
109,192,66258,1,0,0:0:0:0:
329,192,66393,1,0,0:0:0:0:
256,192,66461,1,0,0:0:0:0:
182,192,66528,1,0,0:0:0:0:
36,192,66528,1,0,0:0:0:0:
402,192,66528,1,0,0:0:0:0:
182,192,66664,1,0,0:0:0:0:
329,192,66799,1,0,0:0:0:0:
109,192,66799,1,0,0:0:0:0:
329,192,66934,1,0,0:0:0:0:
256,192,67069,1,0,0:0:0:0:
475,192,67069,1,0,0:0:0:0:
109,192,67137,1,0,0:0:0:0:
475,192,67204,1,0,0:0:0:0:
329,192,67272,1,0,0:0:0:0:
182,192,67339,1,0,0:0:0:0:
36,192,67339,1,0,0:0:0:0:
402,192,67407,1,0,0:0:0:0:
182,192,67474,1,0,0:0:0:0:
329,192,67542,1,0,0:0:0:0:
256,192,67610,1,0,0:0:0:0:
109,192,67610,1,0,0:0:0:0:
256,192,67745,1,0,0:0:0:0:
329,192,67880,1,0,0:0:0:0:
475,192,67880,1,0,0:0:0:0:
182,192,68015,1,0,0:0:0:0:
402,192,68082,1,0,0:0:0:0:
256,192,68150,1,0,0:0:0:0:
36,192,68150,1,0,0:0:0:0:
402,192,68218,1,0,0:0:0:0:
182,192,68285,1,0,0:0:0:0:
329,192,68420,1,0,0:0:0:0:
475,192,68420,1,0,0:0:0:0:
256,192,68555,1,0,0:0:0:0:
182,192,68623,1,0,0:0:0:0:
109,192,68691,1,0,0:0:0:0:
329,192,68691,1,0,0:0:0:0:
475,192,68691,1,0,0:0:0:0:
256,192,68826,1,0,0:0:0:0:
182,192,68961,1,0,0:0:0:0:
36,192,68961,1,0,0:0:0:0:
329,192,69096,1,0,0:0:0:0:
402,192,69164,1,0,0:0:0:0:
182,192,69231,1,0,0:0:0:0:
36,192,69231,1,0,0:0:0:0:
329,192,69366,1,0,0:0:0:0:
402,192,69434,1,0,0:0:0:0:
182,192,69501,1,0,0:0:0:0:
36,192,69501,1,0,0:0:0:0:
182,192,69637,1,0,0:0:0:0:
36,192,69637,1,0,0:0:0:0:
36,192,69772,1,0,0:0:0:0:
182,192,69772,1,0,0:0:0:0:
329,192,69772,1,0,0:0:0:0:
475,192,69772,1,0,0:0:0:0:
256,192,69907,1,0,0:0:0:0:
402,192,70042,1,0,0:0:0:0:
109,192,70042,1,0,0:0:0:0:
256,192,70177,1,0,0:0:0:0:
402,192,70245,1,0,0:0:0:0:
182,192,70312,1,0,0:0:0:0:
329,192,70380,1,0,0:0:0:0:
109,192,70447,1,0,0:0:0:0:
256,192,70582,1,0,0:0:0:0:
402,192,70582,1,0,0:0:0:0:
182,192,70718,1,0,0:0:0:0:
329,192,70853,1,0,0:0:0:0:
475,192,70853,1,0,0:0:0:0:
256,192,70988,1,0,0:0:0:0:
402,192,71123,1,0,0:0:0:0:
109,192,71123,1,0,0:0:0:0:
256,192,71258,1,0,0:0:0:0:
402,192,71326,1,0,0:0:0:0:
182,192,71393,1,0,0:0:0:0:
329,192,71461,1,0,0:0:0:0:
109,192,71528,1,0,0:0:0:0:
256,192,71664,1,0,0:0:0:0:
402,192,71664,1,0,0:0:0:0:
182,192,71799,1,0,0:0:0:0:
475,192,71934,1,0,0:0:0:0:
329,192,71934,1,0,0:0:0:0:
256,192,72069,1,0,0:0:0:0:
109,192,72204,1,0,0:0:0:0:
402,192,72204,1,0,0:0:0:0:
256,192,72339,1,0,0:0:0:0:
402,192,72407,1,0,0:0:0:0:
182,192,72474,1,0,0:0:0:0:
329,192,72542,1,0,0:0:0:0:
109,192,72610,1,0,0:0:0:0:
402,192,72745,1,0,0:0:0:0:
256,192,72745,1,0,0:0:0:0:
182,192,72880,1,0,0:0:0:0:
329,192,73015,1,0,0:0:0:0:
475,192,73015,1,0,0:0:0:0:
256,192,73150,1,0,0:0:0:0:
402,192,73285,1,0,0:0:0:0:
109,192,73285,1,0,0:0:0:0:
256,192,73420,1,0,0:0:0:0:
402,192,73488,1,0,0:0:0:0:
182,192,73555,1,0,0:0:0:0:
329,192,73623,1,0,0:0:0:0:
109,192,73691,1,0,0:0:0:0:
256,192,73826,1,0,0:0:0:0:
402,192,73826,1,0,0:0:0:0:
182,192,73961,1,0,0:0:0:0:
109,192,74096,1,0,0:0:0:0:
329,192,74096,1,0,0:0:0:0:
256,192,74231,1,0,0:0:0:0:
182,192,74366,1,0,0:0:0:0:
475,192,74366,1,0,0:0:0:0:
182,192,74501,1,0,0:0:0:0:
329,192,74569,1,0,0:0:0:0:
109,192,74637,1,0,0:0:0:0:
256,192,74704,1,0,0:0:0:0:
36,192,74772,1,0,0:0:0:0:
182,192,74907,1,0,0:0:0:0:
402,192,74907,1,0,0:0:0:0:
256,192,75042,1,0,0:0:0:0:
109,192,75177,1,0,0:0:0:0:
329,192,75177,1,0,0:0:0:0:
256,192,75312,1,0,0:0:0:0:
182,192,75447,1,0,0:0:0:0:
475,192,75447,1,0,0:0:0:0:
182,192,75582,1,0,0:0:0:0:
329,192,75650,1,0,0:0:0:0:
109,192,75718,1,0,0:0:0:0:
256,192,75785,1,0,0:0:0:0:
36,192,75853,1,0,0:0:0:0:
182,192,75988,1,0,0:0:0:0:
402,192,75988,1,0,0:0:0:0:
256,192,76123,1,0,0:0:0:0:
329,192,76258,1,0,0:0:0:0:
109,192,76258,1,0,0:0:0:0:
256,192,76393,1,0,0:0:0:0:
475,192,76528,1,0,0:0:0:0:
182,192,76528,1,0,0:0:0:0:
182,192,76664,1,0,0:0:0:0:
329,192,76731,1,0,0:0:0:0:
109,192,76799,1,0,0:0:0:0:
256,192,76866,1,0,0:0:0:0:
36,192,76934,1,0,0:0:0:0:
402,192,77069,1,0,0:0:0:0:
182,192,77069,1,0,0:0:0:0:
256,192,77204,1,0,0:0:0:0:
109,192,77339,1,0,0:0:0:0:
329,192,77339,1,0,0:0:0:0:
256,192,77474,1,0,0:0:0:0:
182,192,77610,1,0,0:0:0:0:
475,192,77610,1,0,0:0:0:0:
182,192,77745,1,0,0:0:0:0:
329,192,77812,1,0,0:0:0:0:
109,192,77880,1,0,0:0:0:0:
256,192,77947,1,0,0:0:0:0:
36,192,78015,1,0,0:0:0:0:
182,192,78150,1,0,0:0:0:0:
402,192,78150,1,0,0:0:0:0:
256,192,78285,1,0,0:0:0:0:
109,192,78420,1,0,0:0:0:0:
36,192,78420,1,0,0:0:0:0:
329,192,78420,1,0,0:0:0:0:
475,192,78420,1,0,0:0:0:0:
182,192,78555,1,0,0:0:0:0:
256,192,78691,1,0,0:0:0:0:
402,192,78691,1,0,0:0:0:0:
182,192,78826,1,0,0:0:0:0:
329,192,78893,1,0,0:0:0:0:
109,192,78961,1,0,0:0:0:0:
256,192,79028,1,0,0:0:0:0:
36,192,79096,1,0,0:0:0:0:
182,192,79231,1,0,0:0:0:0:
402,192,79231,1,0,0:0:0:0:
256,192,79366,1,0,0:0:0:0:
475,192,79501,1,0,0:0:0:0:
329,192,79501,1,0,0:0:0:0:
182,192,79637,1,0,0:0:0:0:
256,192,79772,1,0,0:0:0:0:
402,192,79772,1,0,0:0:0:0:
182,192,79907,1,0,0:0:0:0:
329,192,79974,1,0,0:0:0:0:
109,192,80042,1,0,0:0:0:0:
256,192,80110,1,0,0:0:0:0:
36,192,80177,1,0,0:0:0:0:
402,192,80312,1,0,0:0:0:0:
182,192,80312,1,0,0:0:0:0:
256,192,80447,1,0,0:0:0:0:
329,192,80582,1,0,0:0:0:0:
475,192,80582,1,0,0:0:0:0:
182,192,80718,1,0,0:0:0:0:
402,192,80853,1,0,0:0:0:0:
256,192,80853,1,0,0:0:0:0:
182,192,80988,1,0,0:0:0:0:
329,192,81055,1,0,0:0:0:0:
109,192,81123,1,0,0:0:0:0:
256,192,81191,1,0,0:0:0:0:
36,192,81258,1,0,0:0:0:0:
182,192,81393,1,0,0:0:0:0:
402,192,81393,1,0,0:0:0:0:
256,192,81528,1,0,0:0:0:0:
475,192,81664,1,0,0:0:0:0:
329,192,81664,1,0,0:0:0:0:
182,192,81799,1,0,0:0:0:0:
256,192,81934,1,0,0:0:0:0:
402,192,81934,1,0,0:0:0:0:
182,192,82069,1,0,0:0:0:0:
329,192,82137,1,0,0:0:0:0:
109,192,82204,1,0,0:0:0:0:
256,192,82272,1,0,0:0:0:0:
36,192,82339,1,0,0:0:0:0:
402,192,82474,1,0,0:0:0:0:
182,192,82474,1,0,0:0:0:0:
256,192,82610,1,0,0:0:0:0:
329,192,82745,1,0,0:0:0:0:
109,192,82745,1,0,0:0:0:0:
182,192,82880,1,0,0:0:0:0:
256,192,83015,1,0,0:0:0:0:
475,192,83015,1,0,0:0:0:0:
329,192,83150,1,0,0:0:0:0:
109,192,83218,1,0,0:0:0:0:
402,192,83285,1,0,0:0:0:0:
182,192,83353,1,0,0:0:0:0:
475,192,83420,1,0,0:0:0:0:
256,192,83555,1,0,0:0:0:0:
36,192,83555,1,0,0:0:0:0:
402,192,83691,1,0,0:0:0:0:
109,192,83826,1,0,0:0:0:0:
329,192,83826,1,0,0:0:0:0:
182,192,83961,1,0,0:0:0:0:
475,192,84096,1,0,0:0:0:0:
256,192,84096,1,0,0:0:0:0:
329,192,84231,1,0,0:0:0:0:
109,192,84299,1,0,0:0:0:0:
402,192,84366,1,0,0:0:0:0:
182,192,84434,1,0,0:0:0:0:
475,192,84501,1,0,0:0:0:0:
36,192,84637,1,0,0:0:0:0:
256,192,84637,1,0,0:0:0:0:
402,192,84772,1,0,0:0:0:0:
329,192,84907,1,0,0:0:0:0:
109,192,84907,1,0,0:0:0:0:
182,192,85042,1,0,0:0:0:0:
256,192,85177,1,0,0:0:0:0:
475,192,85177,1,0,0:0:0:0:
329,192,85312,1,0,0:0:0:0:
109,192,85380,1,0,0:0:0:0:
402,192,85447,1,0,0:0:0:0:
182,192,85515,1,0,0:0:0:0:
475,192,85582,1,0,0:0:0:0:
256,192,85718,1,0,0:0:0:0:
36,192,85718,1,0,0:0:0:0:
402,192,85853,1,0,0:0:0:0:
109,192,85988,1,0,0:0:0:0:
329,192,85988,1,0,0:0:0:0:
182,192,86123,1,0,0:0:0:0:
475,192,86258,1,0,0:0:0:0:
256,192,86258,1,0,0:0:0:0:
329,192,86393,1,0,0:0:0:0:
109,192,86461,1,0,0:0:0:0:
402,192,86528,1,0,0:0:0:0:
182,192,86596,1,0,0:0:0:0:
475,192,86664,1,0,0:0:0:0:
36,192,86799,1,0,0:0:0:0:
256,192,86799,1,0,0:0:0:0:
402,192,86934,1,0,0:0:0:0:
329,192,87069,1,0,0:0:0:0:
36,192,87069,1,0,0:0:0:0:
182,192,87069,1,0,0:0:0:0:
109,192,87069,1,0,0:0:0:0:
256,192,87204,1,0,0:0:0:0:
182,192,87339,1,0,0:0:0:0:
475,192,87339,1,0,0:0:0:0:
256,192,87474,1,0,0:0:0:0:
402,192,87542,1,0,0:0:0:0:
182,192,87610,1,0,0:0:0:0:
329,192,87677,1,0,0:0:0:0:
109,192,87745,1,0,0:0:0:0:
256,192,87880,1,0,0:0:0:0:
475,192,87880,1,0,0:0:0:0:
402,192,88015,1,0,0:0:0:0:
109,192,88150,1,0,0:0:0:0:
329,192,88150,1,0,0:0:0:0:
256,192,88285,1,0,0:0:0:0:
475,192,88420,1,0,0:0:0:0:
182,192,88420,1,0,0:0:0:0:
256,192,88555,1,0,0:0:0:0:
402,192,88623,1,0,0:0:0:0:
182,192,88691,1,0,0:0:0:0:
329,192,88758,1,0,0:0:0:0:
109,192,88826,1,0,0:0:0:0:
256,192,88961,1,0,0:0:0:0:
475,192,88961,1,0,0:0:0:0:
402,192,89096,1,0,0:0:0:0:
329,192,89231,1,0,0:0:0:0:
109,192,89231,1,0,0:0:0:0:
256,192,89366,1,0,0:0:0:0:
182,192,89501,1,0,0:0:0:0:
475,192,89501,1,0,0:0:0:0:
256,192,89637,1,0,0:0:0:0:
402,192,89704,1,0,0:0:0:0:
182,192,89772,1,0,0:0:0:0:
329,192,89839,1,0,0:0:0:0:
109,192,89907,1,0,0:0:0:0:
475,192,90042,1,0,0:0:0:0:
256,192,90042,1,0,0:0:0:0:
402,192,90177,1,0,0:0:0:0:
109,192,90312,1,0,0:0:0:0:
329,192,90312,1,0,0:0:0:0:
256,192,90447,1,0,0:0:0:0:
475,192,90582,1,0,0:0:0:0:
182,192,90582,1,0,0:0:0:0:
256,192,90718,1,0,0:0:0:0:
402,192,90785,1,0,0:0:0:0:
182,192,90853,1,0,0:0:0:0:
329,192,90920,1,0,0:0:0:0:
109,192,90988,1,0,0:0:0:0:
256,192,91123,1,0,0:0:0:0:
475,192,91123,1,0,0:0:0:0:
402,192,91258,1,0,0:0:0:0:
329,192,91393,1,0,0:0:0:0:
36,192,91393,1,0,0:0:0:0:
182,192,91528,1,0,0:0:0:0:
256,192,91664,1,0,0:0:0:0:
402,192,91664,1,0,0:0:0:0:
182,192,91799,1,0,0:0:0:0:
475,192,91866,1,0,0:0:0:0:
109,192,91934,1,0,0:0:0:0:
402,192,92001,1,0,0:0:0:0:
36,192,92069,1,0,0:0:0:0:
256,192,92204,1,0,0:0:0:0:
402,192,92204,1,0,0:0:0:0:
182,192,92339,1,0,0:0:0:0:
36,192,92474,1,0,0:0:0:0:
329,192,92474,1,0,0:0:0:0:
182,192,92610,1,0,0:0:0:0:
402,192,92745,1,0,0:0:0:0:
256,192,92745,1,0,0:0:0:0:
182,192,92880,1,0,0:0:0:0:
475,192,92947,1,0,0:0:0:0:
109,192,93015,1,0,0:0:0:0:
402,192,93082,1,0,0:0:0:0:
36,192,93150,1,0,0:0:0:0:
402,192,93285,1,0,0:0:0:0:
256,192,93285,1,0,0:0:0:0:
182,192,93420,1,0,0:0:0:0:
329,192,93555,1,0,0:0:0:0:
36,192,93555,1,0,0:0:0:0:
182,192,93691,1,0,0:0:0:0:
256,192,93826,1,0,0:0:0:0:
402,192,93826,1,0,0:0:0:0:
182,192,93961,1,0,0:0:0:0:
475,192,94028,1,0,0:0:0:0:
109,192,94096,1,0,0:0:0:0:
402,192,94164,1,0,0:0:0:0:
36,192,94231,1,0,0:0:0:0:
256,192,94366,1,0,0:0:0:0:
402,192,94366,1,0,0:0:0:0:
182,192,94501,1,0,0:0:0:0:
36,192,94637,1,0,0:0:0:0:
329,192,94637,1,0,0:0:0:0:
182,192,94772,1,0,0:0:0:0:
402,192,94907,1,0,0:0:0:0:
256,192,94907,1,0,0:0:0:0:
182,192,95042,1,0,0:0:0:0:
475,192,95110,1,0,0:0:0:0:
109,192,95177,1,0,0:0:0:0:
402,192,95245,1,0,0:0:0:0:
36,192,95312,1,0,0:0:0:0:
402,192,95447,1,0,0:0:0:0:
256,192,95447,1,0,0:0:0:0:
182,192,95582,1,0,0:0:0:0:
109,192,95718,1,0,0:0:0:0:
36,192,95718,1,0,0:0:0:0:
329,192,95718,1,0,0:0:0:0:
475,192,95718,1,0,0:0:0:0:
256,192,95853,1,0,0:0:0:0:
182,192,95988,1,0,0:0:0:0:
402,192,95988,1,0,0:0:0:0:
256,192,96123,1,0,0:0:0:0:
402,192,96191,1,0,0:0:0:0:
182,192,96258,1,0,0:0:0:0:
329,192,96326,1,0,0:0:0:0:
109,192,96393,1,0,0:0:0:0:
256,192,96528,1,0,0:0:0:0:
475,192,96528,1,0,0:0:0:0:
182,192,96664,1,0,0:0:0:0:
109,192,96799,1,0,0:0:0:0:
329,192,96799,1,0,0:0:0:0:
256,192,96934,1,0,0:0:0:0:
402,192,97069,1,0,0:0:0:0:
182,192,97069,1,0,0:0:0:0:
256,192,97204,1,0,0:0:0:0:
402,192,97272,1,0,0:0:0:0:
182,192,97339,1,0,0:0:0:0:
329,192,97407,1,0,0:0:0:0:
109,192,97474,1,0,0:0:0:0:
256,192,97610,1,0,0:0:0:0:
475,192,97610,1,0,0:0:0:0:
182,192,97745,1,0,0:0:0:0:
329,192,97880,1,0,0:0:0:0:
109,192,97880,1,0,0:0:0:0:
256,192,98015,1,0,0:0:0:0:
182,192,98150,1,0,0:0:0:0:
402,192,98150,1,0,0:0:0:0:
256,192,98285,1,0,0:0:0:0:
402,192,98353,1,0,0:0:0:0:
182,192,98420,1,0,0:0:0:0:
329,192,98488,1,0,0:0:0:0:
109,192,98555,1,0,0:0:0:0:
475,192,98691,1,0,0:0:0:0:
256,192,98691,1,0,0:0:0:0:
182,192,98826,1,0,0:0:0:0:
109,192,98961,1,0,0:0:0:0:
329,192,98961,1,0,0:0:0:0:
256,192,99096,1,0,0:0:0:0:
402,192,99231,1,0,0:0:0:0:
182,192,99231,1,0,0:0:0:0:
256,192,99366,1,0,0:0:0:0:
402,192,99434,1,0,0:0:0:0:
182,192,99501,1,0,0:0:0:0:
329,192,99569,1,0,0:0:0:0:
109,192,99637,1,0,0:0:0:0:
256,192,99772,1,0,0:0:0:0:
475,192,99772,1,0,0:0:0:0:
182,192,99907,1,0,0:0:0:0:
109,192,100042,1,0,0:0:0:0:
402,192,100042,1,0,0:0:0:0:
329,192,100177,1,0,0:0:0:0:
256,192,100312,1,0,0:0:0:0:
36,192,100312,1,0,0:0:0:0:
182,192,100447,1,0,0:0:0:0:
402,192,100515,1,0,0:0:0:0:
109,192,100582,1,0,0:0:0:0:
329,192,100650,1,0,0:0:0:0:
36,192,100718,1,0,0:0:0:0:
256,192,100853,1,0,0:0:0:0:
475,192,100853,1,0,0:0:0:0:
329,192,100988,1,0,0:0:0:0:
402,192,101123,1,0,0:0:0:0:
109,192,101123,1,0,0:0:0:0:
329,192,101258,1,0,0:0:0:0:
36,192,101393,1,0,0:0:0:0:
256,192,101393,1,0,0:0:0:0:
182,192,101528,1,0,0:0:0:0:
402,192,101596,1,0,0:0:0:0:
109,192,101664,1,0,0:0:0:0:
329,192,101731,1,0,0:0:0:0:
36,192,101799,1,0,0:0:0:0:
475,192,101934,1,0,0:0:0:0:
256,192,101934,1,0,0:0:0:0:
329,192,102069,1,0,0:0:0:0:
109,192,102204,1,0,0:0:0:0:
402,192,102204,1,0,0:0:0:0:
329,192,102339,1,0,0:0:0:0:
256,192,102474,1,0,0:0:0:0:
36,192,102474,1,0,0:0:0:0:
182,192,102610,1,0,0:0:0:0:
402,192,102677,1,0,0:0:0:0:
109,192,102745,1,0,0:0:0:0:
329,192,102812,1,0,0:0:0:0:
36,192,102880,1,0,0:0:0:0:
256,192,103015,1,0,0:0:0:0:
475,192,103015,1,0,0:0:0:0:
329,192,103150,1,0,0:0:0:0:
402,192,103285,5,0,0:0:0:0:
109,192,103285,1,0,0:0:0:0:
109,192,103420,1,0,0:0:0:0:
402,192,103420,1,0,0:0:0:0:
182,192,103555,1,0,0:0:0:0:
475,192,103555,1,0,0:0:0:0:
182,192,103691,1,0,0:0:0:0:
475,192,103691,1,0,0:0:0:0:
329,192,103826,1,0,0:0:0:0:
256,192,103826,1,0,0:0:0:0:
36,192,103826,1,0,0:0:0:0:
109,192,104028,1,0,0:0:0:0:
329,192,104028,1,0,0:0:0:0:
402,192,104028,1,0,0:0:0:0:
182,192,104231,1,0,0:0:0:0:
402,192,104231,1,0,0:0:0:0:
475,192,104231,1,0,0:0:0:0:
182,192,104366,1,0,0:0:0:0:
402,192,104366,1,0,0:0:0:0:
475,192,104366,1,0,0:0:0:0:
36,192,104366,1,0,0:0:0:0:
256,192,104501,1,0,0:0:0:0:
109,192,104501,1,0,0:0:0:0:
182,192,104637,1,0,0:0:0:0:
329,192,104637,1,0,0:0:0:0:
475,192,104772,1,0,0:0:0:0:
182,192,104772,1,0,0:0:0:0:
36,192,104772,1,0,0:0:0:0:
402,192,104772,1,0,0:0:0:0:
109,192,104907,1,0,0:0:0:0:
329,192,104907,1,0,0:0:0:0:
182,192,105042,1,0,0:0:0:0:
402,192,105042,1,0,0:0:0:0:
256,192,105177,1,0,0:0:0:0:
475,192,105177,1,0,0:0:0:0:
109,192,105245,1,0,0:0:0:0:
329,192,105312,1,0,0:0:0:0:
109,192,105380,1,0,0:0:0:0:
256,192,105447,1,0,0:0:0:0:
475,192,105447,1,0,0:0:0:0:
182,192,105582,1,0,0:0:0:0:
109,192,105718,1,0,0:0:0:0:
402,192,105718,1,0,0:0:0:0:
329,192,105785,1,0,0:0:0:0:
256,192,105853,1,0,0:0:0:0:
182,192,105920,1,0,0:0:0:0:
475,192,105988,1,0,0:0:0:0:
109,192,105988,1,0,0:0:0:0:
402,192,106055,1,0,0:0:0:0:
329,192,106123,1,0,0:0:0:0:
36,192,106123,1,0,0:0:0:0:
109,192,106191,1,0,0:0:0:0:
182,192,106258,1,0,0:0:0:0:
402,192,106258,1,0,0:0:0:0:
329,192,106326,1,0,0:0:0:0:
256,192,106393,1,0,0:0:0:0:
36,192,106393,1,0,0:0:0:0:
109,192,106461,1,0,0:0:0:0:
182,192,106528,1,0,0:0:0:0:
475,192,106528,1,0,0:0:0:0:
402,192,106528,1,0,0:0:0:0:
329,192,106596,1,0,0:0:0:0:
256,192,106664,1,0,0:0:0:0:
182,192,106731,1,0,0:0:0:0:
36,192,106799,1,0,0:0:0:0:
109,192,106799,1,0,0:0:0:0:
402,192,106799,1,0,0:0:0:0:
329,192,106934,1,0,0:0:0:0:
182,192,106934,1,0,0:0:0:0:
256,192,107069,1,0,0:0:0:0:
475,192,107069,1,0,0:0:0:0:
329,192,107204,1,0,0:0:0:0:
109,192,107204,1,0,0:0:0:0:
182,192,107339,1,0,0:0:0:0:
402,192,107339,1,0,0:0:0:0:
109,192,107407,1,0,0:0:0:0:
475,192,107474,1,0,0:0:0:0:
36,192,107474,1,0,0:0:0:0:
402,192,107542,1,0,0:0:0:0:
329,192,107610,1,0,0:0:0:0:
109,192,107610,1,0,0:0:0:0:
182,192,107677,1,0,0:0:0:0:
256,192,107745,1,0,0:0:0:0:
475,192,107745,1,0,0:0:0:0:
402,192,107812,1,0,0:0:0:0:
329,192,107880,1,0,0:0:0:0:
36,192,107880,1,0,0:0:0:0:
109,192,107880,1,0,0:0:0:0:
182,192,108015,1,0,0:0:0:0:
256,192,108082,1,0,0:0:0:0:
329,192,108150,1,0,0:0:0:0:
475,192,108150,1,0,0:0:0:0:
182,192,108285,1,0,0:0:0:0:
36,192,108285,1,0,0:0:0:0:
109,192,108420,1,0,0:0:0:0:
256,192,108420,1,0,0:0:0:0:
182,192,108555,1,0,0:0:0:0:
329,192,108555,1,0,0:0:0:0:
256,192,108691,1,0,0:0:0:0:
402,192,108691,1,0,0:0:0:0:
475,192,108691,1,0,0:0:0:0:
109,192,108691,1,0,0:0:0:0:
329,192,108826,1,0,0:0:0:0:
182,192,108826,1,0,0:0:0:0:
182,192,108961,1,0,0:0:0:0:
36,192,108961,1,0,0:0:0:0:
109,192,109096,1,0,0:0:0:0:
256,192,109096,1,0,0:0:0:0:
402,192,109096,1,0,0:0:0:0:
475,192,109096,1,0,0:0:0:0:
329,192,109231,1,0,0:0:0:0:
182,192,109231,1,0,0:0:0:0:
182,192,109366,1,0,0:0:0:0:
36,192,109366,1,0,0:0:0:0:
109,192,109501,1,0,0:0:0:0:
256,192,109501,1,0,0:0:0:0:
402,192,109501,1,0,0:0:0:0:
475,192,109501,1,0,0:0:0:0:
329,192,109637,1,0,0:0:0:0:
182,192,109637,1,0,0:0:0:0:
182,192,109772,1,0,0:0:0:0:
36,192,109772,1,0,0:0:0:0:
256,192,109907,1,0,0:0:0:0:
402,192,109907,1,0,0:0:0:0:
182,192,109974,1,0,0:0:0:0:
109,192,110042,1,0,0:0:0:0:
329,192,110042,1,0,0:0:0:0:
36,192,110177,1,0,0:0:0:0:
256,192,110177,1,0,0:0:0:0:
475,192,110312,1,0,0:0:0:0:
329,192,110312,1,0,0:0:0:0:
109,192,110380,1,0,0:0:0:0:
256,192,110447,1,0,0:0:0:0:
402,192,110447,1,0,0:0:0:0:
109,192,110515,1,0,0:0:0:0:
329,192,110582,1,0,0:0:0:0:
475,192,110582,1,0,0:0:0:0:
256,192,110650,1,0,0:0:0:0:
182,192,110718,1,0,0:0:0:0:
109,192,110785,1,0,0:0:0:0:
36,192,110853,1,0,0:0:0:0:
475,192,110853,1,0,0:0:0:0:
402,192,110853,1,0,0:0:0:0:
329,192,110920,1,0,0:0:0:0:
256,192,110988,1,0,0:0:0:0:
182,192,111055,1,0,0:0:0:0:
109,192,111123,1,0,0:0:0:0:
36,192,111123,1,0,0:0:0:0:
402,192,111123,1,0,0:0:0:0:
256,192,111191,1,0,0:0:0:0:
329,192,111258,1,0,0:0:0:0:
182,192,111326,1,0,0:0:0:0:
256,192,111393,1,0,0:0:0:0:
475,192,111393,1,0,0:0:0:0:
402,192,111461,1,0,0:0:0:0:
329,192,111528,1,0,0:0:0:0:
36,192,111528,1,0,0:0:0:0:
109,192,111596,1,0,0:0:0:0:
182,192,111664,1,0,0:0:0:0:
402,192,111664,1,0,0:0:0:0:
329,192,111731,1,0,0:0:0:0:
256,192,111799,1,0,0:0:0:0:
36,192,111799,1,0,0:0:0:0:
109,192,111866,1,0,0:0:0:0:
182,192,111934,1,0,0:0:0:0:
475,192,111934,1,0,0:0:0:0:
402,192,111934,1,0,0:0:0:0:
402,192,112069,1,0,0:0:0:0:
329,192,112069,1,0,0:0:0:0:
36,192,112204,1,0,0:0:0:0:
182,192,112204,1,0,0:0:0:0:
329,192,112272,1,0,0:0:0:0:
256,192,112339,1,0,0:0:0:0:
182,192,112407,1,0,0:0:0:0:
109,192,112474,1,0,0:0:0:0:
475,192,112474,1,0,0:0:0:0:
36,192,112474,1,0,0:0:0:0:
402,192,112542,1,0,0:0:0:0:
329,192,112610,1,0,0:0:0:0:
256,192,112677,1,0,0:0:0:0:
182,192,112745,1,0,0:0:0:0:
402,192,112745,1,0,0:0:0:0:
475,192,112745,1,0,0:0:0:0:
329,192,112812,1,0,0:0:0:0:
256,192,112880,1,0,0:0:0:0:
182,192,112947,1,0,0:0:0:0:
109,192,113015,1,0,0:0:0:0:
36,192,113015,1,0,0:0:0:0:
402,192,113015,1,0,0:0:0:0:
475,192,113015,1,0,0:0:0:0:
402,192,113150,1,0,0:0:0:0:
256,192,113150,1,0,0:0:0:0:
182,192,113285,1,0,0:0:0:0:
329,192,113285,1,0,0:0:0:0:
402,192,113420,1,0,0:0:0:0:
109,192,113420,1,0,0:0:0:0:
36,192,113420,1,0,0:0:0:0:
475,192,113420,1,0,0:0:0:0:
256,192,113555,1,0,0:0:0:0:
402,192,113555,1,0,0:0:0:0:
329,192,113691,1,0,0:0:0:0:
182,192,113691,1,0,0:0:0:0:
109,192,113826,1,0,0:0:0:0:
256,192,113826,1,0,0:0:0:0:
402,192,113893,1,0,0:0:0:0:
329,192,113961,1,0,0:0:0:0:
256,192,114028,1,0,0:0:0:0:
182,192,114096,1,0,0:0:0:0:
36,192,114096,1,0,0:0:0:0:
329,192,114164,1,0,0:0:0:0:
475,192,114231,1,0,0:0:0:0:
256,192,114299,1,0,0:0:0:0:
402,192,114366,1,0,0:0:0:0:
109,192,114366,1,0,0:0:0:0:
36,192,114366,1,0,0:0:0:0:
329,192,114501,1,0,0:0:0:0:
182,192,114501,1,0,0:0:0:0:
256,192,114637,1,0,0:0:0:0:
402,192,114637,1,0,0:0:0:0:
182,192,114704,1,0,0:0:0:0:
109,192,114772,1,0,0:0:0:0:
329,192,114772,1,0,0:0:0:0:
256,192,114839,1,0,0:0:0:0:
182,192,114907,1,0,0:0:0:0:
36,192,114907,1,0,0:0:0:0:
475,192,114907,1,0,0:0:0:0:
329,192,115042,1,0,0:0:0:0:
256,192,115110,1,0,0:0:0:0:
182,192,115177,1,0,0:0:0:0:
402,192,115177,1,0,0:0:0:0:
329,192,115312,1,0,0:0:0:0:
109,192,115312,1,0,0:0:0:0:
36,192,115447,1,0,0:0:0:0:
256,192,115447,1,0,0:0:0:0:
402,192,115515,1,0,0:0:0:0:
182,192,115582,1,0,0:0:0:0:
329,192,115650,1,0,0:0:0:0:
182,192,115718,1,0,0:0:0:0:
36,192,115718,1,0,0:0:0:0:
256,192,115853,1,0,0:0:0:0:
402,192,115853,1,0,0:0:0:0:
402,192,115988,1,0,0:0:0:0:
182,192,115988,1,0,0:0:0:0:
36,192,115988,1,0,0:0:0:0:
256,192,116123,1,0,0:0:0:0:
109,192,116258,1,0,0:0:0:0:
329,192,116258,1,0,0:0:0:0:
475,192,116258,1,0,0:0:0:0:
182,192,116393,1,0,0:0:0:0:
402,192,116393,1,0,0:0:0:0:
109,192,116461,1,0,0:0:0:0:
36,192,116528,1,0,0:0:0:0:
329,192,116528,1,0,0:0:0:0:
402,192,116596,1,0,0:0:0:0:
475,192,116664,1,0,0:0:0:0:
256,192,116664,1,0,0:0:0:0:
182,192,116731,1,0,0:0:0:0:
109,192,116799,1,0,0:0:0:0:
329,192,116799,1,0,0:0:0:0:
256,192,116934,1,0,0:0:0:0:
475,192,116934,1,0,0:0:0:0:
182,192,117069,1,0,0:0:0:0:
36,192,117069,1,0,0:0:0:0:
256,192,117137,1,0,0:0:0:0:
329,192,117204,1,0,0:0:0:0:
402,192,117272,1,0,0:0:0:0:
475,192,117339,1,0,0:0:0:0:
182,192,117339,1,0,0:0:0:0:
36,192,117339,1,0,0:0:0:0:
109,192,117339,1,0,0:0:0:0:
182,192,117474,1,0,0:0:0:0:
329,192,117474,1,0,0:0:0:0:
256,192,117610,1,0,0:0:0:0:
402,192,117610,1,0,0:0:0:0:
475,192,117745,1,0,0:0:0:0:
182,192,117745,1,0,0:0:0:0:
36,192,117745,1,0,0:0:0:0:
109,192,117745,1,0,0:0:0:0:
182,192,117880,1,0,0:0:0:0:
329,192,117880,1,0,0:0:0:0:
256,192,118015,1,0,0:0:0:0:
402,192,118015,1,0,0:0:0:0:
36,192,118150,1,0,0:0:0:0:
329,192,118150,1,0,0:0:0:0:
256,192,118218,1,0,0:0:0:0:
182,192,118285,1,0,0:0:0:0:
475,192,118285,1,0,0:0:0:0:
402,192,118353,1,0,0:0:0:0:
329,192,118420,1,0,0:0:0:0:
109,192,118420,1,0,0:0:0:0:
36,192,118420,1,0,0:0:0:0:
182,192,118555,1,0,0:0:0:0:
402,192,118555,1,0,0:0:0:0:
182,192,118691,1,0,0:0:0:0:
36,192,118691,1,0,0:0:0:0:
475,192,118691,1,0,0:0:0:0:
329,192,118826,1,0,0:0:0:0:
109,192,118826,1,0,0:0:0:0:
402,192,118893,1,0,0:0:0:0:
256,192,118961,1,0,0:0:0:0:
329,192,119028,1,0,0:0:0:0:
182,192,119096,1,0,0:0:0:0:
256,192,119164,1,0,0:0:0:0:
475,192,119231,1,0,0:0:0:0:
36,192,119231,1,0,0:0:0:0:
109,192,119299,1,0,0:0:0:0:
182,192,119366,1,0,0:0:0:0:
256,192,119434,1,0,0:0:0:0:
329,192,119501,1,0,0:0:0:0:
109,192,119501,1,0,0:0:0:0:
475,192,119501,1,0,0:0:0:0:
182,192,119569,1,0,0:0:0:0:
256,192,119637,1,0,0:0:0:0:
329,192,119704,1,0,0:0:0:0:
402,192,119772,1,0,0:0:0:0:
36,192,119772,1,0,0:0:0:0:
182,192,119772,1,0,0:0:0:0:
256,192,119839,1,0,0:0:0:0:
329,192,119907,1,0,0:0:0:0:
402,192,119974,1,0,0:0:0:0:
475,192,120042,1,0,0:0:0:0:
109,192,120042,1,0,0:0:0:0:
256,192,120110,1,0,0:0:0:0:
182,192,120177,1,0,0:0:0:0:
329,192,120245,1,0,0:0:0:0:
256,192,120312,1,0,0:0:0:0:
36,192,120312,1,0,0:0:0:0:
402,192,120380,1,0,0:0:0:0:
182,192,120447,1,0,0:0:0:0:
329,192,120515,1,0,0:0:0:0:
109,192,120582,1,0,0:0:0:0:
256,192,120582,1,0,0:0:0:0:
36,192,120582,1,0,0:0:0:0:
329,192,120718,1,0,0:0:0:0:
475,192,120718,1,0,0:0:0:0:
182,192,120853,1,0,0:0:0:0:
329,192,120853,1,0,0:0:0:0:
475,192,120853,1,0,0:0:0:0:
256,192,120988,1,0,0:0:0:0:
109,192,120988,1,0,0:0:0:0:
36,192,120988,1,0,0:0:0:0:
329,192,121123,1,0,0:0:0:0:
475,192,121123,1,0,0:0:0:0:
475,192,121258,1,0,0:0:0:0:
329,192,121258,1,0,0:0:0:0:
182,192,121258,1,0,0:0:0:0:
256,192,121393,1,0,0:0:0:0:
109,192,121393,1,0,0:0:0:0:
36,192,121393,1,0,0:0:0:0:
402,192,121664,1,0,0:0:0:0:
182,192,121664,1,0,0:0:0:0:
475,192,121664,1,0,0:0:0:0:
36,192,121664,1,0,0:0:0:0:
109,192,121799,1,0,0:0:0:0:
256,192,121799,1,0,0:0:0:0:
182,192,121934,1,0,0:0:0:0:
329,192,121934,1,0,0:0:0:0:
36,192,122069,1,0,0:0:0:0:
475,192,122069,1,0,0:0:0:0:
402,192,122069,1,0,0:0:0:0:
182,192,122069,1,0,0:0:0:0:
329,192,122204,1,0,0:0:0:0:
109,192,122204,1,0,0:0:0:0:
182,192,122339,1,0,0:0:0:0:
402,192,122339,1,0,0:0:0:0:
256,192,122474,1,0,0:0:0:0:
475,192,122474,1,0,0:0:0:0:
109,192,122542,1,0,0:0:0:0:
329,192,122610,1,0,0:0:0:0:
109,192,122677,1,0,0:0:0:0:
475,192,122745,1,0,0:0:0:0:
256,192,122745,1,0,0:0:0:0:
182,192,122880,1,0,0:0:0:0:
402,192,123015,1,0,0:0:0:0:
109,192,123015,1,0,0:0:0:0:
329,192,123082,1,0,0:0:0:0:
256,192,123150,1,0,0:0:0:0:
182,192,123218,1,0,0:0:0:0:
109,192,123285,1,0,0:0:0:0:
475,192,123285,1,0,0:0:0:0:
402,192,123353,1,0,0:0:0:0:
36,192,123420,1,0,0:0:0:0:
329,192,123420,1,0,0:0:0:0:
109,192,123488,1,0,0:0:0:0:
182,192,123555,1,0,0:0:0:0:
402,192,123555,1,0,0:0:0:0:
329,192,123623,1,0,0:0:0:0:
36,192,123691,1,0,0:0:0:0:
256,192,123691,1,0,0:0:0:0:
109,192,123758,1,0,0:0:0:0:
475,192,123826,1,0,0:0:0:0:
402,192,123826,1,0,0:0:0:0:
182,192,123826,1,0,0:0:0:0:
329,192,123893,1,0,0:0:0:0:
256,192,123961,1,0,0:0:0:0:
182,192,124028,1,0,0:0:0:0:
36,192,124096,1,0,0:0:0:0:
109,192,124096,1,0,0:0:0:0:
402,192,124096,1,0,0:0:0:0:
329,192,124231,1,0,0:0:0:0:
182,192,124231,1,0,0:0:0:0:
475,192,124366,1,0,0:0:0:0:
256,192,124366,1,0,0:0:0:0:
109,192,124501,1,0,0:0:0:0:
329,192,124501,1,0,0:0:0:0:
182,192,124637,1,0,0:0:0:0:
402,192,124637,1,0,0:0:0:0:
109,192,124704,1,0,0:0:0:0:
36,192,124772,1,0,0:0:0:0:
475,192,124772,1,0,0:0:0:0:
402,192,124839,1,0,0:0:0:0:
109,192,124907,1,0,0:0:0:0:
329,192,124907,1,0,0:0:0:0:
182,192,124974,1,0,0:0:0:0:
256,192,125042,1,0,0:0:0:0:
475,192,125042,1,0,0:0:0:0:
402,192,125110,1,0,0:0:0:0:
109,192,125177,1,0,0:0:0:0:
329,192,125177,1,0,0:0:0:0:
36,192,125177,1,0,0:0:0:0:
182,192,125312,1,0,0:0:0:0:
256,192,125380,1,0,0:0:0:0:
329,192,125447,1,0,0:0:0:0:
475,192,125447,1,0,0:0:0:0:
182,192,125582,1,0,0:0:0:0:
36,192,125582,1,0,0:0:0:0:
109,192,125718,1,0,0:0:0:0:
256,192,125718,1,0,0:0:0:0:
329,192,125853,1,0,0:0:0:0:
182,192,125853,1,0,0:0:0:0:
256,192,125988,1,0,0:0:0:0:
109,192,125988,1,0,0:0:0:0:
402,192,125988,1,0,0:0:0:0:
475,192,125988,1,0,0:0:0:0:
182,192,126123,1,0,0:0:0:0:
329,192,126123,1,0,0:0:0:0:
182,192,126258,1,0,0:0:0:0:
36,192,126258,1,0,0:0:0:0:
256,192,126393,1,0,0:0:0:0:
475,192,126393,1,0,0:0:0:0:
109,192,126393,1,0,0:0:0:0:
402,192,126393,1,0,0:0:0:0:
329,192,126528,1,0,0:0:0:0:
182,192,126528,1,0,0:0:0:0:
182,192,126664,1,0,0:0:0:0:
36,192,126664,1,0,0:0:0:0:
402,192,126799,1,0,0:0:0:0:
109,192,126799,1,0,0:0:0:0:
475,192,126799,1,0,0:0:0:0:
256,192,126799,1,0,0:0:0:0:
329,192,126934,1,0,0:0:0:0:
182,192,126934,1,0,0:0:0:0:
182,192,127069,1,0,0:0:0:0:
36,192,127069,1,0,0:0:0:0:
256,192,127204,1,0,0:0:0:0:
402,192,127204,1,0,0:0:0:0:
182,192,127272,1,0,0:0:0:0:
329,192,127339,1,0,0:0:0:0:
109,192,127339,1,0,0:0:0:0:
256,192,127474,1,0,0:0:0:0:
36,192,127474,1,0,0:0:0:0:
329,192,127610,1,0,0:0:0:0:
475,192,127610,1,0,0:0:0:0:
109,192,127677,1,0,0:0:0:0:
256,192,127745,1,0,0:0:0:0:
402,192,127745,1,0,0:0:0:0:
109,192,127812,1,0,0:0:0:0:
329,192,127880,1,0,0:0:0:0:
475,192,127880,1,0,0:0:0:0:
256,192,127947,1,0,0:0:0:0:
182,192,128015,1,0,0:0:0:0:
109,192,128082,1,0,0:0:0:0:
402,192,128150,1,0,0:0:0:0:
475,192,128150,1,0,0:0:0:0:
36,192,128150,1,0,0:0:0:0:
329,192,128218,1,0,0:0:0:0:
256,192,128285,1,0,0:0:0:0:
182,192,128353,1,0,0:0:0:0:
109,192,128420,1,0,0:0:0:0:
402,192,128420,1,0,0:0:0:0:
36,192,128420,1,0,0:0:0:0:
256,192,128488,1,0,0:0:0:0:
329,192,128555,1,0,0:0:0:0:
182,192,128623,1,0,0:0:0:0:
475,192,128691,1,0,0:0:0:0:
256,192,128691,1,0,0:0:0:0:
402,192,128758,1,0,0:0:0:0:
329,192,128826,1,0,0:0:0:0:
36,192,128826,1,0,0:0:0:0:
109,192,128893,1,0,0:0:0:0:
182,192,128961,1,0,0:0:0:0:
402,192,128961,1,0,0:0:0:0:
329,192,129028,1,0,0:0:0:0:
256,192,129096,1,0,0:0:0:0:
36,192,129096,1,0,0:0:0:0:
109,192,129164,1,0,0:0:0:0:
402,192,129231,1,0,0:0:0:0:
182,192,129231,1,0,0:0:0:0:
475,192,129231,1,0,0:0:0:0:
329,192,129366,1,0,0:0:0:0:
402,192,129366,1,0,0:0:0:0:
36,192,129501,1,0,0:0:0:0:
182,192,129501,1,0,0:0:0:0:
329,192,129569,1,0,0:0:0:0:
256,192,129637,1,0,0:0:0:0:
182,192,129704,1,0,0:0:0:0:
475,192,129772,1,0,0:0:0:0:
36,192,129772,1,0,0:0:0:0:
109,192,129772,1,0,0:0:0:0:
402,192,129839,1,0,0:0:0:0:
329,192,129907,1,0,0:0:0:0:
256,192,129974,1,0,0:0:0:0:
475,192,130042,1,0,0:0:0:0:
402,192,130042,1,0,0:0:0:0:
182,192,130042,1,0,0:0:0:0:
329,192,130110,1,0,0:0:0:0:
256,192,130177,1,0,0:0:0:0:
182,192,130245,1,0,0:0:0:0:
402,192,130312,1,0,0:0:0:0:
109,192,130312,1,0,0:0:0:0:
36,192,130312,1,0,0:0:0:0:
402,192,130447,1,0,0:0:0:0:
256,192,130447,1,0,0:0:0:0:
182,192,130582,1,0,0:0:0:0:
329,192,130582,1,0,0:0:0:0:
109,192,130718,1,0,0:0:0:0:
402,192,130718,1,0,0:0:0:0:
36,192,130718,1,0,0:0:0:0:
256,192,130853,1,0,0:0:0:0:
402,192,130853,1,0,0:0:0:0:
329,192,130988,1,0,0:0:0:0:
182,192,130988,1,0,0:0:0:0:
256,192,131123,1,0,0:0:0:0:
109,192,131123,1,0,0:0:0:0:
402,192,131191,1,0,0:0:0:0:
329,192,131258,1,0,0:0:0:0:
256,192,131326,1,0,0:0:0:0:
36,192,131393,1,0,0:0:0:0:
182,192,131393,1,0,0:0:0:0:
329,192,131461,1,0,0:0:0:0:
475,192,131528,1,0,0:0:0:0:
256,192,131596,1,0,0:0:0:0:
36,192,131664,1,0,0:0:0:0:
402,192,131664,1,0,0:0:0:0:
109,192,131664,1,0,0:0:0:0:
182,192,131799,1,0,0:0:0:0:
329,192,131799,1,0,0:0:0:0:
402,192,131934,1,0,0:0:0:0:
256,192,131934,1,0,0:0:0:0:
182,192,132001,1,0,0:0:0:0:
109,192,132069,1,0,0:0:0:0:
329,192,132069,1,0,0:0:0:0:
256,192,132137,1,0,0:0:0:0:
182,192,132204,1,0,0:0:0:0:
475,192,132204,1,0,0:0:0:0:
36,192,132204,1,0,0:0:0:0:
329,192,132339,1,0,0:0:0:0:
256,192,132407,1,0,0:0:0:0:
402,192,132474,1,0,0:0:0:0:
182,192,132474,1,0,0:0:0:0:
109,192,132610,1,0,0:0:0:0:
329,192,132610,1,0,0:0:0:0:
256,192,132745,1,0,0:0:0:0:
36,192,132745,1,0,0:0:0:0:
402,192,132812,1,0,0:0:0:0:
182,192,132880,1,0,0:0:0:0:
329,192,132947,1,0,0:0:0:0:
36,192,133015,1,0,0:0:0:0:
182,192,133015,1,0,0:0:0:0:
402,192,133150,1,0,0:0:0:0:
256,192,133150,1,0,0:0:0:0:
182,192,133285,1,0,0:0:0:0:
36,192,133285,1,0,0:0:0:0:
402,192,133285,1,0,0:0:0:0:
256,192,133420,1,0,0:0:0:0:
109,192,133555,1,0,0:0:0:0:
475,192,133555,1,0,0:0:0:0:
329,192,133555,1,0,0:0:0:0:
182,192,133691,1,0,0:0:0:0:
402,192,133691,1,0,0:0:0:0:
109,192,133758,1,0,0:0:0:0:
329,192,133826,1,0,0:0:0:0:
36,192,133826,1,0,0:0:0:0:
402,192,133893,1,0,0:0:0:0:
256,192,133961,1,0,0:0:0:0:
475,192,133961,1,0,0:0:0:0:
182,192,134028,1,0,0:0:0:0:
329,192,134096,1,0,0:0:0:0:
109,192,134096,1,0,0:0:0:0:
475,192,134231,1,0,0:0:0:0:
256,192,134231,1,0,0:0:0:0:
36,192,134366,1,0,0:0:0:0:
182,192,134366,1,0,0:0:0:0:
256,192,134434,1,0,0:0:0:0:
329,192,134501,1,0,0:0:0:0:
402,192,134569,1,0,0:0:0:0:
109,192,134637,1,0,0:0:0:0:
182,192,134637,1,0,0:0:0:0:
36,192,134637,1,0,0:0:0:0:
475,192,134637,1,0,0:0:0:0:
329,192,134772,1,0,0:0:0:0:
182,192,134772,1,0,0:0:0:0:
256,192,134907,1,0,0:0:0:0:
402,192,134907,1,0,0:0:0:0:
109,192,135042,1,0,0:0:0:0:
182,192,135042,1,0,0:0:0:0:
36,192,135042,1,0,0:0:0:0:
475,192,135042,1,0,0:0:0:0:
329,192,135177,1,0,0:0:0:0:
182,192,135177,1,0,0:0:0:0:
256,192,135312,1,0,0:0:0:0:
402,192,135312,1,0,0:0:0:0:
36,192,135447,1,0,0:0:0:0:
329,192,135447,1,0,0:0:0:0:
256,192,135515,1,0,0:0:0:0:
182,192,135582,1,0,0:0:0:0:
475,192,135582,1,0,0:0:0:0:
402,192,135650,1,0,0:0:0:0:
109,192,135718,1,0,0:0:0:0:
36,192,135718,1,0,0:0:0:0:
329,192,135718,1,0,0:0:0:0:
402,192,135853,1,0,0:0:0:0:
182,192,135853,1,0,0:0:0:0:
475,192,135988,1,0,0:0:0:0:
182,192,135988,1,0,0:0:0:0:
36,192,135988,1,0,0:0:0:0:
329,192,136123,1,0,0:0:0:0:
109,192,136123,1,0,0:0:0:0:
402,192,136191,1,0,0:0:0:0:
256,192,136258,1,0,0:0:0:0:
329,192,136326,1,0,0:0:0:0:
182,192,136393,1,0,0:0:0:0:
256,192,136461,1,0,0:0:0:0:
475,192,136528,1,0,0:0:0:0:
36,192,136528,1,0,0:0:0:0:
109,192,136596,1,0,0:0:0:0:
182,192,136664,1,0,0:0:0:0:
256,192,136731,1,0,0:0:0:0:
475,192,136799,1,0,0:0:0:0:
329,192,136799,1,0,0:0:0:0:
109,192,136799,1,0,0:0:0:0:
182,192,136866,1,0,0:0:0:0:
256,192,136934,1,0,0:0:0:0:
329,192,137001,1,0,0:0:0:0:
182,192,137069,1,0,0:0:0:0:
402,192,137069,1,0,0:0:0:0:
36,192,137069,1,0,0:0:0:0:
256,192,137137,1,0,0:0:0:0:
329,192,137204,1,0,0:0:0:0:
402,192,137272,1,0,0:0:0:0:
475,192,137339,1,0,0:0:0:0:
109,192,137339,1,0,0:0:0:0:
256,192,137407,1,0,0:0:0:0:
182,192,137474,1,0,0:0:0:0:
329,192,137542,1,0,0:0:0:0:
36,192,137610,1,0,0:0:0:0:
256,192,137610,1,0,0:0:0:0:
402,192,137677,1,0,0:0:0:0:
182,192,137745,1,0,0:0:0:0:
329,192,137812,1,0,0:0:0:0:
256,192,137880,1,0,0:0:0:0:
36,192,137880,1,0,0:0:0:0:
109,192,137880,1,0,0:0:0:0:
475,192,138015,1,0,0:0:0:0:
329,192,138015,1,0,0:0:0:0:
475,192,138150,1,0,0:0:0:0:
329,192,138150,1,0,0:0:0:0:
182,192,138150,1,0,0:0:0:0:
109,192,138285,1,0,0:0:0:0:
256,192,138285,1,0,0:0:0:0:
36,192,138285,1,0,0:0:0:0:
475,192,138420,1,0,0:0:0:0:
329,192,138420,1,0,0:0:0:0:
329,192,138555,1,0,0:0:0:0:
182,192,138555,1,0,0:0:0:0:
475,192,138555,1,0,0:0:0:0:
109,192,138691,1,0,0:0:0:0:
36,192,138691,1,0,0:0:0:0:
256,192,138691,1,0,0:0:0:0:
402,192,138961,1,0,0:0:0:0:
475,192,138961,1,0,0:0:0:0:
256,192,138961,1,0,0:0:0:0:
36,192,138961,1,0,0:0:0:0:
109,192,139096,1,0,0:0:0:0:
256,192,139096,1,0,0:0:0:0:
182,192,139231,1,0,0:0:0:0:
329,192,139231,1,0,0:0:0:0:
256,192,139366,1,0,0:0:0:0:
36,192,139366,1,0,0:0:0:0:
402,192,139366,1,0,0:0:0:0:
475,192,139366,1,0,0:0:0:0:
109,192,139501,1,0,0:0:0:0:
256,192,139501,1,0,0:0:0:0:
182,192,139637,1,0,0:0:0:0:
329,192,139637,1,0,0:0:0:0:
256,192,139772,1,0,0:0:0:0:
402,192,139772,1,0,0:0:0:0:
475,192,139772,1,0,0:0:0:0:
36,192,139772,1,0,0:0:0:0:
182,192,139907,1,0,0:0:0:0:
329,192,139907,1,0,0:0:0:0:
109,192,139974,1,0,0:0:0:0:
256,192,140042,1,0,0:0:0:0:
402,192,140042,1,0,0:0:0:0:
475,192,140042,1,0,0:0:0:0:
329,192,140177,1,0,0:0:0:0:
36,192,140177,1,0,0:0:0:0:
109,192,140245,1,0,0:0:0:0:
182,192,140312,1,0,0:0:0:0:
256,192,140380,1,0,0:0:0:0:
329,192,140447,1,0,0:0:0:0:
402,192,140515,1,0,0:0:0:0:
36,192,140582,1,0,0:0:0:0:
475,192,140582,1,0,0:0:0:0:
109,192,140650,1,0,0:0:0:0:
182,192,140718,1,0,0:0:0:0:
329,192,140718,1,0,0:0:0:0:
402,192,140785,1,0,0:0:0:0:
475,192,140853,1,0,0:0:0:0:
256,192,140853,1,0,0:0:0:0:
182,192,140920,1,0,0:0:0:0:
109,192,140988,1,0,0:0:0:0:
402,192,140988,1,0,0:0:0:0:
329,192,141055,1,0,0:0:0:0:
256,192,141123,1,0,0:0:0:0:
36,192,141123,1,0,0:0:0:0:
109,192,141191,1,0,0:0:0:0:
182,192,141258,1,0,0:0:0:0:
256,192,141326,1,0,0:0:0:0:
329,192,141393,1,0,0:0:0:0:
36,192,141393,1,0,0:0:0:0:
475,192,141393,1,0,0:0:0:0:
182,192,141461,1,0,0:0:0:0:
109,192,141528,1,0,0:0:0:0:
256,192,141664,1,0,0:0:0:0:
402,192,141664,1,0,0:0:0:0:
329,192,141799,1,0,0:0:0:0:
36,192,141799,1,0,0:0:0:0:
109,192,141866,1,0,0:0:0:0:
182,192,141934,1,0,0:0:0:0:
475,192,141934,1,0,0:0:0:0:
402,192,142001,1,0,0:0:0:0:
329,192,142069,1,0,0:0:0:0:
109,192,142069,1,0,0:0:0:0:
182,192,142137,1,0,0:0:0:0:
256,192,142204,1,0,0:0:0:0:
475,192,142204,1,0,0:0:0:0:
402,192,142272,1,0,0:0:0:0:
329,192,142339,1,0,0:0:0:0:
182,192,142339,1,0,0:0:0:0:
109,192,142407,1,0,0:0:0:0:
36,192,142474,1,0,0:0:0:0:
256,192,142474,1,0,0:0:0:0:
182,192,142610,1,0,0:0:0:0:
256,192,142677,1,0,0:0:0:0:
329,192,142745,1,0,0:0:0:0:
475,192,142745,1,0,0:0:0:0:
36,192,142812,1,0,0:0:0:0:
402,192,142880,1,0,0:0:0:0:
182,192,142947,1,0,0:0:0:0:
329,192,143015,1,0,0:0:0:0:
475,192,143015,1,0,0:0:0:0:
109,192,143082,1,0,0:0:0:0:
329,192,143150,1,0,0:0:0:0:
256,192,143218,1,0,0:0:0:0:
182,192,143285,1,0,0:0:0:0:
36,192,143285,1,0,0:0:0:0:
402,192,143285,1,0,0:0:0:0:
475,192,143285,1,0,0:0:0:0:
329,192,143420,1,0,0:0:0:0:
109,192,143420,1,0,0:0:0:0:
256,192,143555,1,0,0:0:0:0:
109,192,143555,1,0,0:0:0:0:
182,192,143691,1,0,0:0:0:0:
36,192,143691,1,0,0:0:0:0:
402,192,143691,1,0,0:0:0:0:
475,192,143691,1,0,0:0:0:0:
329,192,143826,1,0,0:0:0:0:
109,192,143826,1,0,0:0:0:0:
109,192,143961,1,0,0:0:0:0:
256,192,143961,1,0,0:0:0:0:
402,192,144096,1,0,0:0:0:0:
475,192,144096,1,0,0:0:0:0:
182,192,144096,1,0,0:0:0:0:
36,192,144096,1,0,0:0:0:0:
329,192,144231,1,0,0:0:0:0:
109,192,144231,1,0,0:0:0:0:
109,192,144366,1,0,0:0:0:0:
256,192,144366,1,0,0:0:0:0:
475,192,144366,1,0,0:0:0:0:
182,192,144501,1,0,0:0:0:0:
256,192,144569,1,0,0:0:0:0:
329,192,144637,1,0,0:0:0:0:
475,192,144637,1,0,0:0:0:0:
329,192,144772,1,0,0:0:0:0:
109,192,144772,1,0,0:0:0:0:
182,192,144907,1,0,0:0:0:0:
36,192,144907,1,0,0:0:0:0:
475,192,144974,1,0,0:0:0:0:
109,192,145042,1,0,0:0:0:0:
402,192,145110,1,0,0:0:0:0:
182,192,145177,1,0,0:0:0:0:
36,192,145177,1,0,0:0:0:0:
256,192,145245,1,0,0:0:0:0:
329,192,145312,1,0,0:0:0:0:
402,192,145380,1,0,0:0:0:0:
475,192,145447,1,0,0:0:0:0:
36,192,145447,1,0,0:0:0:0:
109,192,145447,1,0,0:0:0:0:
182,192,145515,1,0,0:0:0:0:
256,192,145582,1,0,0:0:0:0:
329,192,145650,1,0,0:0:0:0:
402,192,145718,1,0,0:0:0:0:
475,192,145718,1,0,0:0:0:0:
182,192,145785,1,0,0:0:0:0:
402,192,145853,1,0,0:0:0:0:
329,192,145853,1,0,0:0:0:0:
182,192,145920,1,0,0:0:0:0:
329,192,145988,1,0,0:0:0:0:
36,192,145988,1,0,0:0:0:0:
402,192,146055,1,0,0:0:0:0:
475,192,146123,1,0,0:0:0:0:
256,192,146123,1,0,0:0:0:0:
182,192,146191,1,0,0:0:0:0:
109,192,146258,1,0,0:0:0:0:
402,192,146258,1,0,0:0:0:0:
329,192,146326,1,0,0:0:0:0:
256,192,146393,1,0,0:0:0:0:
36,192,146393,1,0,0:0:0:0:
109,192,146461,1,0,0:0:0:0:
182,192,146528,1,0,0:0:0:0:
402,192,146528,1,0,0:0:0:0:
475,192,146528,1,0,0:0:0:0:
329,192,146664,1,0,0:0:0:0:
182,192,146664,1,0,0:0:0:0:
256,192,146799,1,0,0:0:0:0:
109,192,146799,1,0,0:0:0:0:
402,192,146866,1,0,0:0:0:0:
182,192,146934,1,0,0:0:0:0:
329,192,147001,1,0,0:0:0:0:
109,192,147069,1,0,0:0:0:0:
36,192,147069,1,0,0:0:0:0:
182,192,147137,1,0,0:0:0:0:
256,192,147204,1,0,0:0:0:0:
329,192,147272,1,0,0:0:0:0:
402,192,147339,1,0,0:0:0:0:
475,192,147339,1,0,0:0:0:0:
36,192,147339,1,0,0:0:0:0:
109,192,147407,1,0,0:0:0:0:
182,192,147474,1,0,0:0:0:0:
256,192,147542,1,0,0:0:0:0:
329,192,147610,1,0,0:0:0:0:
402,192,147610,1,0,0:0:0:0:
475,192,147610,1,0,0:0:0:0:
36,192,147610,1,0,0:0:0:0:
329,192,147745,1,0,0:0:0:0:
182,192,147745,1,0,0:0:0:0:
109,192,147880,1,0,0:0:0:0:
256,192,147880,1,0,0:0:0:0:
329,192,148015,1,0,0:0:0:0:
402,192,148015,1,0,0:0:0:0:
475,192,148015,1,0,0:0:0:0:
36,192,148015,1,0,0:0:0:0:
329,192,148150,1,0,0:0:0:0:
182,192,148150,1,0,0:0:0:0:
256,192,148285,1,0,0:0:0:0:
109,192,148285,1,0,0:0:0:0:
329,192,148420,1,0,0:0:0:0:
402,192,148420,1,0,0:0:0:0:
475,192,148420,1,0,0:0:0:0:
36,192,148420,1,0,0:0:0:0:
109,192,148488,1,0,0:0:0:0:
182,192,148555,1,0,0:0:0:0:
402,192,148555,1,0,0:0:0:0:
329,192,148623,1,0,0:0:0:0:
256,192,148691,1,0,0:0:0:0:
109,192,148691,1,0,0:0:0:0:
475,192,148758,1,0,0:0:0:0:
402,192,148826,1,0,0:0:0:0:
329,192,148893,1,0,0:0:0:0:
256,192,148961,1,0,0:0:0:0:
109,192,148961,1,0,0:0:0:0:
402,192,149028,1,0,0:0:0:0:
182,192,149096,1,0,0:0:0:0:
329,192,149231,1,0,0:0:0:0:
36,192,149231,1,0,0:0:0:0:
182,192,149299,1,0,0:0:0:0:
402,192,149366,1,0,0:0:0:0:
182,192,149434,1,0,0:0:0:0:
475,192,149501,1,0,0:0:0:0:
256,192,149501,1,0,0:0:0:0:
329,192,149501,1,0,0:0:0:0:
109,192,149501,1,0,0:0:0:0:
182,192,149637,1,0,0:0:0:0:
329,192,149637,1,0,0:0:0:0:
256,192,149772,1,0,0:0:0:0:
109,192,149772,1,0,0:0:0:0:
36,192,149772,1,0,0:0:0:0:
329,192,149839,1,0,0:0:0:0:
402,192,149907,1,0,0:0:0:0:
475,192,149907,1,0,0:0:0:0:
182,192,150042,1,0,0:0:0:0:
36,192,150042,1,0,0:0:0:0:
329,192,150110,1,0,0:0:0:0:
256,192,150177,1,0,0:0:0:0:
182,192,150245,1,0,0:0:0:0:
329,192,150312,1,0,0:0:0:0:
475,192,150312,1,0,0:0:0:0:
402,192,150447,1,0,0:0:0:0:
256,192,150447,1,0,0:0:0:0:
109,192,150447,1,0,0:0:0:0:
182,192,150582,1,0,0:0:0:0:
329,192,150582,1,0,0:0:0:0:
36,192,150718,1,0,0:0:0:0:
109,192,150718,1,0,0:0:0:0:
256,192,150718,1,0,0:0:0:0:
329,192,150853,1,0,0:0:0:0:
475,192,150853,1,0,0:0:0:0:
402,192,150988,1,0,0:0:0:0:
182,192,150988,1,0,0:0:0:0:
109,192,151055,1,0,0:0:0:0:
36,192,151123,1,0,0:0:0:0:
256,192,151123,1,0,0:0:0:0:
329,192,151191,1,0,0:0:0:0:
402,192,151258,1,0,0:0:0:0:
109,192,151258,1,0,0:0:0:0:
182,192,151326,1,0,0:0:0:0:
256,192,151393,1,0,0:0:0:0:
475,192,151393,1,0,0:0:0:0:
402,192,151461,1,0,0:0:0:0:
329,192,151528,1,0,0:0:0:0:
182,192,151596,1,0,0:0:0:0:
402,192,151664,1,0,0:0:0:0:
109,192,151731,1,0,0:0:0:0:
329,192,151799,1,0,0:0:0:0:
36,192,151866,1,0,0:0:0:0:
256,192,151934,1,0,0:0:0:0:
475,192,151934,1,0,0:0:0:0:
402,192,151934,1,0,0:0:0:0:
182,192,151934,1,0,0:0:0:0:
329,192,152069,1,0,0:0:0:0:
109,192,152069,1,0,0:0:0:0:
36,192,152204,1,0,0:0:0:0:
329,192,152204,1,0,0:0:0:0:
182,192,152204,1,0,0:0:0:0:
182,192,152339,1,0,0:0:0:0:
256,192,152339,1,0,0:0:0:0:
402,192,152339,1,0,0:0:0:0:
475,192,152339,1,0,0:0:0:0:
329,192,152474,1,0,0:0:0:0:
109,192,152474,1,0,0:0:0:0:
329,192,152610,1,0,0:0:0:0:
36,192,152610,1,0,0:0:0:0:
402,192,152610,1,0,0:0:0:0:
256,192,152745,1,0,0:0:0:0:
109,192,152745,1,0,0:0:0:0:
329,192,152812,1,0,0:0:0:0:
402,192,152880,1,0,0:0:0:0:
182,192,152880,1,0,0:0:0:0:
109,192,152947,1,0,0:0:0:0:
36,192,153015,1,0,0:0:0:0:
329,192,153015,1,0,0:0:0:0:
475,192,153015,1,0,0:0:0:0:
256,192,153015,1,0,0:0:0:0:
182,192,153150,1,0,0:0:0:0:
402,192,153150,1,0,0:0:0:0:
109,192,153285,1,0,0:0:0:0:
329,192,153285,1,0,0:0:0:0:
182,192,153420,1,0,0:0:0:0:
402,192,153420,1,0,0:0:0:0:
109,192,153488,1,0,0:0:0:0:
36,192,153555,1,0,0:0:0:0:
329,192,153555,1,0,0:0:0:0:
402,192,153623,1,0,0:0:0:0:
475,192,153691,1,0,0:0:0:0:
256,192,153691,1,0,0:0:0:0:
182,192,153758,1,0,0:0:0:0:
109,192,153826,1,0,0:0:0:0:
402,192,153826,1,0,0:0:0:0:
329,192,153893,1,0,0:0:0:0:
256,192,153961,1,0,0:0:0:0:
182,192,154028,1,0,0:0:0:0:
109,192,154096,1,0,0:0:0:0:
36,192,154096,1,0,0:0:0:0:
475,192,154096,1,0,0:0:0:0:
402,192,154164,1,0,0:0:0:0:
329,192,154231,1,0,0:0:0:0:
256,192,154299,1,0,0:0:0:0:
182,192,154366,1,0,0:0:0:0:
36,192,154366,1,0,0:0:0:0:
109,192,154434,1,0,0:0:0:0:
182,192,154501,1,0,0:0:0:0:
256,192,154569,1,0,0:0:0:0:
329,192,154637,1,0,0:0:0:0:
475,192,154637,1,0,0:0:0:0:
182,192,154704,1,0,0:0:0:0:
402,192,154772,1,0,0:0:0:0:
109,192,154839,1,0,0:0:0:0:
329,192,154907,1,0,0:0:0:0:
475,192,154907,1,0,0:0:0:0:
256,192,154974,1,0,0:0:0:0:
182,192,155042,1,0,0:0:0:0:
109,192,155110,1,0,0:0:0:0:
36,192,155177,1,0,0:0:0:0:
329,192,155177,1,0,0:0:0:0:
402,192,155177,1,0,0:0:0:0:
256,192,155312,1,0,0:0:0:0:
182,192,155447,1,0,0:0:0:0:
475,192,155447,1,0,0:0:0:0:
402,192,155515,1,0,0:0:0:0:
329,192,155582,1,0,0:0:0:0:
36,192,155582,1,0,0:0:0:0:
182,192,155582,1,0,0:0:0:0:
109,192,155718,1,0,0:0:0:0:
256,192,155718,1,0,0:0:0:0:
329,192,155785,1,0,0:0:0:0:
402,192,155853,1,0,0:0:0:0:
182,192,155853,1,0,0:0:0:0:
109,192,155920,1,0,0:0:0:0:
36,192,155988,1,0,0:0:0:0:
329,192,155988,1,0,0:0:0:0:
475,192,155988,1,0,0:0:0:0:
256,192,156055,1,0,0:0:0:0:
182,192,156123,1,0,0:0:0:0:
109,192,156191,1,0,0:0:0:0:
475,192,156258,1,0,0:0:0:0:
36,192,156258,1,0,0:0:0:0:
402,192,156258,1,0,0:0:0:0:
256,192,156258,1,0,0:0:0:0:
109,192,156393,1,0,0:0:0:0:
256,192,156393,1,0,0:0:0:0:
329,192,156528,1,0,0:0:0:0:
182,192,156528,1,0,0:0:0:0:
402,192,156664,1,0,0:0:0:0:
256,192,156664,1,0,0:0:0:0:
36,192,156664,1,0,0:0:0:0:
475,192,156664,1,0,0:0:0:0:
256,192,156799,1,0,0:0:0:0:
109,192,156799,1,0,0:0:0:0:
329,192,156934,1,0,0:0:0:0:
182,192,156934,1,0,0:0:0:0:
475,192,157069,1,0,0:0:0:0:
256,192,157069,1,0,0:0:0:0:
402,192,157069,1,0,0:0:0:0:
36,192,157069,1,0,0:0:0:0:
182,192,157204,1,0,0:0:0:0:
329,192,157204,1,0,0:0:0:0:
109,192,157272,1,0,0:0:0:0:
475,192,157339,1,0,0:0:0:0:
256,192,157339,1,0,0:0:0:0:
402,192,157339,1,0,0:0:0:0:
329,192,157474,1,0,0:0:0:0:
36,192,157474,1,0,0:0:0:0:
109,192,157542,1,0,0:0:0:0:
182,192,157610,1,0,0:0:0:0:
256,192,157677,1,0,0:0:0:0:
329,192,157745,1,0,0:0:0:0:
402,192,157812,1,0,0:0:0:0:
475,192,157880,1,0,0:0:0:0:
36,192,157880,1,0,0:0:0:0:
109,192,157947,1,0,0:0:0:0:
329,192,158015,1,0,0:0:0:0:
182,192,158015,1,0,0:0:0:0:
402,192,158082,1,0,0:0:0:0:
256,192,158150,1,0,0:0:0:0:
475,192,158150,1,0,0:0:0:0:
182,192,158218,1,0,0:0:0:0:
109,192,158285,1,0,0:0:0:0:
402,192,158285,1,0,0:0:0:0:
329,192,158353,1,0,0:0:0:0:
36,192,158420,1,0,0:0:0:0:
256,192,158420,1,0,0:0:0:0:
109,192,158488,1,0,0:0:0:0:
182,192,158555,1,0,0:0:0:0:
256,192,158623,1,0,0:0:0:0:
475,192,158691,1,0,0:0:0:0:
36,192,158691,1,0,0:0:0:0:
329,192,158691,1,0,0:0:0:0:
182,192,158758,1,0,0:0:0:0:
109,192,158826,1,0,0:0:0:0:
256,192,158961,1,0,0:0:0:0:
402,192,158961,1,0,0:0:0:0:
329,192,159096,1,0,0:0:0:0:
36,192,159096,1,0,0:0:0:0:
109,192,159164,1,0,0:0:0:0:
475,192,159231,1,0,0:0:0:0:
182,192,159231,1,0,0:0:0:0:
402,192,159299,1,0,0:0:0:0:
329,192,159366,1,0,0:0:0:0:
109,192,159366,1,0,0:0:0:0:
182,192,159434,1,0,0:0:0:0:
256,192,159501,1,0,0:0:0:0:
475,192,159501,1,0,0:0:0:0:
402,192,159569,1,0,0:0:0:0:
182,192,159637,1,0,0:0:0:0:
329,192,159637,1,0,0:0:0:0:
109,192,159704,1,0,0:0:0:0:
36,192,159772,1,0,0:0:0:0:
256,192,159772,1,0,0:0:0:0:
182,192,159907,1,0,0:0:0:0:
256,192,159974,1,0,0:0:0:0:
329,192,160042,1,0,0:0:0:0:
475,192,160042,1,0,0:0:0:0:
36,192,160110,1,0,0:0:0:0:
402,192,160177,1,0,0:0:0:0:
182,192,160245,1,0,0:0:0:0:
329,192,160312,1,0,0:0:0:0:
475,192,160312,1,0,0:0:0:0:
109,192,160380,1,0,0:0:0:0:
329,192,160447,1,0,0:0:0:0:
256,192,160515,1,0,0:0:0:0:
36,192,160582,1,0,0:0:0:0:
475,192,160582,1,0,0:0:0:0:
402,192,160582,1,0,0:0:0:0:
182,192,160582,1,0,0:0:0:0:
329,192,160718,1,0,0:0:0:0:
109,192,160718,1,0,0:0:0:0:
109,192,160853,1,0,0:0:0:0:
256,192,160853,1,0,0:0:0:0:
182,192,160988,1,0,0:0:0:0:
36,192,160988,1,0,0:0:0:0:
475,192,160988,1,0,0:0:0:0:
402,192,160988,1,0,0:0:0:0:
109,192,161123,1,0,0:0:0:0:
329,192,161123,1,0,0:0:0:0:
109,192,161258,1,0,0:0:0:0:
256,192,161258,1,0,0:0:0:0:
402,192,161393,1,0,0:0:0:0:
182,192,161393,1,0,0:0:0:0:
475,192,161393,1,0,0:0:0:0:
36,192,161393,1,0,0:0:0:0:
329,192,161528,1,0,0:0:0:0:
109,192,161528,1,0,0:0:0:0:
109,192,161664,1,0,0:0:0:0:
256,192,161664,1,0,0:0:0:0:
475,192,161664,1,0,0:0:0:0:
182,192,161799,1,0,0:0:0:0:
256,192,161866,1,0,0:0:0:0:
329,192,161934,1,0,0:0:0:0:
475,192,161934,1,0,0:0:0:0:
329,192,162069,1,0,0:0:0:0:
109,192,162069,1,0,0:0:0:0:
36,192,162204,1,0,0:0:0:0:
182,192,162204,1,0,0:0:0:0:
475,192,162272,1,0,0:0:0:0:
109,192,162339,1,0,0:0:0:0:
402,192,162407,1,0,0:0:0:0:
182,192,162474,1,0,0:0:0:0:
36,192,162474,1,0,0:0:0:0:
256,192,162542,1,0,0:0:0:0:
329,192,162610,1,0,0:0:0:0:
402,192,162677,1,0,0:0:0:0:
475,192,162745,1,0,0:0:0:0:
109,192,162745,1,0,0:0:0:0:
36,192,162745,1,0,0:0:0:0:
182,192,162812,1,0,0:0:0:0:
256,192,162880,1,0,0:0:0:0:
329,192,162947,1,0,0:0:0:0:
475,192,163015,1,0,0:0:0:0:
402,192,163015,1,0,0:0:0:0:
182,192,163082,1,0,0:0:0:0:
329,192,163150,1,0,0:0:0:0:
402,192,163150,1,0,0:0:0:0:
182,192,163218,1,0,0:0:0:0:
329,192,163285,1,0,0:0:0:0:
36,192,163285,1,0,0:0:0:0:
402,192,163353,1,0,0:0:0:0:
475,192,163420,1,0,0:0:0:0:
256,192,163420,1,0,0:0:0:0:
182,192,163488,1,0,0:0:0:0:
402,192,163555,1,0,0:0:0:0:
109,192,163555,1,0,0:0:0:0:
329,192,163623,1,0,0:0:0:0:
256,192,163691,1,0,0:0:0:0:
36,192,163691,1,0,0:0:0:0:
109,192,163758,1,0,0:0:0:0:
402,192,163826,1,0,0:0:0:0:
475,192,163826,1,0,0:0:0:0:
182,192,163826,1,0,0:0:0:0:
329,192,163961,1,0,0:0:0:0:
182,192,163961,1,0,0:0:0:0:
256,192,164096,1,0,0:0:0:0:
109,192,164096,1,0,0:0:0:0:
402,192,164164,1,0,0:0:0:0:
182,192,164231,1,0,0:0:0:0:
329,192,164299,1,0,0:0:0:0:
109,192,164366,1,0,0:0:0:0:
36,192,164366,1,0,0:0:0:0:
182,192,164434,1,0,0:0:0:0:
256,192,164501,1,0,0:0:0:0:
329,192,164569,1,0,0:0:0:0:
402,192,164637,1,0,0:0:0:0:
475,192,164637,1,0,0:0:0:0:
36,192,164637,1,0,0:0:0:0:
109,192,164704,1,0,0:0:0:0:
182,192,164772,1,0,0:0:0:0:
256,192,164839,1,0,0:0:0:0:
475,192,164907,1,0,0:0:0:0:
402,192,164907,1,0,0:0:0:0:
36,192,164907,1,0,0:0:0:0:
329,192,164907,1,0,0:0:0:0:
329,192,165042,1,0,0:0:0:0:
182,192,165042,1,0,0:0:0:0:
109,192,165177,1,0,0:0:0:0:
256,192,165177,1,0,0:0:0:0:
475,192,165312,1,0,0:0:0:0:
36,192,165312,1,0,0:0:0:0:
402,192,165312,1,0,0:0:0:0:
329,192,165312,1,0,0:0:0:0:
182,192,165447,1,0,0:0:0:0:
329,192,165447,1,0,0:0:0:0:
109,192,165582,1,0,0:0:0:0:
256,192,165582,1,0,0:0:0:0:
475,192,165718,1,0,0:0:0:0:
402,192,165718,1,0,0:0:0:0:
329,192,165718,1,0,0:0:0:0:
36,192,165718,1,0,0:0:0:0:
109,192,165785,1,0,0:0:0:0:
182,192,165853,1,0,0:0:0:0:
402,192,165853,1,0,0:0:0:0:
329,192,165920,1,0,0:0:0:0:
109,192,165988,1,0,0:0:0:0:
256,192,165988,1,0,0:0:0:0:
475,192,166055,1,0,0:0:0:0:
402,192,166123,1,0,0:0:0:0:
329,192,166191,1,0,0:0:0:0:
256,192,166258,1,0,0:0:0:0:
109,192,166258,1,0,0:0:0:0:
402,192,166326,1,0,0:0:0:0:
182,192,166393,1,0,0:0:0:0:
329,192,166528,1,0,0:0:0:0:
36,192,166528,1,0,0:0:0:0:
182,192,166596,1,0,0:0:0:0:
402,192,166664,1,0,0:0:0:0:
182,192,166731,1,0,0:0:0:0:
256,192,166799,1,0,0:0:0:0:
109,192,166799,1,0,0:0:0:0:
475,192,166799,1,0,0:0:0:0:
329,192,166799,1,0,0:0:0:0:
329,192,166934,1,0,0:0:0:0:
182,192,166934,1,0,0:0:0:0:
36,192,167069,1,0,0:0:0:0:
256,192,167069,1,0,0:0:0:0:
109,192,167069,1,0,0:0:0:0:
329,192,167137,1,0,0:0:0:0:
402,192,167204,1,0,0:0:0:0:
475,192,167204,1,0,0:0:0:0:
36,192,167339,1,0,0:0:0:0:
182,192,167339,1,0,0:0:0:0:
329,192,167407,1,0,0:0:0:0:
256,192,167474,1,0,0:0:0:0:
182,192,167542,1,0,0:0:0:0:
329,192,167610,1,0,0:0:0:0:
475,192,167610,1,0,0:0:0:0:
402,192,167745,1,0,0:0:0:0:
256,192,167745,1,0,0:0:0:0:
109,192,167745,1,0,0:0:0:0:
329,192,167880,1,0,0:0:0:0:
182,192,167880,1,0,0:0:0:0:
36,192,168015,1,0,0:0:0:0:
256,192,168015,1,0,0:0:0:0:
109,192,168015,1,0,0:0:0:0:
475,192,168150,1,0,0:0:0:0:
329,192,168150,1,0,0:0:0:0:
402,192,168285,1,0,0:0:0:0:
182,192,168285,1,0,0:0:0:0:
109,192,168353,1,0,0:0:0:0:
256,192,168420,1,0,0:0:0:0:
36,192,168420,1,0,0:0:0:0:
329,192,168488,1,0,0:0:0:0:
109,192,168555,1,0,0:0:0:0:
402,192,168555,1,0,0:0:0:0:
182,192,168623,1,0,0:0:0:0:
475,192,168691,1,0,0:0:0:0:
256,192,168691,1,0,0:0:0:0:
402,192,168758,1,0,0:0:0:0:
329,192,168826,1,0,0:0:0:0:
182,192,168893,1,0,0:0:0:0:
402,192,168961,1,0,0:0:0:0:
109,192,169028,1,0,0:0:0:0:
329,192,169096,1,0,0:0:0:0:
36,192,169164,1,0,0:0:0:0:
475,192,169231,1,0,0:0:0:0:
182,192,169231,1,0,0:0:0:0:
256,192,169231,1,0,0:0:0:0:
402,192,169231,1,0,0:0:0:0:
109,192,169366,1,0,0:0:0:0:
329,192,169366,1,0,0:0:0:0:
182,192,169501,1,0,0:0:0:0:
329,192,169501,1,0,0:0:0:0:
36,192,169501,1,0,0:0:0:0:
256,192,169637,1,0,0:0:0:0:
475,192,169637,1,0,0:0:0:0:
182,192,169637,1,0,0:0:0:0:
402,192,169637,1,0,0:0:0:0:
329,192,169772,1,0,0:0:0:0:
109,192,169772,1,0,0:0:0:0:
329,192,169907,1,0,0:0:0:0:
36,192,169907,1,0,0:0:0:0:
402,192,169907,1,0,0:0:0:0:
256,192,170042,1,0,0:0:0:0:
109,192,170042,1,0,0:0:0:0:
329,192,170110,1,0,0:0:0:0:
182,192,170177,1,0,0:0:0:0:
402,192,170177,1,0,0:0:0:0:
109,192,170245,1,0,0:0:0:0:
36,192,170312,1,0,0:0:0:0:
475,192,170312,1,0,0:0:0:0:
256,192,170312,1,0,0:0:0:0:
329,192,170312,1,0,0:0:0:0:
402,192,170447,1,0,0:0:0:0:
182,192,170447,1,0,0:0:0:0:
109,192,170582,1,0,0:0:0:0:
329,192,170582,1,0,0:0:0:0:
182,192,170718,1,0,0:0:0:0:
402,192,170718,1,0,0:0:0:0:
109,192,170785,1,0,0:0:0:0:
36,192,170853,1,0,0:0:0:0:
329,192,170853,1,0,0:0:0:0:
402,192,170920,1,0,0:0:0:0:
475,192,170988,1,0,0:0:0:0:
256,192,170988,1,0,0:0:0:0:
182,192,171055,1,0,0:0:0:0:
109,192,171123,1,0,0:0:0:0:
402,192,171123,1,0,0:0:0:0:
329,192,171191,1,0,0:0:0:0:
256,192,171258,1,0,0:0:0:0:
182,192,171326,1,0,0:0:0:0:
36,192,171393,1,0,0:0:0:0:
109,192,171393,1,0,0:0:0:0:
475,192,171393,1,0,0:0:0:0:
402,192,171461,1,0,0:0:0:0:
329,192,171528,1,0,0:0:0:0:
256,192,171596,1,0,0:0:0:0:
36,192,171664,1,0,0:0:0:0:
182,192,171664,1,0,0:0:0:0:
109,192,171731,1,0,0:0:0:0:
182,192,171799,1,0,0:0:0:0:
256,192,171866,1,0,0:0:0:0:
329,192,171934,1,0,0:0:0:0:
475,192,171934,1,0,0:0:0:0:
182,192,172001,1,0,0:0:0:0:
402,192,172069,1,0,0:0:0:0:
109,192,172137,1,0,0:0:0:0:
475,192,172204,1,0,0:0:0:0:
329,192,172204,1,0,0:0:0:0:
256,192,172272,1,0,0:0:0:0:
182,192,172339,1,0,0:0:0:0:
109,192,172407,5,0,0:0:0:0:
329,192,172474,1,0,0:0:0:0:
36,192,172474,1,0,0:0:0:0:
402,192,172474,1,0,0:0:0:0:
256,192,172610,1,0,0:0:0:0:
475,192,172745,1,0,0:0:0:0:
182,192,172745,1,0,0:0:0:0:
402,192,172812,1,0,0:0:0:0:
329,192,172880,1,0,0:0:0:0:
182,192,172880,1,0,0:0:0:0:
36,192,172880,1,0,0:0:0:0:
109,192,173015,1,0,0:0:0:0:
256,192,173015,1,0,0:0:0:0:
329,192,173082,1,0,0:0:0:0:
182,192,173150,1,0,0:0:0:0:
402,192,173150,1,0,0:0:0:0:
109,192,173218,1,0,0:0:0:0:
329,192,173285,1,0,0:0:0:0:
475,192,173285,1,0,0:0:0:0:
36,192,173285,1,0,0:0:0:0:
256,192,173353,1,0,0:0:0:0:
182,192,173420,1,0,0:0:0:0:
109,192,173488,1,0,0:0:0:0:
256,192,173555,128,0,178015:0:0:0:0:
182,192,178015,128,0,182339:0:0:0:0:
475,192,182339,128,0,186664:0:0:0:0:
329,192,186664,128,0,190988:0:0:0:0:
256,192,190988,128,0,195312:0:0:0:0:
109,192,195312,128,0,199637:0:0:0:0:
475,192,199637,128,0,203961:0:0:0:0:
329,192,203961,128,0,208285:0:0:0:0:
