osu file format v14

[General]
AudioFilename: audio.mp3
AudioLeadIn: 0
PreviewTime: -1
Countdown: 0
SampleSet: Soft
StackLeniency: 0.7
Mode: 0
LetterboxInBreaks: 0
WidescreenStoryboard: 0

[Editor]
Bookmarks: 11229,18614,33383,51845,70306,85076,103537,129383,147845,184768,192153
DistanceSpacing: 1
BeatDivisor: 4
GridSize: 4
TimelineZoom: 2.5

[Metadata]
Title:WAVE
TitleUnicode:WAVE
Artist:niki
ArtistUnicode:niki
Creator:[-naniwa-]
Version:nani ?
Source:Vocaloid
Tags:Vocaloid Lily
BeatmapID:1555052
BeatmapSetID:736871

[Difficulty]
HPDrainRate:8
CircleSize:5
OverallDifficulty:9.3
ApproachRate:9.3
SliderMultiplier:2
SliderTickRate:1

[Events]
//Background and Video events
0,0,"WAVE.(Song).full.1354586.jpg",0,0
//Break Periods
//Storyboard Layer 0 (Background)
//Storyboard Layer 1 (Fail)
//Storyboard Layer 2 (Pass)
//Storyboard Layer 3 (Foreground)
//Storyboard Sound Samples

[TimingPoints]
11230,461.538461538462,4,2,0,100,1,0
18614,-100,4,2,0,100,0,1
18615,-100,4,2,0,100,0,0
51845,-100,4,2,0,100,0,1
70305,-100,4,2,0,100,0,0
70306,-100,4,2,0,100,0,1
70307,-100,4,2,0,100,0,0
103537,-100,4,2,0,100,0,1
121999,-100,4,2,0,100,0,0
129383,-100,4,2,0,100,0,1
129384,-100,4,2,0,100,0,0
147845,-100,4,2,0,100,0,1
184768,-100,4,2,0,100,0,0

[HitObjects]
416,232,11229,5,0,0:0:0:0:
240,220,11460,2,0,L|312:208,1,50
40,140,11691,2,0,L|156:56,1,100
280,248,12153,1,0,0:0:0:0:
432,92,12384,2,0,L|360:80,1,50
148,308,12615,2,0,L|68:228,1,100
304,112,13076,5,0,0:0:0:0:
108,280,13307,2,0,L|180:268,1,50
360,200,13537,2,0,L|306:199,2,50
76,176,13999,1,0,0:0:0:0:
300,244,14230,2,0,L|352:224,1,50
160,168,14460,2,0,L|100:164,1,50
436,72,14691,2,0,L|484:56,1,50
136,168,14922,5,0,0:0:0:0:
316,212,15153,2,0,L|388:200,1,50
44,112,15384,2,0,L|160:28,1,100
476,224,15846,1,0,0:0:0:0:
260,80,16077,2,0,L|332:68,1,50
8,312,16308,2,0,L|124:228,1,100
368,332,16769,5,0,0:0:0:0:
200,216,17000,2,0,L|272:204,1,50
464,84,17230,2,0,L|414:84,2,50
248,80,17691,1,0,0:0:0:0:
72,248,17922,2,0,L|8:236,1,50
436,280,18153,2,0,L|368:144,1,150
88,240,18614,5,0,0:0:0:0:
320,288,18845,2,0,L|368:252,1,50
496,160,19076,1,0,0:0:0:0:
128,64,19306,2,0,L|76:36,1,50
428,148,19537,1,0,0:0:0:0:
140,248,19768,2,0,L|188:232,1,50
420,280,19999,2,0,L|380:176,1,100
512,180,20460,5,0,0:0:0:0:
240,256,20691,2,0,L|296:216,1,50
88,112,20922,2,0,L|24:112,2,50
384,140,21383,1,0,0:0:0:0:
184,280,21614,2,0,L|124:288,1,50
464,248,21845,2,0,L|392:248,2,50
72,248,22306,5,0,0:0:0:0:
320,80,22537,2,0,L|252:56,1,50
456,144,22768,1,0,0:0:0:0:
80,232,22998,2,0,L|132:208,1,50
340,256,23229,1,0,0:0:0:0:
508,128,23460,2,0,L|452:128,1,50
220,296,23691,2,0,L|172:192,1,100
480,188,24152,5,0,0:0:0:0:
200,252,24383,2,0,L|160:196,1,50
428,212,24614,2,0,L|372:212,2,50
272,140,25075,1,0,0:0:0:0:
144,272,25306,2,0,L|188:312,1,50
0,216,25537,2,0,L|53:216,2,50
456,176,25999,6,0,L|392:176,2,50
56,68,26460,2,0,L|112:68,2,50
264,308,26922,2,0,L|200:308,2,50
448,160,27383,2,0,P|504:124|492:108,1,100
172,192,27845,5,0,0:0:0:0:
380,272,28076,2,0,L|416:316,1,50
208,172,28306,2,0,P|188:148|112:164,1,100
380,96,28768,1,0,0:0:0:0:
116,304,28999,2,0,L|66:311,1,50
352,123,29230,2,0,P|393:148|392:196,1,100
160,280,29691,6,0,L|208:192,1,100
344,200,30037,1,0,0:0:0:0:
64,120,30153,2,0,L|168:160,1,100
24,284,30614,1,0,0:0:0:0:
332,252,30845,2,0,L|384:252,1,50
184,168,31076,2,0,P|204:124|268:112,1,100
456,76,31537,5,0,0:0:0:0:
200,288,31768,2,0,L|260:288,1,50
52,136,31999,2,0,L|102:136,2,50
320,200,32460,1,0,0:0:0:0:
160,320,32691,2,0,L|195:355,1,50
449,214,32922,2,0,L|400:208,1,50
216,152,33153,1,0,0:0:0:0:
376,296,33268,1,0,0:0:0:0:
224,272,33383,6,0,L|320:220,1,100
208,140,33730,2,0,L|108:76,1,100
424,128,34076,1,0,0:0:0:0:
136,292,34306,2,0,L|88:264,1,50
368,176,34653,1,0,0:0:0:0:
168,84,34883,2,0,L|224:68,1,50
408,292,35230,6,0,P|460:296|472:252,1,100
152,108,35691,2,0,P|167:51|218:60,1,100
16,240,36153,2,0,L|72:204,1,50
272,144,36383,1,0,0:0:0:0:
416,240,36499,1,0,0:0:0:0:
184,272,36614,2,0,L|100:212,1,100
224,272,37076,6,0,L|320:220,1,100
180,168,37423,2,0,L|80:104,1,100
424,128,37769,1,0,0:0:0:0:
160,256,37999,2,0,L|112:228,1,50
312,328,38346,1,0,0:0:0:0:
40,96,38576,2,0,L|96:80,1,50
336,292,38923,6,0,P|388:296|400:252,1,100
136,232,39384,2,0,P|136:196|192:160,1,100
36,184,39845,1,0,0:0:0:0:
196,284,39960,1,0,0:0:0:0:
292,144,40076,2,0,L|260:144,2,25
84,244,40306,1,0,0:0:0:0:
316,328,40537,1,0,0:0:0:0:
216,88,40768,6,0,L|312:36,1,100
208,216,41115,2,0,L|108:152,1,100
424,128,41461,1,0,0:0:0:0:
276,312,41691,2,0,P|348:304|352:276,1,100
96,128,42153,1,0,0:0:0:0:
308,116,42268,1,0,0:0:0:0:
416,208,42383,1,0,0:0:0:0:
304,304,42499,1,0,0:0:0:0:
84,192,42614,6,0,L|228:152,1,150
432,120,43076,2,0,L|520:200,1,100
360,276,43537,1,0,0:0:0:0:
168,164,43768,2,0,L|118:170,1,50
364,52,43999,2,0,L|275:98,1,100
408,232,44460,6,0,L|504:206,1,100
260,256,44806,2,0,L|171:208,1,100
16,144,45153,2,0,L|116:124,2,100
332,116,45845,1,0,0:0:0:0:
116,252,45960,2,0,L|72:208,2,50
296,296,46306,6,0,L|404:268,1,100
228,96,46653,1,0,0:0:0:0:
80,176,46768,2,0,L|12:88,1,100
352,284,47230,2,0,L|324:176,1,100
184,320,47576,2,0,L|248:296,1,50
56,144,47922,1,0,0:0:0:0:
424,216,48153,5,0,0:0:0:0:
72,164,48614,1,0,0:0:0:0:
360,108,49076,1,0,0:0:0:0:
144,152,49537,1,0,0:0:0:0:
312,272,49999,6,0,L|492:364,2,200
168,128,51383,2,0,L|76:80,1,100
324,324,51845,6,0,L|436:324,1,100
188,172,52191,2,0,L|308:148,1,100
36,232,52537,2,0,L|-4:124,1,100
256,292,52999,1,0,0:0:0:0:
424,176,53230,2,0,L|420:68,1,100
96,288,53691,6,0,L|0:216,1,100
292,156,54037,2,0,L|244:44,1,100
480,232,54383,1,0,0:0:0:0:
148,296,54614,2,0,L|168:184,1,100
328,160,55076,1,0,0:0:0:0:
104,96,55306,1,0,0:0:0:0:
312,284,55537,6,0,L|400:220,1,100
156,200,55883,2,0,L|68:136,1,100
340,104,56230,1,0,0:0:0:0:
136,224,56460,1,0,0:0:0:0:
296,160,56691,1,0,0:0:0:0:
128,108,56922,2,0,L|184:16,1,100
368,272,57383,6,0,L|268:344,1,100
110,108,57730,2,0,L|200:168,1,100
488,180,58076,1,0,0:0:0:0:
96,296,58306,2,0,L|200:304,1,100
408,240,58768,2,0,L|520:208,1,100
96,224,59230,6,0,L|16:148,1,100
368,196,59576,2,0,L|476:140,1,100
172,244,59922,2,0,L|268:292,1,100
80,116,60383,1,0,0:0:0:0:
304,124,60614,2,0,L|356:232,1,100
116,180,61076,6,0,L|12:156,1,100
248,148,61422,2,0,L|352:96,1,100
508,192,61768,1,0,0:0:0:0:
280,252,61999,2,0,L|376:284,1,100
60,184,62460,1,0,0:0:0:0:
224,120,62691,1,0,0:0:0:0:
128,280,62922,6,0,L|240:300,1,100
432,244,63268,2,0,L|416:128,1,100
220,148,63614,1,0,0:0:0:0:
104,216,63845,1,0,0:0:0:0:
300,272,64076,1,0,0:0:0:0:
112,328,64306,2,0,L|32:256,1,100
232,200,64768,6,0,L|352:208,1,100
168,132,65114,2,0,L|48:132,1,100
444,236,65460,1,0,0:0:0:0:
152,272,65691,2,0,L|232:340,1,100
448,164,66153,2,0,L|512:60,1,100
132,256,66614,6,0,L|24:212,1,100
368,220,66960,2,0,L|508:156,1,150
232,84,67537,2,0,L|344:80,1,100
92,228,67883,2,0,L|-8:352,1,150
444,176,68460,6,0,L|232:172,3,200
424,240,70306,5,0,0:0:0:0:
196,320,70537,2,0,L|148:284,1,50
32,136,70768,1,0,0:0:0:0:
352,196,70998,2,0,L|404:168,1,50
92,72,71229,1,0,0:0:0:0:
376,108,71460,2,0,L|328:92,1,50
416,288,71691,1,0,0:0:0:0:
156,304,71806,2,0,L|204:196,1,100
32,188,72152,5,0,0:0:0:0:
264,256,72383,2,0,L|188:212,1,50
448,104,72614,2,0,L|504:104,2,50
112,280,73075,1,0,0:0:0:0:
332,216,73306,2,0,L|284:264,1,50
128,104,73537,1,0,0:0:0:0:
308,128,73653,1,0,0:0:0:0:
448,232,73768,1,0,0:0:0:0:
256,316,73998,5,0,0:0:0:0:
440,276,74229,2,0,L|392:240,1,50
184,168,74460,2,0,L|272:92,1,100
464,68,74922,1,0,0:0:0:0:
264,208,75152,2,0,L|312:224,1,50
60,144,75383,1,0,0:0:0:0:
240,316,75499,2,0,L|140:322,1,100
0,196,75844,5,0,0:0:0:0:
276,104,76075,2,0,L|216:72,1,50
480,256,76306,2,0,L|416:256,2,50
128,124,76767,1,0,0:0:0:0:
332,216,76998,2,0,L|392:256,1,50
120,316,77230,2,0,L|184:316,3,50
0,176,77691,6,0,L|64:176,2,50
376,80,78152,2,0,L|426:80,2,50
132,292,78614,2,0,L|182:292,2,50
384,176,79076,1,0,0:0:0:0:
220,196,79191,2,0,P|312:212|332:208,1,100
104,236,79537,5,0,0:0:0:0:
308,216,79768,2,0,L|272:260,1,50
452,164,79999,2,0,L|508:148,1,50
180,104,80230,1,0,0:0:0:0:
440,176,80460,1,0,0:0:0:0:
248,252,80691,2,0,L|192:244,1,50
508,68,80922,1,0,0:0:0:0:
220,120,81037,1,0,0:0:0:0:
408,200,81153,1,0,0:0:0:0:
48,304,81383,6,0,L|0:216,1,100
240,112,81729,1,0,0:0:0:0:
448,260,81845,2,0,L|344:300,1,100
504,144,82306,1,0,0:0:0:0:
180,252,82537,2,0,L|128:252,1,50
380,72,82768,1,0,0:0:0:0:
248,188,82883,2,0,P|228:144|168:132,1,100
32,264,83229,5,0,0:0:0:0:
224,136,83460,2,0,L|274:136,1,50
460,264,83691,2,0,L|407:264,2,50
112,176,84152,1,0,0:0:0:0:
256,352,84383,2,0,L|300:308,1,50
112,208,84614,2,0,L|48:216,1,50
240,100,84845,1,0,0:0:0:0:
376,112,84960,1,0,0:0:0:0:
216,260,85076,6,0,L|120:192,1,100
384,244,85422,1,0,0:0:0:0:
464,140,85537,1,0,0:0:0:0:
156,176,85768,1,0,0:0:0:0:
376,312,85999,2,0,L|472:280,1,100
100,244,86345,1,0,0:0:0:0:
344,104,86460,2,0,L|440:152,1,100
84,272,86922,6,0,P|32:220|48:188,1,100
288,264,87383,2,0,L|392:304,1,100
116,120,87845,2,0,L|172:120,3,50
8,272,88306,2,0,L|120:288,1,100
448,160,88653,1,0,0:0:0:0:
256,264,88768,6,0,L|160:196,1,100
440,248,89114,1,0,0:0:0:0:
312,164,89229,1,0,0:0:0:0:
508,104,89460,1,0,0:0:0:0:
288,256,89691,2,0,L|388:300,1,100
220,152,90037,1,0,0:0:0:0:
20,176,90152,2,0,L|116:116,1,100
240,324,90614,6,0,B|320:268|320:268|216:236,1,200
480,136,91537,1,0,0:0:0:0:
136,80,91768,2,0,L|208:84,1,50
440,168,91999,2,0,L|382:168,2,50
88,216,92460,6,0,L|92:112,1,100
336,120,92806,1,0,0:0:0:0:
200,288,92922,2,0,L|304:272,1,100
88,72,93383,2,0,L|204:72,2,100
432,180,93960,1,0,0:0:0:0:
292,164,94076,2,0,L|336:248,1,50
120,276,94306,6,0,L|72:188,1,100
320,100,94653,2,0,L|372:72,1,50
24,176,94999,1,0,0:0:0:0:
224,292,95230,2,0,L|324:248,1,100
132,180,95576,1,0,0:0:0:0:
432,152,95691,2,0,P|368:132|360:96,1,100
84,256,96153,5,0,0:0:0:0:
316,256,96383,2,0,L|376:244,1,50
104,188,96614,2,0,L|48:148,1,50
448,80,96845,1,0,0:0:0:0:
180,312,97076,2,0,P|136:288|132:232,1,100
404,140,97537,1,0,0:0:0:0:
200,76,97653,2,0,L|260:76,2,50
64,164,97999,5,0,0:0:0:0:
312,244,98230,2,0,L|416:220,1,100
152,144,98691,1,0,0:0:0:0:
372,228,98922,1,0,0:0:0:0:
192,340,99153,1,0,0:0:0:0:
52,296,99268,2,0,L|20:252,1,50
276,184,99614,1,0,0:0:0:0:
440,192,99845,5,0,0:0:0:0:
152,228,100306,1,0,0:0:0:0:
344,168,100768,1,0,0:0:0:0:
120,128,101230,1,0,0:0:0:0:
232,216,101691,6,0,L|32:216,2,200
408,248,103076,2,0,L|492:320,1,100
200,288,103537,6,0,L|312:244,1,100
84,208,103883,2,0,L|-8:144,1,100
352,84,104230,2,0,L|452:132,1,100
132,124,104691,1,0,0:0:0:0:
328,252,104922,2,0,L|320:148,1,100
112,136,105383,6,0,L|204:212,1,100
432,120,105730,2,0,L|328:160,1,100
488,224,106076,1,0,0:0:0:0:
152,296,106306,2,0,L|84:200,1,100
392,184,106768,1,0,0:0:0:0:
132,108,106999,1,0,0:0:0:0:
344,296,107230,6,0,L|456:300,1,100
212,200,107576,2,0,L|124:124,1,100
420,60,107922,1,0,0:0:0:0:
268,176,108153,1,0,0:0:0:0:
448,248,108383,1,0,0:0:0:0:
108,336,108614,2,0,L|36:264,1,100
244,144,109076,6,0,L|344:188,1,100
60,184,109422,2,0,L|60:296,1,100
344,316,109768,1,0,0:0:0:0:
136,120,109999,2,0,L|248:168,1,100
416,124,110460,2,0,L|500:208,1,100
164,280,110922,6,0,L|56:280,1,100
344,184,111268,2,0,L|448:152,1,100
128,88,111614,2,0,L|244:64,1,100
32,272,112076,1,0,0:0:0:0:
280,244,112306,2,0,L|204:172,1,100
404,84,112768,6,0,L|496:132,1,100
196,152,113114,2,0,L|292:204,1,100
36,240,113460,1,0,0:0:0:0:
320,308,113691,2,0,L|212:308,1,100
68,164,114153,1,0,0:0:0:0:
276,144,114383,1,0,0:0:0:0:
132,260,114614,6,0,L|36:196,1,100
340,204,114960,2,0,L|436:168,1,100
124,88,115306,1,0,0:0:0:0:
464,88,115537,1,0,0:0:0:0:
232,224,115768,1,0,0:0:0:0:
432,320,115999,2,0,L|472:216,1,100
224,244,116460,6,0,L|124:244,1,100
392,184,116806,2,0,L|280:184,1,100
80,132,117153,1,0,0:0:0:0:
387,65,117383,2,0,L|304:120,1,100
88,76,117845,2,0,L|164:140,1,100
340,284,118306,6,0,L|448:272,1,100
188,232,118653,2,0,L|72:124,1,150
352,108,119230,2,0,L|448:56,1,100
120,224,119576,2,0,L|252:308,1,150
262,164,120153,6,0,L|456:216,3,200
96,164,121999,5,0,0:0:0:0:
432,172,123614,1,0,0:0:0:0:
336,300,123845,5,0,0:0:0:0:
180,128,125460,1,0,0:0:0:0:
48,264,125691,5,0,0:0:0:0:
256,192,126153,12,0,128922,0:0:0:0:
344,284,129153,6,0,L|336:216,1,50
188,132,129383,6,0,L|138:132,2,50
16,52,129845,2,0,P|80:32|120:40,1,100
284,124,130191,1,0,0:0:0:0:
468,240,130306,2,0,L|404:240,2,50
176,336,130768,1,0,0:0:0:0:
296,156,130883,2,0,L|240:72,1,100
472,104,131230,6,0,L|420:104,2,50
232,248,131691,2,0,L|324:204,1,100
64,104,132153,2,0,L|108:200,1,100
388,208,132614,2,0,L|448:208,2,50
140,296,133076,6,0,L|72:296,2,50
336,272,133537,2,0,P|380:208|324:172,1,150
96,132,133999,2,0,L|144:164,1,50
356,104,134230,1,0,0:0:0:0:
148,312,134460,1,0,0:0:0:0:
56,240,134576,1,0,0:0:0:0:
92,124,134691,1,0,0:0:0:0:
200,68,134806,1,0,0:0:0:0:
328,156,134922,6,0,L|392:176,1,50
176,208,135153,2,0,L|128:172,1,50
376,64,135383,1,0,0:0:0:0:
256,100,135499,1,0,0:0:0:0:
368,196,135614,1,0,0:0:0:0:
204,260,135730,1,0,0:0:0:0:
324,140,135845,2,0,P|376:164|404:216,1,100
112,200,136306,2,0,L|48:184,1,50
392,220,136537,2,0,L|432:188,1,50
108,56,136768,5,0,0:0:0:0:
244,80,136883,1,0,0:0:0:0:
376,168,136999,1,0,0:0:0:0:
112,276,137114,2,0,L|256:328,1,150
408,84,137691,1,0,0:0:0:0:
296,160,137806,1,0,0:0:0:0:
364,276,137922,1,0,0:0:0:0:
488,304,138037,1,0,0:0:0:0:
184,112,138153,2,0,L|284:119,1,100
96,320,138614,6,0,P|40:260|136:216,1,200
204,104,139306,1,0,0:0:0:0:
384,152,139537,1,0,0:0:0:0:
256,204,139653,1,0,0:0:0:0:
424,240,139768,1,0,0:0:0:0:
188,320,139883,1,0,0:0:0:0:
344,108,139999,1,0,0:0:0:0:
324,316,140114,2,0,P|252:292|244:264,1,100
380,176,140460,6,0,L|368:128,1,50
100,116,140691,1,0,0:0:0:0:
240,248,140922,2,0,L|344:272,1,100
140,276,141383,2,0,L|84:252,1,50
320,192,141614,1,0,0:0:0:0:
72,120,141845,1,0,0:0:0:0:
180,320,141960,2,0,P|208:296|168:236,1,100
412,96,142306,6,0,L|352:96,3,50
72,160,142768,1,0,0:0:0:0:
152,248,142883,2,0,P|188:232|148:184,1,100
312,184,143230,2,0,L|380:200,2,50
64,84,143576,1,0,0:0:0:0:
288,204,143691,1,0,0:0:0:0:
184,320,143922,1,0,0:0:0:0:
452,224,144153,6,0,L|360:152,1,100
64,352,144614,2,0,L|140:256,1,100
364,120,145076,2,0,L|440:40,1,100
148,116,145537,2,0,L|60:56,1,100
256,192,145999,12,0,147153,0:0:0:0:
164,252,147383,6,0,L|256:180,1,100
56,204,147845,5,0,0:0:0:0:
248,272,148076,2,0,L|296:236,1,50
424,176,148306,2,0,L|372:140,1,50
152,244,148537,2,0,L|100:156,1,100
464,284,148999,1,0,0:0:0:0:
280,140,149230,2,0,L|340:220,1,100
152,88,149691,5,0,0:0:0:0:
372,288,149922,2,0,L|440:276,1,50
192,256,150153,2,0,L|252:256,1,50
72,184,150383,2,0,P|20:148|20:100,1,100
344,112,150845,1,0,0:0:0:0:
212,232,151076,1,0,0:0:0:0:
432,284,151306,1,0,0:0:0:0:
72,156,151537,5,0,0:0:0:0:
192,68,151768,2,0,L|256:76,1,50
396,160,151999,2,0,L|328:172,1,50
472,264,152230,1,0,0:0:0:0:
64,264,152460,2,0,L|100:304,1,50
272,164,152691,2,0,L|312:208,1,50
120,136,152922,2,0,L|152:36,1,100
428,120,153383,5,0,0:0:0:0:
228,288,153614,2,0,L|176:284,1,50
340,200,153845,2,0,L|400:200,1,50
60,146,154076,2,0,L|172:148,2,100
408,192,154768,2,0,L|368:284,1,100
176,340,155230,5,0,0:0:0:0:
372,196,155460,2,0,L|424:184,1,50
216,104,155691,2,0,L|276:96,1,50
116,252,155922,2,0,L|16:320,1,100
436,80,156383,1,0,0:0:0:0:
240,312,156614,2,0,L|304:220,1,100
88,188,157076,5,0,0:0:0:0:
364,264,157306,2,0,L|316:240,1,50
496,152,157537,2,0,L|452:112,1,50
128,252,157768,2,0,L|60:156,1,100
316,116,158230,1,0,0:0:0:0:
420,192,158460,1,0,0:0:0:0:
272,280,158691,1,0,0:0:0:0:
96,164,158922,5,0,0:0:0:0:
368,292,159153,2,0,L|432:304,1,50
240,216,159383,2,0,L|184:216,1,50
416,132,159614,1,0,0:0:0:0:
60,136,159845,2,0,L|72:80,1,50
256,280,160076,2,0,L|204:284,1,50
376,188,160306,2,0,L|336:84,1,100
480,248,160768,5,0,0:0:0:0:
172,224,160999,2,0,L|236:204,1,50
392,88,161230,2,0,L|352:56,1,50
100,144,161460,1,0,0:0:0:0:
400,212,161691,1,0,0:0:0:0:
120,300,161922,1,0,0:0:0:0:
460,256,162153,1,0,0:0:0:0:
144,108,162383,1,0,0:0:0:0:
376,312,162614,6,0,L|452:236,1,100
140,208,162960,2,0,L|200:208,2,50
24,64,163306,1,0,0:0:0:0:
224,140,163537,6,0,L|312:68,1,100
468,236,163883,2,0,L|408:236,2,50
316,304,164230,1,0,0:0:0:0:
84,52,164460,6,0,L|236:120,1,150
68,212,164922,2,0,L|16:360,1,150
324,320,165383,2,0,L|192:224,1,150
400,188,165845,2,0,L|512:72,1,150
148,176,166306,6,0,L|52:256,1,100
384,176,166653,2,0,L|448:176,2,50
164,72,166999,1,0,0:0:0:0:
360,292,167230,2,0,L|428:220,1,100
80,192,167576,2,0,L|152:192,2,50
316,80,167922,1,0,0:0:0:0:
48,104,168153,6,0,L|164:200,1,150
380,76,168614,2,0,L|508:168,1,150
192,268,169076,2,0,L|52:352,1,150
432,284,169537,2,0,L|432:168,1,100
260,304,169999,6,0,L|380:332,1,100
140,164,170345,2,0,L|20:180,1,100
380,80,170691,2,0,P|436:116|388:224,1,200
100,140,171383,2,0,L|168:224,1,100
368,208,171845,6,0,L|476:204,1,100
176,152,172191,2,0,L|84:100,1,100
360,92,172537,2,0,P|316:44|268:48,2,100
88,172,173230,2,0,L|84:272,1,100
280,248,173691,6,0,L|340:252,1,50
480,120,173922,1,0,0:0:0:0:
112,264,174153,2,0,L|68:164,1,100
364,176,174614,2,0,L|412:204,1,50
96,84,174845,1,0,0:0:0:0:
388,192,175076,1,0,0:0:0:0:
192,296,175191,2,0,P|172:252|196:208,1,100
384,320,175537,6,0,L|444:332,1,50
104,208,175768,2,0,L|44:192,1,50
248,92,175999,2,0,L|199:95,3,50
424,224,176460,2,0,L|464:184,1,50
208,304,176691,2,0,L|148:288,1,50
400,76,176922,1,0,0:0:0:0:
248,228,177153,1,0,0:0:0:0:
412,168,177383,6,0,L|528:164,1,100
112,180,177730,2,0,L|72:84,1,100
372,264,178076,2,0,P|292:232|348:160,1,200
40,212,178768,2,0,L|104:320,1,100
372,104,179230,6,0,L|472:144,1,100
240,208,179576,2,0,L|168:296,1,100
424,328,179922,2,0,L|324:328,2,100
180,272,180614,2,0,L|164:168,1,100
332,104,181076,6,0,L|388:120,1,50
192,240,181306,2,0,L|140:276,1,50
440,328,181537,2,0,L|492:224,1,100
104,232,181999,2,0,L|168:252,1,50
308,168,182230,2,0,L|248:140,1,50
80,108,182460,1,0,0:0:0:0:
312,312,182576,2,0,L|392:224,1,100
96,100,182922,6,0,L|36:80,1,50
260,220,183153,2,0,L|212:234,1,50
428,92,183383,2,0,P|480:140|472:180,1,100
172,288,183845,2,0,L|116:272,1,50
368,264,184076,2,0,L|396:216,1,50
88,136,184306,1,0,0:0:0:0:
284,100,184422,2,0,L|376:44,1,100
256,192,184768,12,0,192153,0:0:0:0:
