osu file format v14

[General]
AudioFilename: audio.mp3
AudioLeadIn: 0
PreviewTime: -1
Countdown: 1
SampleSet: Normal
StackLeniency: 0.7
Mode: 0
LetterboxInBreaks: 0
WidescreenStoryboard: 0

[Editor]
DistanceSpacing: 1
BeatDivisor: 4
GridSize: 4
TimelineZoom: 1

[Metadata]
Title:Lily - WAVE
TitleUnicode:Lily - WAVE
Artist:niki
ArtistUnicode:niki
Creator:Nitronic Techno
Version:Normal
Source:
Tags:Lily Wave Vocaloid niki
BeatmapID:1245945
BeatmapSetID:588535

[Difficulty]
HPDrainRate:3.8
CircleSize:3.5
OverallDifficulty:3.5
ApproachRate:4.8
SliderMultiplier:1.45
SliderTickRate:2

[Events]
//Background and Video events
0,0,"Vocaloid_Lily_Niki_WAVE.jpg",0,0
//Break Periods
2,18400,32208
2,70554,83901
2,129631,142978
//Storyboard Layer 0 (Background)
//Storyboard Layer 1 (Fail)
//Storyboard Layer 2 (Pass)
//Storyboard Layer 3 (Foreground)
//Storyboard Sound Samples

[TimingPoints]
11278,461.538461538462,4,1,0,30,1,0
18662,-90.9090909090909,4,1,0,85,0,0
33431,-125,4,2,0,45,0,0
40816,-111.111111111111,4,1,0,55,0,0
48201,-166.666666666667,4,2,0,20,0,0
51893,-83.3333333333333,4,1,0,80,0,1
59278,-86.9565217391304,4,1,0,80,0,1
70354,-90.9090909090909,4,1,0,88,0,0
85124,-125,4,2,0,45,0,0
92508,-111.111111111111,4,1,0,55,0,0
99893,-166.666666666667,4,2,0,20,0,0
103585,-83.3333333333333,4,1,0,80,0,1
110970,-86.9565217391304,4,1,0,80,0,1
122047,-100,4,2,0,50,0,0
129431,-90.9090909090909,4,1,0,70,0,0
144201,-125,4,2,0,20,0,0
147893,-83.3333333333333,4,1,0,80,0,1
170047,-111.111111111111,4,1,0,65,0,0
184816,-166.666666666667,4,1,0,45,0,0

[HitObjects]
430,334,11278,6,0,L|430:36,1,290
256,52,13124,2,0,L|256:342,1,290
82,334,14970,2,0,L|82:44,1,290
327,198,16816,2,0,P|377:171|382:81,3,145
66,127,33431,6,0,P|104:101|170:138,1,116
279,128,34354,2,0,P|309:103|378:133,1,116
380,243,35278,2,0,L|249:298,3,116
159,310,37124,6,0,P|146:261|148:187,1,116
219,106,38047,2,0,P|261:121|340:96,1,116
405,192,38970,1,0,0:0:0:0:
405,192,39201,1,0,0:0:0:0:
405,192,39431,2,0,P|384:230|323:292,1,116
334,283,40354,1,0,0:0:0:0:
222,316,40816,6,0,L|178:239,2,65.2499980087281
300,211,41739,2,0,L|352:133,2,65.2499980087281
209,117,42662,2,0,P|155:104|64:138,1,130.499996017456
183,207,43585,2,0,P|221:216|316:186,1,130.499996017456
378,82,44508,6,0,L|422:151,2,65.2499980087281
292,180,45431,2,0,L|257:254,2,65.2499980087281
166,217,46354,2,0,P|167:145|202:86,1,130.499996017456
319,55,47278,2,0,P|330:119|315:197,1,130.499996017456
256,192,48201,12,0,51431,0:0:0:0:
41,189,51893,6,0,B|108:182|210:131|393:132,1,347.999989379883
383,132,53047,1,0,0:0:0:0:
383,132,53278,1,0,0:0:0:0:
393,305,53739,6,0,B|342:305|264:241|201:187|70:175,1,347.999989379883
74,175,54893,1,0,0:0:0:0:
74,175,55124,1,0,0:0:0:0:
96,347,55585,6,0,P|131:293|143:165,1,173.999994689942
302,109,56508,2,0,L|350:206,1,86.9999973449708
427,196,56970,2,0,L|427:325,1,86.9999973449708
362,341,57431,6,0,P|311:303|274:170,1,173.999994689942
136,92,58354,2,0,L|85:191,1,86.9999973449708
27,223,58816,2,0,L|42:328,1,86.9999973449708
120,286,59278,6,0,P|172:313|274:288,1,166.750003180504
272,205,59970,1,0,0:0:0:0:
355,204,60201,2,0,L|465:204,1,83.375001590252
392,286,60662,6,0,P|340:313|238:288,2,166.750003180504
391,202,61816,1,0,0:0:0:0:
307,201,62047,2,0,L|210:201,1,83.375001590252
140,203,62508,2,0,L|140:117,1,83.375001590252
209,72,62970,6,0,P|273:55|382:81,1,166.750003180504
368,157,63662,1,0,0:0:0:0:
284,157,63893,2,0,L|200:157,1,83.375001590252
208,72,64354,6,0,P|289:54|370:74,2,166.750003180504
207,155,65508,1,0,0:0:0:0:
290,154,65739,2,0,L|389:154,1,83.375001590252
226,331,66662,6,0,B|213:277|213:277|213:67,1,250.125004770756
286,53,67585,2,0,B|299:107|299:107|299:317,1,250.125004770756
371,342,68508,2,0,L|371:166,3,166.750003180504
256,53,70354,5,0,0:0:0:0:
59,175,85124,6,0,P|121:125|178:121,1,116
256,62,86047,2,0,P|304:71|359:135,1,116
435,195,86970,2,0,L|434:328,1,116
318,312,87893,1,0,0:0:0:0:
318,196,88354,1,0,0:0:0:0:
256,294,88816,6,0,P|225:293|169:210,1,116
62,191,89739,2,0,P|85:152|148:120,1,116
256,82,90662,1,0,0:0:0:0:
256,82,90893,1,0,0:0:0:0:
256,82,91124,2,0,P|348:93|389:119,1,116
367,103,92047,1,0,0:0:0:0:
450,203,92508,6,0,L|434:292,2,65.2499980087281
323,172,93431,2,0,L|283:113,2,65.2499980087281
255,284,94354,2,0,P|199:268|154:200,1,130.499996017456
255,126,95278,2,0,P|302:141|345:215,1,130.499996017456
432,303,96201,6,0,L|478:235,2,65.2499980087281
316,241,97124,2,0,L|248:267,2,65.2499980087281
257,124,98047,2,0,P|212:103|133:51,1,130.499996017456
147,190,98970,2,0,P|182:231|258:264,1,130.499996017456
256,192,99893,12,0,103124,0:0:0:0:
73,192,103585,6,0,P|106:149|360:197,1,347.999989379883
356,191,104739,1,0,0:0:0:0:
356,191,104970,1,0,0:0:0:0:
257,333,105431,6,0,B|149:192|149:192|256:55,1,347.999989379883
253,57,106585,1,0,0:0:0:0:
253,57,106816,1,0,0:0:0:0:
427,69,107278,6,0,P|454:137|424:246,1,173.999994689942
285,324,108201,2,0,P|224:341|172:334,1,86.9999973449708
148,270,108662,2,0,P|203:244|250:250,1,86.9999973449708
314,230,109124,6,0,P|369:194|393:88,1,173.999994689942
220,92,110047,2,0,P|180:112|142:161,1,86.9999973449708
92,207,110508,2,0,P|97:266|131:326,1,86.9999973449708
186,318,110970,6,0,L|365:318,1,166.750003180504
413,260,111662,1,0,0:0:0:0:
475,205,111893,2,0,L|475:100,1,83.375001590252
428,51,112354,6,0,L|247:51,2,166.750003180504
376,116,113508,1,0,0:0:0:0:
309,166,113739,2,0,L|309:272,1,83.375001590252
226,264,114201,2,0,L|226:367,1,83.375001590252
142,350,114662,6,0,L|142:175,1,166.750003180504
206,130,115354,1,0,0:0:0:0:
280,92,115585,2,0,L|384:93,1,83.375001590252
438,56,116047,6,0,L|439:240,2,166.750003180504
361,88,117201,1,0,0:0:0:0:
288,128,117431,2,0,L|288:236,1,83.375001590252
38,192,118354,6,0,P|87:177|292:188,1,250.125004770756
311,264,119278,2,0,P|344:214|235:63,1,250.125004770756
180,81,120201,2,0,P|128:144|122:247,1,166.750003180504
254,321,121124,2,0,P|297:298|363:181,1,166.750003180504
256,70,122047,5,0,0:0:0:0:
109,192,123662,6,0,L|193:192,1,72.5
404,192,125508,6,0,L|314:192,1,72.5
256,352,127585,6,0,L|256:191,4,145
256,192,144201,12,0,147431,0:0:0:0:
44,103,147893,6,0,P|91:101|399:199,1,347.999989379883
414,261,149047,1,0,0:0:0:0:
421,347,149278,1,0,0:0:0:0:
247,351,149739,6,0,P|189:314|96:52,1,347.999989379883
178,42,150893,1,0,0:0:0:0:
260,68,151124,2,0,L|363:68,1,86.9999973449708
422,111,151585,6,0,L|422:220,1,86.9999973449708
338,223,152047,2,0,L|338:333,1,86.9999973449708
251,317,152508,2,0,P|180:335|65:299,1,173.999994689942
63,138,153431,6,0,L|63:244,1,86.9999973449708
150,225,153893,2,0,L|150:331,1,86.9999973449708
237,312,154354,2,0,P|301:285|493:320,1,260.999992034912
487,227,155278,6,0,P|459:175|333:168,1,173.999994689942
267,168,155970,1,0,0:0:0:0:
196,219,156201,2,0,L|153:335,2,86.9999973449708
176,134,156893,1,0,0:0:0:0:
100,90,157124,6,0,P|166:63|289:84,1,173.999994689942
337,123,157816,1,0,0:0:0:0:
384,196,158047,2,0,L|379:300,1,86.9999973449708
293,293,158508,2,0,L|294:175,1,86.9999973449708
221,156,158970,6,0,P|159:131|48:176,1,173.999994689942
56,249,159662,1,0,0:0:0:0:
121,306,159893,2,0,L|200:228,2,86.9999973449708
201,339,160585,1,0,0:0:0:0:
287,333,160816,6,0,P|301:268|267:160,1,173.999994689942
186,147,161508,1,0,0:0:0:0:
102,172,161739,2,0,L|113:267,2,86.9999973449708
256,92,162662,6,0,P|333:90|434:253,1,260.999992034912
362,269,163585,2,0,P|289:275|186:127,1,260.999992034912
256,89,164508,1,0,0:0:0:0:
256,89,164970,1,0,0:0:0:0:
256,89,165431,1,0,0:0:0:0:
256,89,165893,1,0,0:0:0:0:
86,127,166354,6,0,P|135:98|345:148,1,260.999992034912
258,185,167278,2,0,P|316:226|487:160,1,260.999992034912
397,145,168201,2,0,L|360:330,1,173.999994689942
188,316,169124,2,0,L|100:144,1,173.999994689942
225,103,170047,6,0,L|318:103,1,65.2499980087281
284,168,170508,2,0,L|359:168,1,65.2499980087281
395,214,170970,2,0,P|393:263|329:347,1,130.499996017456
221,340,171893,6,0,L|142:326,1,65.2499980087281
169,264,172354,2,0,L|113:204,1,65.2499980087281
149,155,172816,2,0,P|140:93|207:46,1,130.499996017456
315,54,173739,6,0,L|406:187,3,130.499996017456
285,241,175585,2,0,L|390:348,3,130.499996017456
460,233,177431,6,0,L|460:143,1,65.2499980087281
395,158,177893,2,0,L|395:85,1,65.2499980087281
330,82,178354,2,0,P|271:54|204:91,1,130.499996017456
149,191,179278,6,0,L|149:279,1,65.2499980087281
214,253,179739,2,0,L|214:330,1,65.2499980087281
276,336,180201,2,0,P|322:347|424:320,1,130.499996017456
443,208,181124,6,0,L|354:107,1,130.499996017456
291,108,181816,1,0,0:0:0:0:
225,108,182047,2,0,L|145:228,1,130.499996017456
282,201,182970,6,0,L|207:313,1,130.499996017456
144,304,183662,1,0,0:0:0:0:
78,303,183893,2,0,L|24:176,1,130.499996017456
256,192,184816,12,0,192201,0:0:0:0:
