osu file format v14

[General]
AudioFilename: audio.mp3
AudioLeadIn: 0
PreviewTime: 2104
Countdown: 0
SampleSet: Normal
StackLeniency: 0.7
Mode: 1
LetterboxInBreaks: 0
WidescreenStoryboard: 1

[Editor]
DistanceSpacing: 0.9
BeatDivisor: 4
GridSize: 32
TimelineZoom: 1.3

[Metadata]
Title:sorry asap croissant
TitleUnicode:sorry asap croissant
Artist:nice job bro0o0o0o0o0o0o0
ArtistUnicode:nice job bro0o0o0o0o0o0o0
Creator:Midnaait
Version::thumbsup:
Source:
Tags:bubba sparxxx mii channel soundclown booty
BeatmapID:1464930
BeatmapSetID:692315

[Difficulty]
HPDrainRate:8
CircleSize:5
OverallDifficulty:6
ApproachRate:5
SliderMultiplier:1.4
SliderTickRate:1

[Events]
//Background and Video events
0,0,"maxresdefault.png",0,75
//Break Periods
//Storyboard Layer 0 (Background)
//Storyboard Layer 1 (Fail)
//Storyboard Layer 2 (Pass)
//Storyboard Layer 3 (Foreground)
//Storyboard Sound Samples

[TimingPoints]
0,526.315789473684,4,1,0,15,1,8
2105,526.315789473684,4,1,0,90,1,0
2368,-99.5241749197089,4,1,0,90,0,0
2631,-99.0528565853311,4,1,0,90,0,0
2894,-98.5859812706353,4,1,0,90,0,0
3157,-98.1234864452216,4,1,0,90,0,0
3289,-97.8939104114089,4,1,0,90,0,0
3420,-97.6654061318249,4,1,0,90,0,0
3552,-97.4378711773905,4,1,0,90,0,0
3683,-97.2114884537055,4,1,0,90,0,0
3815,-96.9860611632896,4,1,0,90,0,0
3947,-96.7617705855829,4,1,0,90,0,0
4078,-96.538421809188,4,1,0,90,0,0
4210,-96.3161945086285,4,1,0,90,0,0
4473,-95.8747032677934,4,1,0,90,0,0
4736,-95.4372409475391,4,1,0,90,0,0
4999,-95.0037526482296,4,1,0,90,0,0
5262,-94.5741844631638,4,1,0,90,0,0
5394,-94.3608983534967,4,1,0,90,0,0
5526,-94.1485720956813,4,1,0,90,0,0
5657,-93.9371109829391,4,1,0,90,0,0
5789,-93.7266854869851,4,1,0,90,0,0
5920,-93.5171131641235,4,1,0,90,0,0
6052,-93.3085630201369,4,1,0,90,0,0
6183,-93.100854293439,4,1,0,90,0,0
6315,-92.8941545424313,4,1,0,90,0,0
6578,-92.4834107881899,4,1,0,90,0,0
6841,-92.0762833592375,4,1,0,90,0,0
7104,-91.672724705891,4,1,0,90,0,0
7368,-91.2726881084466,4,1,0,90,0,0
7499,-91.0740176756453,4,1,0,90,0,0
7631,-90.8762102439299,4,1,0,90,0,0
7762,-90.6791779751158,4,1,0,90,0,0
7894,-90.4830801164336,4,1,0,90,0,0
8026,-90.2877470498479,4,1,0,90,0,0
8157,-90.0933366968179,4,1,0,90,0,0
8289,-89.8996809460323,4,1,0,90,0,0
8420,-89.706936409444,4,1,0,90,0,0
8552,-89.5150165916083,4,1,0,90,0,0
8683,-89.3238364230448,4,1,0,90,0,0
8815,-89.1335505815073,4,1,0,90,0,0
8947,-88.9439946348982,4,1,0,90,0,0
9210,-88.5673696554021,4,1,0,90,0,0
9473,-88.1939207930397,4,1,0,90,0,0
9736,-87.8236851696534,4,1,0,90,0,0
9999,-87.4564685427828,4,1,0,90,0,0
10131,-87.2739713235185,4,1,0,90,0,0
10262,-87.092310010303,4,1,0,90,0,0
10526,-86.7311715299726,4,1,0,90,0,0
10920,-86.195081881018,4,1,0,90,0,0
11052,-86.017805685777,4,1,0,90,0,0
11315,-85.6655053279661,4,1,0,90,0,0
11841,-84.9695639022102,4,1,0,90,0,0
12104,-84.6257805670435,4,1,0,90,0,0
12236,-84.4548943300362,4,1,0,90,0,0
12368,-84.2847678881777,4,1,0,90,0,0
12499,-84.1152547220201,4,1,0,90,0,0
12631,-83.9464925056769,4,1,0,90,0,0
12894,-83.6109215930222,4,1,0,90,0,0
13157,-83.2780228464928,4,1,0,90,0,0
13289,-83.1126001195159,4,1,0,90,0,0
13420,-82.9477644747996,4,1,0,90,0,0
13552,-82.7836498980106,4,1,0,90,0,0
13683,-82.6201151889646,4,1,0,90,0,0
13815,-82.4572933063643,4,1,0,90,0,0
13947,-82.2951119172374,4,1,0,90,0,0
14210,-81.9725883664503,4,1,0,90,0,0
14341,-81.81223927462,4,1,0,90,0,0
14473,-81.652582956983,4,1,0,90,0,0
14604,-81.4934821512975,4,1,0,90,0,0
14736,-81.3350663124796,4,1,0,90,0,0
14999,-81.0200095117491,4,1,0,90,0,0
15131,-80.8634273316767,4,1,0,90,0,0
15262,-80.7073840799842,4,1,0,90,0,0
15526,-80.3971619801821,4,1,0,90,0,0
16052,-79.7838814220041,4,1,0,90,0,0
16183,-79.6319728741648,4,1,0,90,0,0
16315,-79.480704866683,4,1,0,90,0,0
16447,-79.3299475311727,4,1,0,90,0,0
16578,-79.1798237140405,4,1,0,90,0,0
16710,-79.0302045538784,4,1,0,90,0,0
16841,-78.881211994046,4,1,0,90,0,0
17104,-78.5848441269617,4,1,0,90,0,0
17368,-78.2906949160372,4,1,0,90,0,0
17631,-77.998739540369,4,1,0,90,0,0
17894,-77.7089535479188,4,1,0,90,0,0
18026,-77.5648966098711,4,1,0,90,0,0
18157,-77.4213727893295,4,1,0,90,0,0
18289,-77.2783194129321,4,1,0,90,0,0
18420,-77.1358532073859,4,1,0,90,0,0
18552,-76.9938520409145,4,1,0,90,0,0
18683,-76.8524318030733,4,1,0,90,0,0
18947,-76.5710855329654,4,1,0,90,0,1
19210,-76.2917916898403,4,1,0,90,0,1
19473,-76.0145278965716,4,1,0,90,0,1
19604,-75.8766791509096,4,1,0,90,0,1
19736,-75.7392721001516,4,1,0,90,0,1
19999,-75.4660025658441,4,1,0,90,0,1
20262,-75.1947544139321,4,1,0,90,0,1
20394,-75.0598038987563,4,1,0,90,0,1
20526,-74.9253930398805,4,1,0,90,0,1
20657,-74.7914067665282,4,1,0,90,0,1
20789,-74.6579545810868,4,1,0,90,0,1
20920,-74.5249222518749,4,1,0,90,0,1
21052,-74.3924185198438,4,1,0,90,0,1
21315,-74.1287646293117,4,1,0,90,0,1
21578,-73.8669729683812,4,1,0,90,0,1
21710,-73.7367965048759,4,1,0,90,0,1
21841,-73.6070238766464,4,1,0,90,0,1
21973,-73.4777612207889,4,1,0,90,0,1
22104,-73.3488979694825,4,1,0,90,0,1
22236,-73.2205395328676,4,1,0,90,0,1
22368,-73.0926295585132,4,1,0,90,0,1
22499,-72.9651124611278,4,1,0,90,0,1
22631,-72.8380925743021,4,1,0,90,0,1
22762,-72.7114612895087,4,1,0,90,0,1
22894,-72.5853222316503,4,1,0,90,0,1
23026,-72.4595675613008,4,1,0,90,0,1
23157,-72.3343002018127,4,1,0,90,0,1
23420,-72.0850084087162,4,1,0,90,0,1
23552,-71.9610316621343,4,1,0,90,0,1
23683,-71.8374290246201,4,1,0,90,0,1
23815,-71.7143016963301,4,1,0,90,0,1
23947,-71.5915444658662,4,1,0,90,0,1
24473,-71.1047906852724,4,1,0,90,0,1
24604,-70.9841598847217,4,1,0,90,0,1
24736,-70.863937696426,4,1,0,90,0,1
24868,-70.7440720004867,4,1,0,90,0,1
24999,-70.6246610016272,4,1,0,90,0,1
25131,-70.5056027277208,4,1,0,90,0,1
25262,-70.3869947357567,4,1,0,90,0,1
25526,-70.1509226950862,4,1,0,90,0,1
25657,-70.0335040283271,4,1,0,90,0,1
25789,-69.9164288925447,4,1,0,90,0,1
26052,-69.6834975541092,4,1,0,90,0,1
26315,-69.4521131152676,4,1,0,90,0,1
26578,-69.2222602175517,4,1,0,90,0,1
26841,-68.9939713067872,4,1,0,90,0,1
26973,-68.8803431343174,4,1,0,90,0,1
27104,-68.7671359106797,4,1,0,90,0,1
27368,-68.5417871859758,4,1,0,90,0,1
27631,-68.3179105650233,4,1,0,90,0,1
27894,-68.0954916698785,4,1,0,90,0,1
28157,-67.8745163092282,4,1,0,90,0,1
28552,-67.5457521151952,4,1,0,90,0,1
28683,-67.4368403412574,4,1,0,90,0,1
28947,-67.2201574430528,4,1,0,90,0,1
29078,-67.1122922874554,4,1,0,90,0,1
29210,-67.0048176463888,4,1,0,90,0,1
29341,-66.8976419250198,4,1,0,90,0,1
29473,-66.7908531262461,4,1,0,90,0,1
29736,-66.5782507496711,4,1,0,90,0,1
29999,-66.3669975503941,4,1,0,90,0,1
30262,-66.157080726193,4,1,0,90,0,1
30657,-65.8447052626381,4,1,0,90,0,1
30789,-65.7412057989003,4,1,0,90,0,1
31052,-65.5352658372523,4,1,0,90,0,1
31183,-65.4327361287507,4,1,0,90,0,1
31315,-65.33056941471,4,1,0,90,0,1
31447,-65.2286787017927,4,1,0,90,0,1
31578,-65.1271477305143,4,1,0,90,0,1
31841,-64.9249889140581,4,1,0,90,0,1
31973,-64.8244004229144,4,1,0,90,0,1
32104,-64.7240812416668,4,1,0,90,0,1
32368,-64.5244131343314,4,1,0,90,0,1
32894,-64.1287500088177,4,1,0,90,0,1
33157,-63.9327734101038,4,1,0,90,0,1
33289,-63.8351928525011,4,1,0,90,0,1
33420,-63.7379503404881,4,1,0,90,0,1
33552,-63.6409631423362,4,1,0,90,0,1
33683,-63.5443110366937,4,1,0,90,0,1
33947,-63.351844742367,4,1,0,90,0,1
34210,-63.160540831079,4,1,0,90,0,1
34473,-62.9703888043686,4,1,0,90,0,1
34736,-62.7813782898227,4,1,0,90,0,1
34868,-62.6873175407264,4,1,0,90,0,1
34999,-62.5934990391898,4,1,0,90,0,1
35131,-62.5,4,1,0,90,0,1
35262,-62.5,4,1,0,90,0,0

[HitObjects]
256,192,0,8,0,1842,0:0:0:0:
192,160,2105,5,4,0:0:0:0:
192,160,2368,1,0,0:0:0:0:
192,160,2631,1,8,0:0:0:0:
192,160,2894,1,8,0:0:0:0:
192,160,3157,1,8,0:0:0:0:
192,160,3289,1,8,0:0:0:0:
192,160,3420,1,0,0:0:0:0:
192,160,3552,1,0,0:0:0:0:
192,160,3683,1,8,0:0:0:0:
192,160,3815,1,0,0:0:0:0:
192,160,3947,1,8,0:0:0:0:
192,160,4078,1,8,0:0:0:0:
192,160,4210,1,0,0:0:0:0:
192,160,4473,1,0,0:0:0:0:
192,160,4736,1,8,0:0:0:0:
192,160,4999,1,8,0:0:0:0:
192,160,5262,1,8,0:0:0:0:
192,160,5394,1,8,0:0:0:0:
192,160,5526,1,0,0:0:0:0:
192,160,5657,1,0,0:0:0:0:
192,160,5789,1,8,0:0:0:0:
192,160,5920,1,8,0:0:0:0:
192,160,6052,1,0,0:0:0:0:
192,160,6183,1,8,0:0:0:0:
192,160,6315,1,0,0:0:0:0:
192,160,6578,1,0,0:0:0:0:
192,160,6841,1,8,0:0:0:0:
192,160,7104,1,8,0:0:0:0:
192,160,7368,1,8,0:0:0:0:
192,160,7499,1,8,0:0:0:0:
192,160,7631,1,8,0:0:0:0:
192,160,7762,1,0,0:0:0:0:
192,160,7894,1,8,0:0:0:0:
192,160,8026,1,8,0:0:0:0:
192,160,8157,1,0,0:0:0:0:
192,160,8289,1,0,0:0:0:0:
192,160,8420,1,8,0:0:0:0:
192,160,8552,1,0,0:0:0:0:
192,160,8683,1,8,0:0:0:0:
192,160,8815,1,0,0:0:0:0:
192,160,8947,1,8,0:0:0:0:
192,160,9210,1,0,0:0:0:0:
192,160,9473,1,8,0:0:0:0:
192,160,9736,1,0,0:0:0:0:
192,160,9999,1,8,0:0:0:0:
192,160,10131,1,0,0:0:0:0:
192,160,10262,1,8,0:0:0:0:
192,160,10526,1,4,0:0:0:0:
192,160,10920,1,0,0:0:0:0:
192,160,11052,1,8,0:0:0:0:
192,160,11315,1,0,0:0:0:0:
192,160,11841,1,0,0:0:0:0:
192,160,12104,1,8,0:0:0:0:
192,160,12236,1,8,0:0:0:0:
192,160,12368,1,0,0:0:0:0:
192,160,12499,1,0,0:0:0:0:
192,160,12631,1,0,0:0:0:0:
192,160,12894,1,8,0:0:0:0:
192,160,13157,1,8,0:0:0:0:
192,160,13289,1,8,0:0:0:0:
192,160,13420,1,0,0:0:0:0:
192,160,13552,1,0,0:0:0:0:
192,160,13683,1,8,0:0:0:0:
192,160,13815,1,8,0:0:0:0:
192,160,13947,1,0,0:0:0:0:
192,160,14210,1,8,0:0:0:0:
192,160,14341,1,0,0:0:0:0:
192,160,14473,1,8,0:0:0:0:
192,160,14604,1,8,0:0:0:0:
192,160,14736,1,0,0:0:0:0:
192,160,14999,1,8,0:0:0:0:
192,160,15131,1,0,0:0:0:0:
192,160,15262,1,8,0:0:0:0:
192,160,15526,1,0,0:0:0:0:
192,160,16052,1,8,0:0:0:0:
192,160,16183,1,0,0:0:0:0:
192,160,16315,1,8,0:0:0:0:
192,160,16447,1,8,0:0:0:0:
192,160,16578,1,0,0:0:0:0:
192,160,16710,1,0,0:0:0:0:
192,160,16841,1,8,0:0:0:0:
192,160,17104,1,8,0:0:0:0:
192,160,17368,1,0,0:0:0:0:
192,160,17631,1,8,0:0:0:0:
192,160,17894,1,0,0:0:0:0:
192,160,18026,1,8,0:0:0:0:
192,160,18157,1,0,0:0:0:0:
192,160,18289,1,8,0:0:0:0:
192,160,18420,1,0,0:0:0:0:
192,160,18552,1,0,0:0:0:0:
192,160,18683,1,8,0:0:0:0:
192,160,18947,1,4,0:0:0:0:
192,160,19210,1,8,0:0:0:0:
192,160,19473,1,0,0:0:0:0:
192,160,19604,1,0,0:0:0:0:
192,160,19736,1,8,0:0:0:0:
192,160,19999,1,0,0:0:0:0:
192,160,20262,1,8,0:0:0:0:
192,160,20394,1,0,0:0:0:0:
192,160,20526,1,8,0:0:0:0:
192,160,20657,1,0,0:0:0:0:
192,160,20789,1,8,0:0:0:0:
192,160,20920,1,8,0:0:0:0:
192,160,21052,1,0,0:0:0:0:
192,160,21315,1,0,0:0:0:0:
192,160,21578,1,8,0:0:0:0:
192,160,21710,1,8,0:0:0:0:
192,160,21841,1,0,0:0:0:0:
192,160,21973,1,0,0:0:0:0:
192,160,22104,1,8,0:0:0:0:
192,160,22236,1,8,0:0:0:0:
192,160,22368,1,0,0:0:0:0:
192,160,22499,1,0,0:0:0:0:
192,160,22631,1,8,0:0:0:0:
192,160,22762,1,0,0:0:0:0:
192,160,22894,1,8,0:0:0:0:
192,160,23026,1,8,0:0:0:0:
192,160,23157,1,0,0:0:0:0:
192,160,23420,1,0,0:0:0:0:
192,160,23552,1,0,0:0:0:0:
192,160,23683,1,8,0:0:0:0:
160,192,23815,1,8,0:0:0:0:
192,160,23947,1,0,0:0:0:0:
192,160,24473,1,8,0:0:0:0:
192,160,24604,1,0,0:0:0:0:
192,160,24736,1,8,0:0:0:0:
192,160,24868,1,8,0:0:0:0:
192,160,24999,1,0,0:0:0:0:
192,160,25131,1,8,0:0:0:0:
192,160,25262,1,0,0:0:0:0:
192,160,25526,1,0,0:0:0:0:
192,160,25657,1,8,0:0:0:0:
192,160,25789,1,8,0:0:0:0:
192,160,26052,1,0,0:0:0:0:
192,160,26315,1,8,0:0:0:0:
192,160,26578,1,0,0:0:0:0:
128,160,26841,1,8,0:0:0:0:
192,160,26973,1,0,0:0:0:0:
192,160,27104,1,8,0:0:0:0:
192,160,27368,1,12,0:0:0:0:
192,160,27631,1,0,0:0:0:0:
192,160,27894,1,8,0:0:0:0:
192,160,28157,1,0,0:0:0:0:
192,160,28552,1,8,0:0:0:0:
192,160,28683,1,0,0:0:0:0:
192,160,28947,1,8,0:0:0:0:
192,160,29078,1,8,0:0:0:0:
192,160,29210,1,0,0:0:0:0:
192,160,29341,1,0,0:0:0:0:
192,160,29473,1,8,0:0:0:0:
192,160,29736,1,0,0:0:0:0:
192,160,29999,1,8,0:0:0:0:
192,160,30262,1,0,0:0:0:0:
192,160,30657,1,0,0:0:0:0:
192,160,30789,1,8,0:0:0:0:
192,160,31052,1,8,0:0:0:0:
192,160,31183,1,0,0:0:0:0:
192,160,31315,1,8,0:0:0:0:
192,160,31447,1,8,0:0:0:0:
192,160,31578,1,0,0:0:0:0:
192,160,31841,1,0,0:0:0:0:
192,160,31973,1,0,0:0:0:0:
192,160,32104,1,8,0:0:0:0:
192,160,32368,1,0,0:0:0:0:
192,160,32894,1,0,0:0:0:0:
192,160,33157,1,8,0:0:0:0:
192,160,33289,1,8,0:0:0:0:
192,160,33420,1,0,0:0:0:0:
192,160,33552,1,8,0:0:0:0:
192,160,33683,1,0,0:0:0:0:
192,160,33947,1,8,0:0:0:0:
192,160,34210,1,0,0:0:0:0:
192,160,34473,1,8,0:0:0:0:
192,160,34736,1,0,0:0:0:0:
192,160,34868,1,8,0:0:0:0:
192,160,34999,1,0,0:0:0:0:
192,160,35131,1,8,0:0:0:0:
192,160,35262,1,0,0:0:0:0:
