osu file format v14

[General]
AudioFilename: audio.mp3
AudioLeadIn: 0
PreviewTime: 2104
Countdown: 0
SampleSet: Normal
StackLeniency: 0.7
Mode: 1
LetterboxInBreaks: 0
WidescreenStoryboard: 0

[Editor]
DistanceSpacing: 0.9
BeatDivisor: 4
GridSize: 32
TimelineZoom: 0.7

[Metadata]
Title:sorry asap croissant
TitleUnicode:sorry asap croissant
Artist:nice job bro0o0o0o0o0o0o0
ArtistUnicode:nice job bro0o0o0o0o0o0o0
Creator:Midnaait
Version:Futsuu
Source:
Tags:bubba sparxxx mii channel soundclown booty
BeatmapID:1464927
BeatmapSetID:692315

[Difficulty]
HPDrainRate:9.5
CircleSize:5
OverallDifficulty:3.5
ApproachRate:5
SliderMultiplier:1.4
SliderTickRate:1

[Events]
//Background and Video events
0,0,"maxresdefault.png",0,75
//Break Periods
//Storyboard Layer 0 (Background)
//Storyboard Layer 1 (Fail)
//Storyboard Layer 2 (Pass)
//Storyboard Layer 3 (Foreground)
//Storyboard Sound Samples

[TimingPoints]
0,526.315789473684,4,1,0,15,1,8
2105,526.315789473684,4,1,0,90,1,0
2631,-99.7605746209098,4,1,0,90,0,0
3157,-99.5222929936306,4,1,0,90,0,0
3420,-99.403578528827,4,1,0,90,0,0
3683,-99.2851469420175,4,1,0,90,0,0
4210,-99.0491283676704,4,1,0,90,0,0
4736,-98.8142292490119,4,1,0,90,0,0
5262,-98.5804416403786,4,1,0,90,0,0
5526,-98.4639621898385,4,1,0,90,0,0
5789,-98.3477576711251,4,1,0,90,0,0
6315,-98.116169544741,4,1,0,90,0,0
6841,-97.8856695379796,4,1,0,90,0,0
7368,-97.65625,4,1,0,90,0,0
7631,-97.5419430355053,4,1,0,90,0,0
7894,-97.4279033515199,4,1,0,90,0,0
8420,-97.2006220839813,4,1,0,90,0,0
8947,-96.9743987587277,4,1,0,90,0,0
9473,-96.7492260061919,4,1,0,90,0,0
10526,-96.3020030816641,4,1,0,90,0,0
11052,-96.0799385088394,4,1,0,90,0,0
11315,-95.9692898272553,4,1,0,90,0,0
11841,-95.7487552661815,4,1,0,90,0,0
12104,-95.6388676358072,4,1,0,90,0,0
12631,-95.4198473282443,4,1,0,90,0,0
13157,-95.2018278750952,4,1,0,90,0,0
13420,-95.0931913275009,4,1,0,90,0,0
13683,-94.9848024316109,4,1,0,90,0,0
13947,-94.876660341556,4,1,0,90,0,0
14210,-94.7687642153146,4,1,0,90,0,0
14736,-94.553706505295,4,1,0,90,0,0
15262,-94.3396226415094,4,1,0,90,0,0
16315,-93.9143501126972,4,1,0,90,0,0
16841,-93.7031484257871,4,1,0,90,0,0
17368,-93.4928945400149,4,1,0,90,0,0
17894,-93.2835820895522,4,1,0,90,0,0
18157,-93.179276928811,4,1,0,90,0,0
18420,-93.0752047654505,4,1,0,90,0,0
18947,-92.8677563150074,4,1,0,90,0,1
19736,-92.5583117363939,4,1,0,90,0,1
20262,-92.3531584780199,4,1,0,90,0,1
20789,-92.1489126428308,4,1,0,90,0,1
21052,-92.0471281296024,4,1,0,90,0,1
21578,-91.844232182219,4,1,0,90,0,1
22104,-91.6422287390029,4,1,0,90,0,1
22368,-91.5415598681801,4,1,0,90,0,1
22631,-91.441111923921,4,1,0,90,0,1
23157,-91.2408759124088,4,1,0,90,0,1
23947,-90.9421607857403,4,1,0,90,0,1
24473,-90.7441016333938,4,1,0,90,0,1
24999,-90.5469032959073,4,1,0,90,0,1
25262,-90.4486251808973,4,1,0,90,0,1
25789,-90.2527075812274,4,1,0,90,0,1
26052,-90.1550667147494,4,1,0,90,0,1
26315,-90.0576368876081,4,1,0,90,0,1
27368,-89.6700143472023,4,1,0,90,0,1
27894,-89.4774516821761,4,1,0,90,0,1
28157,-89.3814801573114,4,1,0,90,0,1
28683,-89.1901534070639,4,1,0,90,0,1
28947,-89.0947968638632,4,1,0,90,0,1
29210,-88.999644001424,4,1,0,90,0,1
29473,-88.9046941678521,4,1,0,90,0,1
29999,-88.7154009936125,4,1,0,90,0,1
30262,-88.6210563629918,4,1,0,90,0,1
30789,-88.4329678103997,4,1,0,90,0,1
31052,-88.339222614841,4,1,0,90,0,1
31578,-88.1523272214386,4,1,0,90,0,1
32104,-87.9662209711471,4,1,0,90,0,1
33157,-87.5963559915908,4,1,0,90,0,1
33683,-87.4125874125874,4,1,0,90,0,1
34210,-87.2295882763433,4,1,0,90,0,1
34736,-87.0473537604457,4,1,0,90,0,1
34999,-86.9565217391304,4,1,0,90,0,1
35262,-86.9565217391304,4,1,0,90,0,0

[HitObjects]
256,192,0,8,0,1842,0:0:0:0:
192,160,2105,5,4,0:0:0:0:
192,160,2631,1,8,0:0:0:0:
192,160,3157,1,0,0:0:0:0:
192,160,3420,1,0,0:0:0:0:
192,160,3683,1,8,0:0:0:0:
192,160,4210,1,0,0:0:0:0:
192,160,4736,1,8,0:0:0:0:
192,160,5262,1,0,0:0:0:0:
192,160,5526,1,8,0:0:0:0:
192,160,5789,1,8,0:0:0:0:
192,160,6315,1,0,0:0:0:0:
192,160,6841,1,8,0:0:0:0:
192,160,7368,1,8,0:0:0:0:
192,160,7631,1,0,0:0:0:0:
192,160,7894,1,8,0:0:0:0:
192,160,8420,1,8,0:0:0:0:
192,160,8947,1,0,0:0:0:0:
192,160,9473,1,8,0:0:0:0:
192,160,10526,1,4,0:0:0:0:
192,160,11052,1,8,0:0:0:0:
192,160,11315,1,0,0:0:0:0:
192,160,11841,1,0,0:0:0:0:
192,160,12104,1,8,0:0:0:0:
192,160,12631,1,0,0:0:0:0:
192,160,13157,1,8,0:0:0:0:
192,160,13420,1,8,0:0:0:0:
192,160,13683,1,0,0:0:0:0:
192,160,13947,1,0,0:0:0:0:
192,160,14210,1,8,0:0:0:0:
192,160,14736,1,0,0:0:0:0:
192,160,15262,1,0,0:0:0:0:
192,160,16315,1,8,0:0:0:0:
192,160,16841,1,0,0:0:0:0:
192,160,17368,1,8,0:0:0:0:
192,160,17894,1,0,0:0:0:0:
192,160,18157,1,0,0:0:0:0:
192,160,18420,1,8,0:0:0:0:
192,160,18947,1,4,0:0:0:0:
192,160,19736,1,8,0:0:0:0:
192,160,20262,1,8,0:0:0:0:
192,160,20789,1,8,0:0:0:0:
192,160,21052,1,0,0:0:0:0:
192,160,21578,1,8,0:0:0:0:
192,160,22104,1,0,0:0:0:0:
192,160,22368,1,0,0:0:0:0:
192,160,22631,1,8,0:0:0:0:
192,160,23157,1,0,0:0:0:0:
192,160,23947,1,8,0:0:0:0:
192,160,24473,1,8,0:0:0:0:
192,160,24999,1,8,0:0:0:0:
192,160,25262,1,0,0:0:0:0:
192,160,25789,1,8,0:0:0:0:
192,160,26052,1,8,0:0:0:0:
192,160,26315,1,0,0:0:0:0:
192,160,27368,1,4,0:0:0:0:
192,160,27894,1,8,0:0:0:0:
192,160,28157,1,0,0:0:0:0:
192,160,28683,1,0,0:0:0:0:
192,160,28947,1,8,0:0:0:0:
192,160,29210,1,8,0:0:0:0:
192,160,29473,1,0,0:0:0:0:
192,160,29999,1,8,0:0:0:0:
192,160,30262,1,0,0:0:0:0:
192,160,30789,1,8,0:0:0:0:
192,160,31052,1,8,0:0:0:0:
192,160,31578,1,0,0:0:0:0:
192,160,32104,1,0,0:0:0:0:
192,160,33157,1,8,0:0:0:0:
192,160,33683,1,0,0:0:0:0:
192,160,34210,1,8,0:0:0:0:
192,160,34736,1,0,0:0:0:0:
192,160,34999,1,0,0:0:0:0:
192,160,35262,1,8,0:0:0:0:
