osu file format v14

[General]
AudioFilename: audio.mp3
AudioLeadIn: 0
PreviewTime: -1
Countdown: 1
SampleSet: None
StackLeniency: 1
Mode: 0
LetterboxInBreaks: 0
WidescreenStoryboard: 1

[Editor]
DistanceSpacing: 1
BeatDivisor: 6
GridSize: 4
TimelineZoom: 1

[Metadata]
Title:sorry asap croissant
TitleUnicode:sorry asap croissant
Artist:nice job bro0o0o0o0o0o
ArtistUnicode:nice job bro0o0o0o0o0o
Creator:TrueAmericanBoy
Version:Giant Croissant
Source:
Tags:
BeatmapID:1250230
BeatmapSetID:590753

[Difficulty]
HPDrainRate:7
CircleSize:6
OverallDifficulty:10
ApproachRate:10
SliderMultiplier:1.4
SliderTickRate:1

[Events]
//Background and Video events
//Break Periods
//Storyboard Layer 0 (Background)
//Storyboard Layer 1 (Fail)
//Storyboard Layer 2 (Pass)
//Storyboard Layer 3 (Foreground)
//Storyboard Sound Samples

[TimingPoints]
0,4000,4,3,1,100,1,0
1984,425.531914893617,4,3,1,100,1,0
1991,-100,4,3,1,100,0,0

[Colours]
Combo1 : 255,255,255
Combo2 : 128,128,64
Combo3 : 128,128,64
Combo4 : 128,128,64

[HitObjects]
219,151,2196,5,0,0:0:0:0:
240,133,2409,1,0,0:0:0:0:
265,115,2764,1,0,0:0:0:0:
299,132,2976,1,0,0:0:0:0:
311,172,3331,1,0,0:0:0:0:
305,222,3615,1,0,0:0:0:0:
272,251,3898,1,0,0:0:0:0:
239,239,4111,1,0,0:0:0:0:
217,205,4395,1,0,0:0:0:0:
219,174,4608,1,0,0:0:0:0:
177,150,4891,1,0,0:0:0:0:
159,191,5104,1,0,0:0:0:0:
248,197,5601,1,0,0:0:0:0:
261,161,5884,1,0,0:0:0:0:
279,143,6097,1,0,0:0:0:0:
304,129,6381,1,0,0:0:0:0:
345,136,6735,1,0,0:0:0:0:
349,175,6948,1,0,0:0:0:0:
305,229,7232,1,0,0:0:0:0:
370,208,7799,1,0,0:0:0:0:
276,181,8083,5,0,0:0:0:0:
374,148,8296,1,0,0:0:0:0:
283,237,8508,1,0,0:0:0:0:
282,126,8792,1,0,0:0:0:0:
328,231,9076,1,0,0:0:0:0:
236,215,9288,1,0,0:0:0:0:
330,146,9572,1,0,0:0:0:0:
210,144,10069,1,0,0:0:0:0:
238,137,10210,1,0,0:0:0:0:
246,133,10352,1,0,0:0:0:0:
260,128,10494,1,0,0:0:0:0:
272,126,10636,1,0,0:0:0:0:
358,105,11203,1,0,0:0:0:0:
317,224,11771,1,0,0:0:0:0:
260,173,11984,1,0,0:0:0:0:
342,167,12267,1,0,0:0:0:0:
255,262,12480,1,0,0:0:0:0:
210,267,12976,1,0,0:0:0:0:
241,144,13331,1,0,0:0:0:0:
283,254,13615,1,0,0:0:0:0:
326,116,13827,1,0,0:0:0:0:
241,228,14111,1,0,0:0:0:0:
266,131,14395,1,0,0:0:0:0:
339,121,14962,1,0,0:0:0:0:
301,238,15388,1,0,0:0:0:0:
212,226,15671,1,0,0:0:0:0:
265,129,15955,1,0,0:0:0:0:
319,230,16168,1,0,0:0:0:0:
189,187,16452,1,0,0:0:0:0:
319,175,16735,1,0,0:0:0:0:
201,254,17019,1,0,0:0:0:0:
250,142,17232,1,0,0:0:0:0:
308,262,17515,1,0,0:0:0:0:
192,192,17728,1,0,0:0:0:0:
334,148,18012,1,0,0:0:0:0:
210,274,18225,1,0,0:0:0:0:
219,118,18508,1,0,0:0:0:0:
287,223,18792,1,0,0:0:0:0:
301,211,18934,1,0,0:0:0:0:
303,212,19076,1,0,0:0:0:0:
325,134,19643,5,0,0:0:0:0:
407,131,20140,1,0,0:0:0:0:
319,175,20423,1,0,0:0:0:0:
270,189,20707,1,8,0:0:0:0:
270,189,20849,1,8,0:0:0:0:
278,190,21203,1,8,0:0:0:0:
317,172,21700,1,8,0:0:0:0:
354,137,21984,1,8,0:0:0:0:
359,139,22196,1,8,0:0:0:0:
363,143,22551,1,8,0:0:0:0:
348,146,22764,1,8,0:0:0:0:
343,153,23047,1,0,0:0:0:0:
338,141,23189,1,0,0:0:0:0:
306,168,23827,1,0,0:0:0:0:
363,142,24040,1,0,0:0:0:0:
269,257,24679,1,0,0:0:0:0:
233,233,24891,1,0,0:0:0:0:
179,218,25175,1,0,0:0:0:0:
297,144,25388,1,0,0:0:0:0:
326,144,25955,5,0,0:0:0:0:
212,203,26381,1,0,0:0:0:0:
226,200,26452,1,0,0:0:0:0:
351,143,26877,1,0,0:0:0:0:
354,144,26948,1,0,0:0:0:0:
233,187,27444,1,0,0:0:0:0:
233,187,27515,1,0,0:0:0:0:
371,126,28012,1,0,0:0:0:0:
190,191,28296,1,0,0:0:0:0:
302,123,28508,1,0,0:0:0:0:
309,252,28792,1,0,0:0:0:0:
185,177,29005,1,0,0:0:0:0:
349,164,29288,1,0,0:0:0:0:
216,249,29643,1,0,0:0:0:0:
221,249,29785,1,0,0:0:0:0:
229,248,29927,1,0,0:0:0:0:
293,174,30210,1,0,0:0:0:0:
368,214,30707,1,0,0:0:0:0:
388,139,30920,1,0,0:0:0:0:
252,205,31203,1,0,0:0:0:0:
245,131,31416,1,0,0:0:0:0:
330,207,31700,1,0,0:0:0:0:
330,207,31771,1,0,0:0:0:0:
334,198,31984,1,0,0:0:0:0:
193,199,32480,1,0,0:0:0:0:
305,138,32693,1,0,0:0:0:0:
359,218,32976,1,0,0:0:0:0:
219,255,33260,1,0,0:0:0:0:
215,144,33544,1,0,0:0:0:0:
296,248,33827,1,0,0:0:0:0:
143,229,34040,1,0,0:0:0:0:
282,151,34324,1,0,0:0:0:0:
206,268,34537,1,0,0:0:0:0:
268,113,34891,5,0,0:0:0:0:
355,166,35388,1,0,0:0:0:0:
339,214,35671,1,0,0:0:0:0:
