osu file format v14

[General]
AudioFilename: audio.mp3
AudioLeadIn: 0
PreviewTime: -1
Countdown: 1
SampleSet: None
StackLeniency: 1
Mode: 0
LetterboxInBreaks: 0
WidescreenStoryboard: 0

[Editor]
DistanceSpacing: 1
BeatDivisor: 6
GridSize: 4
TimelineZoom: 1

[Metadata]
Title:sorry asap croissant
TitleUnicode:sorry asap croissant
Artist:nice job bro0o0o0o0o0o
ArtistUnicode:nice job bro0o0o0o0o0o
Creator:TrueAmericanBoy
Version:Croissant
Source:
Tags:
BeatmapID:1250225
BeatmapSetID:590753

[Difficulty]
HPDrainRate:6.1
CircleSize:6.7
OverallDifficulty:9.5
ApproachRate:9.4
SliderMultiplier:1.4
SliderTickRate:1

[Events]
//Background and Video events
//Break Periods
//Storyboard Layer 0 (Background)
//Storyboard Layer 1 (Fail)
//Storyboard Layer 2 (Pass)
//Storyboard Layer 3 (Foreground)
//Storyboard Sound Samples

[TimingPoints]
0,4000,4,3,1,100,1,0
1984,425.531914893617,4,3,1,100,1,0
1991,-100,4,3,1,100,0,0

[Colours]
Combo1 : 255,255,255
Combo2 : 128,128,64
Combo3 : 128,128,64
Combo4 : 128,128,64

[HitObjects]
198,178,666,5,0,0:0:0:0:
250,120,1333,1,0,0:0:0:0:
267,169,1984,1,0,0:0:0:0:
263,150,2338,1,0,0:0:0:0:
208,209,2764,1,0,0:0:0:0:
247,129,3047,1,0,0:0:0:0:
279,233,3544,1,0,0:0:0:0:
212,240,4111,1,0,0:0:0:0:
221,131,4395,1,0,0:0:0:0:
306,196,4608,1,0,0:0:0:0:
301,106,4891,1,0,0:0:0:0:
255,117,5388,5,0,0:0:0:0:
197,111,6310,1,0,0:0:0:0:
188,167,6452,1,0,0:0:0:0:
255,217,6735,1,0,0:0:0:0:
151,228,6948,1,0,0:0:0:0:
252,149,7232,1,0,0:0:0:0:
229,269,7728,1,0,0:0:0:0:
188,180,8296,1,0,0:0:0:0:
283,156,8579,1,0,0:0:0:0:
288,226,8792,1,0,0:0:0:0:
352,209,9076,1,0,0:0:0:0:
357,152,9359,1,0,0:0:0:0:
325,94,9643,1,0,0:0:0:0:
256,132,9927,1,0,0:0:0:0:
278,184,10210,1,0,0:0:0:0:
361,169,10423,1,0,0:0:0:0:
319,110,10636,1,0,0:0:0:0:
221,202,11203,1,0,0:0:0:0:
226,211,11771,5,0,0:0:0:0:
296,137,11984,1,0,0:0:0:0:
297,221,12267,1,0,0:0:0:0:
230,144,12480,1,0,0:0:0:0:
361,160,13118,1,0,0:0:0:0:
363,232,13615,1,0,0:0:0:0:
305,230,13827,1,0,0:0:0:0:
310,162,14111,1,0,0:0:0:0:
377,151,14324,1,0,0:0:0:0:
362,211,14608,1,0,0:0:0:0:
327,223,14891,1,0,0:0:0:0:
272,235,15175,1,0,0:0:0:0:
211,251,15388,1,0,0:0:0:0:
219,113,16452,5,0,0:0:0:0:
223,202,16664,1,0,0:0:0:0:
219,107,16948,1,0,0:0:0:0:
327,108,17870,1,0,0:0:0:0:
203,153,20140,1,0,0:0:0:0:
194,165,20423,1,0,0:0:0:0:
192,166,20636,1,0,0:0:0:0:
201,159,20920,1,0,0:0:0:0:
199,161,21132,1,0,0:0:0:0:
270,114,21771,1,0,0:0:0:0:
366,111,22267,1,0,0:0:0:0:
175,158,22764,1,0,0:0:0:0:
338,92,23260,1,0,0:0:0:0:
202,129,23615,1,0,0:0:0:0:
344,65,23827,1,0,0:0:0:0:
205,120,24111,1,0,0:0:0:0:
265,132,24608,5,0,0:0:0:0:
226,218,25175,1,0,0:0:0:0:
352,148,25388,1,0,0:0:0:0:
198,195,25671,1,0,0:0:0:0:
280,114,25884,1,0,0:0:0:0:
148,153,26168,1,0,0:0:0:0:
86,254,26381,1,0,0:0:0:0:
234,253,26948,1,0,0:0:0:0:
390,145,27232,1,0,0:0:0:0:
235,204,27515,1,0,0:0:0:0:
340,133,27728,1,0,0:0:0:0:
237,173,28012,1,0,0:0:0:0:
308,117,28296,1,0,0:0:0:0:
211,103,28792,1,0,0:0:0:0:
293,100,29005,1,0,0:0:0:0:
208,197,29288,1,0,0:0:0:0:
326,143,29572,1,0,0:0:0:0:
226,255,29856,1,0,0:0:0:0:
372,166,30140,1,0,0:0:0:0:
245,281,30423,1,0,0:0:0:0:
257,166,30920,5,0,0:0:0:0:
264,144,31203,1,0,0:0:0:0:
174,175,31487,1,0,0:0:0:0:
230,118,31700,1,0,0:0:0:0:
174,140,31984,1,0,0:0:0:0:
216,91,32196,1,0,0:0:0:0:
263,151,33544,1,0,0:0:0:0:
331,206,34111,1,0,0:0:0:0:
208,233,34608,1,0,0:0:0:0:
271,308,35104,1,0,0:0:0:0:
276,212,35388,1,0,0:0:0:0:
292,138,35671,1,0,0:0:0:0:
