osu file format v14

[General]
AudioFilename: audio.mp3
AudioLeadIn: 0
PreviewTime: 47254
Countdown: 1
SampleSet: Soft
StackLeniency: 0.7
Mode: 0
LetterboxInBreaks: 0
WidescreenStoryboard: 1

[Editor]
Bookmarks: 4988,5960,10775,11886,13553,16840,17812,19479,21516,25405,27442,28692,29664,31516,32257,33368,34479,34849,35590,37442,40544,41516,42442,45220,46331,47442,49294,50035,51146,52396,53368,57072,58183,61146,61886,62997,64247,68923,70035
DistanceSpacing: 1.5
BeatDivisor: 1
GridSize: 32
TimelineZoom: 3.6

[Metadata]
Title:Bayside
TitleUnicode:Bayside
Artist:nev & supbaby
ArtistUnicode:nev & 슈퍼꼬마
Creator:Veridian
Version:Insane
Source:Trickster Online
Tags:Ntreev Soft. Software OST BGM VGM Oops Wharf REVOLUTION Season 2 Two Korean Korea MMO RPG
BeatmapID:1535888
BeatmapSetID:727484

[Difficulty]
HPDrainRate:4.5
CircleSize:6.2
OverallDifficulty:4.5
ApproachRate:8
SliderMultiplier:1.6
SliderTickRate:1

[Events]
//Background and Video events
0,0,"Wallpaper01_large.jpg",0,0
//Break Periods
//Storyboard Layer 0 (Background)
//Storyboard Layer 1 (Fail)
//Storyboard Layer 2 (Pass)
//Storyboard Layer 3 (Foreground)
//Storyboard Sound Samples

[TimingPoints]
35,1481.48148148148,4,2,1,20,1,0
1516,-100,4,2,2,5,0,0
2257,-100,4,2,1,20,0,0
4479,-100,4,2,1,5,0,0
5034,-50,4,2,3,20,0,0
5775,-50,4,2,3,5,0,0
5868,-50,4,2,1,5,0,0
5960,-100,4,2,4,20,0,0
7442,-100,4,2,2,5,0,0
8183,-100,4,2,1,20,0,0
10405,-100,4,2,1,5,0,0
10775,-50,4,2,5,20,0,0
11701,-50,4,2,5,20,0,0
11794,-50,4,2,1,5,0,0
11886,740.740740740741,4,2,1,50,1,0
12626,-100,4,2,1,50,0,0
13552,-90.9090909090909,4,2,1,50,0,0
13645,-90.9090909090909,4,2,1,5,0,0
13737,-76.9230769230769,4,2,1,50,0,0
13830,-90.9090909090909,4,2,1,5,0,0
13923,-66.6666666666667,4,2,1,50,0,0
14015,-66.6666666666667,4,2,1,5,0,0
14108,-100,4,2,1,70,0,0
14663,-100,4,2,1,5,0,0
14848,-100,4,2,1,50,0,0
16700,-100,4,2,1,5,0,0
16839,-71.4285714285714,4,2,3,40,0,0
17395,-71.4285714285714,4,2,1,5,0,0
17441,-100,4,2,1,50,0,0
17626,-71.4285714285714,4,2,1,50,0,0
17811,-100,4,2,4,50,0,0
18506,-200,4,2,1,5,0,0
18552,-100,4,2,1,50,0,0
19478,-90.9090909090909,4,2,1,50,0,0
19571,-90.9090909090909,4,2,1,5,0,0
19663,-76.9230769230769,4,2,1,50,0,0
19756,-76.9230769230769,4,2,1,5,0,0
19849,-66.6666666666667,4,2,1,50,0,0
19941,-66.6666666666667,4,2,1,5,0,0
20034,-100,4,2,1,70,0,0
20589,-100,4,2,1,5,0,0
20774,-100,4,2,1,50,0,0
21515,-133.333333333333,4,2,1,50,0,0
22997,-100,4,2,1,50,0,0
23737,370.37037037037,4,2,1,50,1,1
24199,-100,4,2,1,5,0,1
24292,-100,4,2,1,50,0,1
24755,-100,4,2,1,5,0,1
24848,-100,4,2,1,50,0,1
25311,-100,4,2,1,5,0,1
25403,-90.9090909090909,4,2,1,50,0,1
25496,-90.9090909090909,4,2,1,50,0,1
25588,-76.9230769230769,4,2,1,50,0,1
25681,-90.9090909090909,4,2,1,5,0,1
25774,-66.6666666666667,4,2,1,50,0,1
25866,-90.9090909090909,4,2,1,5,0,1
25959,-100,4,2,1,50,0,1
27394,-100,4,2,1,50,0,0
27440,-100,4,2,2,50,0,1
27718,-66.6666666666667,4,2,1,5,0,1
27811,-100,4,2,1,50,0,1
28088,-100,4,2,1,50,0,1
28181,-100,4,2,1,50,0,1
28736,-71.4285714285714,4,2,1,50,0,1
28737,-71.4285714285714,4,2,3,50,0,1
29292,-100,4,2,1,50,0,1
29662,-83.3333333333333,4,2,4,50,0,1
29848,-83.3333333333333,4,2,1,5,0,1
29940,-83.3333333333333,4,2,1,50,0,1
30125,-83.3333333333333,4,2,1,5,0,1
30217,-83.3333333333333,4,2,1,50,0,1
30311,-83.3333333333333,4,2,1,5,0,1
30403,-100,4,2,1,50,0,1
30496,-100,4,2,1,5,0,1
30588,-100,4,2,1,50,0,1
30681,-100,4,2,1,5,0,1
30774,-125,4,2,1,50,0,1
30866,-125,4,2,1,5,0,1
30959,-125,4,2,1,50,0,1
31051,-125,4,2,1,5,0,1
31144,-166.666666666667,4,2,1,50,0,1
31329,-166.666666666667,4,2,1,50,0,1
31514,-71.4285714285714,4,2,1,60,0,1
31792,-71.4285714285714,4,2,1,5,0,1
31885,-71.4285714285714,4,2,1,60,0,1
32162,-71.4285714285714,4,2,1,5,0,1
32255,-55.5555555555556,4,2,1,100,0,1
32533,-55.5555555555556,4,2,1,5,0,1
32625,-100,4,2,1,50,0,1
33274,-100,4,2,1,5,0,1
33366,-133.333333333333,4,2,1,50,0,1
34292,-133.333333333333,4,2,1,5,0,1
34385,-133.333333333333,4,2,1,50,0,1
34477,-71.4285714285714,4,2,5,50,0,1
34755,-71.4285714285714,4,2,1,5,0,1
34801,-100,4,2,1,50,0,0
34848,-100,4,2,2,50,0,1
35125,-66.6666666666667,4,2,1,5,0,1
35218,-66.6666666666667,4,2,1,50,0,1
35588,740.740740740741,4,2,4,50,1,0
36328,-100,4,2,1,50,0,0
37069,-100,4,2,4,5,0,0
37254,-100,4,2,1,50,0,0
37347,-100,4,2,1,50,0,0
37439,-100,4,2,1,5,0,0
37563,-100,4,2,1,50,0,0
37625,-100,4,2,1,5,0,0
37748,-100,4,2,1,5,0,0
37810,-111.111111111111,4,2,1,50,0,0
37933,-111.111111111111,4,2,1,5,0,0
38057,-125,4,2,1,50,0,0
38180,-111.111111111111,4,2,1,5,0,0
38304,-142.857142857143,4,2,1,50,0,0
38427,-111.111111111111,4,2,1,5,0,0
38550,-166.666666666667,4,2,1,50,0,0
38674,-111.111111111111,4,2,1,5,0,0
38797,-200,4,2,1,50,0,0
38921,-111.111111111111,4,2,1,5,0,0
39106,-200,4,2,1,50,0,0
39662,-111.111111111111,4,2,1,5,0,0
40526,-71.4285714285714,4,2,3,50,0,0
41421,-71.4285714285714,4,2,3,5,0,0
41467,-71.4285714285714,4,2,1,5,0,0
41513,-100,4,2,4,30,0,0
42254,-100,4,2,1,40,0,0
42995,-100,4,2,1,5,0,0
43489,-111.111111111111,4,2,1,40,0,0
43612,-111.111111111111,4,2,1,5,0,0
43736,-125,4,2,1,40,0,0
43859,-111.111111111111,4,2,1,5,0,0
43983,-142.857142857143,4,2,1,40,0,0
44106,-111.111111111111,4,2,1,5,0,0
44229,-125,4,2,1,40,0,0
44353,-111.111111111111,4,2,1,5,0,0
44476,-100,4,2,1,40,0,0
45217,-133.333333333333,4,2,1,50,0,0
46328,-71.4285714285714,4,2,5,50,0,0
46699,-100,4,2,1,50,0,0
47254,-100,4,2,1,5,0,0
47439,-83.3333333333333,4,2,4,50,0,0
48180,-125,4,2,1,50,0,0
48273,-125,4,2,1,5,0,0
48365,-125,4,2,1,50,0,0
48458,-125,4,2,1,5,0,0
48550,-166.666666666667,4,2,1,50,0,0
48643,-166.666666666667,4,2,1,5,0,0
48736,-166.666666666667,4,2,1,50,0,0
48829,-166.666666666667,4,2,1,5,0,0
48921,-200,4,2,1,50,0,0
49199,-200,4,2,1,5,0,0
49291,-83.3333333333333,4,2,1,60,0,0
49569,-83.3333333333333,4,2,1,5,0,0
49662,-83.3333333333333,4,2,1,60,0,0
49939,-83.3333333333333,4,2,1,5,0,0
50032,-55.5555555555556,4,2,1,100,0,0
50310,-55.5555555555556,4,2,1,5,0,0
50402,-100,4,2,1,50,0,0
51143,-66.6666666666667,4,2,2,50,0,1
52393,-71.4285714285714,4,2,3,50,0,0
53319,-71.4285714285714,4,2,1,5,0,0
53365,-83.3333333333333,4,2,4,50,0,0
54291,-83.3333333333333,4,2,4,5,0,0
54662,-83.3333333333333,4,2,4,50,0,0
55032,-83.3333333333333,4,2,4,5,0,0
55403,-83.3333333333333,4,2,4,50,0,0
55773,-83.3333333333333,4,2,4,5,0,0
56328,-83.3333333333333,4,2,4,50,0,0
57069,-133.333333333333,4,2,1,50,0,0
58180,-71.4285714285714,4,2,5,50,0,0
59291,370.37037037037,4,2,1,50,1,1
59291,-83.3333333333333,4,2,1,50,0,1
59568,-83.3333333333333,4,2,1,50,0,1
59753,-83.3333333333333,4,2,1,5,0,1
59846,-83.3333333333333,4,2,1,50,0,1
59939,-83.3333333333333,4,2,1,5,0,1
60031,-100,4,2,1,50,0,1
60124,-100,4,2,1,5,0,1
60216,-100,4,2,1,50,0,1
60309,-100,4,2,1,5,0,1
60402,-125,4,2,1,50,0,1
60494,-125,4,2,1,5,0,1
60587,-125,4,2,1,50,0,1
60679,-125,4,2,1,5,0,1
60772,-166.666666666667,4,2,1,50,0,1
61050,-166.666666666667,4,2,1,50,0,1
61142,-71.4285714285714,4,2,1,60,0,1
61420,-71.4285714285714,4,2,1,5,0,1
61513,-71.4285714285714,4,2,1,60,0,1
61791,-71.4285714285714,4,2,1,5,0,1
61883,-55.5555555555556,4,2,1,100,0,1
62161,-55.5555555555556,4,2,1,5,0,1
62207,-55.5555555555556,4,2,1,5,0,1
62253,-100,4,2,1,50,0,1
62902,-100,4,2,1,5,0,1
62948,-100,4,2,2,50,0,0
62994,-100,4,2,2,50,0,1
63365,-100,4,2,1,50,0,1
63735,-100,4,2,1,50,0,1
64290,-71.4285714285714,4,2,1,50,0,1
64291,-71.4285714285714,4,2,3,50,0,1
64777,-71.4285714285714,4,2,1,5,0,1
64846,-100,4,2,1,50,0,1
65216,-83.3333333333333,4,2,4,50,0,1
65494,-83.3333333333333,4,2,1,50,0,1
66050,-83.3333333333333,4,2,1,5,0,1
66513,-83.3333333333333,4,2,1,50,0,1
66790,-83.3333333333333,4,2,1,5,0,1
67253,-83.3333333333333,4,2,1,50,0,1
67531,-83.3333333333333,4,2,1,5,0,1
67809,-100,4,2,1,50,0,1
68179,-100,4,2,1,50,0,1
68828,-100,4,2,1,5,0,1
68920,-133.333333333333,4,2,1,50,0,1
70031,-71.4285714285714,4,2,5,50,0,1
70309,-71.4285714285714,4,2,1,5,0,1
70402,-100,4,2,1,50,0,1
70772,-100,4,2,1,50,0,1
71096,-100,4,2,1,50,0,0

[Colours]
Combo1 : 67,254,203
Combo2 : 94,65,109
Combo3 : 239,146,232
Combo4 : 241,88,100
Combo5 : 255,224,102
Combo6 : 187,255,240
SliderTrackOverride : 255,255,255
SliderBorder : 107,89,79

[HitObjects]
412,252,35,6,0,P|424:304|480:220,1,240,0|0,1:0|3:0,0:0:0:0:
400,152,2997,2,0,B|324:120|312:204|232:156,1,160,0|0,1:0|0:0,0:0:0:0:
124,68,5034,54,0,P|96:52|28:132,1,160,2|0,0:0|0:0,0:0:0:0:
36,152,5960,38,0,B|148:216|148:96|272:160,1,240,2|0,0:2|3:0,0:0:0:0:
344,220,8923,2,0,P|364:236|412:156,1,160,0|0,1:0|0:0,0:0:0:0:
500,100,10775,38,0,P|416:60|317:109,1,200,2|0,0:0|0:0,0:0:0:0:
280,140,11886,54,0,P|232:160|184:144,1,80,2|0,0:2|0:0,0:0:0:0:
156,124,12441,1,0,0:0:0:0:
151,64,12626,2,0,L|147:8,2,40
60,144,13367,21,0,0:0:0:0:
20,196,13552,2,0,L|23:227,1,22.0000006713867,2|0,0:0|0:0,0:0:0:0:
72,264,13737,2,0,L|75:303,1,25.9999988098145,2|0,0:0|0:0,0:0:0:0:
32,344,13923,1,2,0:0:0:0:
144,304,14108,70,0,L|136:212,1,80,0|0,3:0|0:0,0:0:0:0:
212,132,14848,2,0,P|248:120|300:142,1,80,0|0,1:0|0:0,0:0:0:0:
336,168,15404,1,0,0:0:0:0:
384,132,15589,2,0,L|452:120,2,40,0|0|0,0:0|0:0|0:0,0:0:0:0:
455,239,16330,2,0,L|351:256,1,80
316,296,16886,6,0,P|264:332|240:212,1,223.999993164063,2|0,0:0|3:0,0:0:0:0:
268,180,17811,22,0,P|280:152|256:92,1,80,2|0,0:2|0:0,0:0:0:0:
232,60,18367,1,0,0:0:0:0:
268,12,18552,2,0,L|336:8,2,40,0|0|0,0:0|0:0|0:0,0:0:0:0:
228,124,19293,53,0,0:0:0:0:
280,164,19478,2,0,L|311:161,1,22.0000006713867,2|0,0:0|0:0,0:0:0:0:
348,112,19663,2,0,L|387:109,1,25.9999988098145,2|0,0:0|0:0,0:0:0:0:
428,152,19849,1,2,0:0:0:0:
412,248,20034,38,0,L|324:252,1,80,0|0,3:0|0:0,0:0:0:0:
240,328,20774,2,0,P|198:337|142:313,1,80,0|0,1:0|0:0,0:0:0:0:
116,288,21330,1,0,0:0:0:0:
164,248,21515,54,0,B|181:191|181:191|160:147,2,90.0000034332277,2|2|0,0:0|0:0|0:0,0:0:0:0:
96,196,22997,1,0,0:0:0:0:
416,196,23367,1,0,0:0:0:0:
236,40,23737,38,0,P|228:88|244:132,1,80,4|0,1:0|0:0,0:0:0:0:
268,168,24014,2,0,P|276:216|260:260,1,80,8|0,0:0|0:0,0:0:0:0:
236,296,24292,1,4,0:0:0:0:
160,204,24477,1,0,0:0:0:0:
160,204,24570,1,0,0:0:0:0:
160,204,24662,1,4,0:0:0:0:
46,245,24848,2,0,P|37:206|46:167,1,80,8|0,0:0|0:0,0:0:0:0:
72,116,25125,1,0,0:0:0:0:
72,116,25218,1,4,0:0:0:0:
168,24,25403,22,0,L|228:32,1,44.0000013427735,2|8,0:0|0:0,0:0:0:0:
248,100,25588,2,0,L|328:112,1,51.999997619629,2|0,0:0|0:0,0:0:0:0:
368,48,25774,1,6,0:0:0:0:
440,144,25959,69,4,0:0:0:0:
440,144,26051,1,0,0:0:0:0:
440,144,26144,1,4,0:0:0:0:
340,212,26329,2,0,P|298:222|247:199,1,80,8|0,0:0|0:0,0:0:0:0:
233,196,26607,1,0,0:0:0:0:
208,184,26699,2,0,P|166:174|115:197,1,80,4|0,1:0|0:0,0:0:0:0:
84,224,26977,2,0,P|74:266|97:317,1,80,8|0,0:0|0:0,0:0:0:0:
132,336,27255,1,4,0:0:0:0:
240,284,27440,6,0,B|324:248|320:344|420:280,1,160,2|8,0:0|0:0,0:0:0:0:
464,128,28088,21,0,0:0:0:0:
428,80,28181,2,0,P|396:68|336:96,1,80,4|0,0:0|0:0,0:0:0:0:
312,124,28459,2,0,L|212:112,1,80,8|0,0:0|0:0,0:0:0:0:
164,164,28736,54,0,P|96:200|120:96,1,223.999993164063,6|4,0:0|0:0,0:0:0:0:
184,12,29292,37,8,0:0:0:0:
256,240,29477,1,8,0:0:0:0:
336,120,29662,38,0,B|364:108|364:108|464:128,1,95.9999970703126,6|0,0:2|0:0,0:0:0:0:
496,96,29940,2,0,L|476:204,1,95.9999970703126,10|0,0:1|0:0,0:0:0:0:
464,260,30218,1,0,0:1:0:0:
360,320,30403,6,0,L|375:248,1,40,2|0,0:1|0:0,0:0:0:0:
320,244,30588,2,0,L|332:180,1,40,4|0,0:0|0:0,0:0:0:0:
300,176,30774,2,0,L|311:124,1,32,10|0,0:1|0:0,0:0:0:0:
284,120,30959,2,0,L|297:67,1,32,0|0,0:0|0:0,0:0:0:0:
280,68,31144,2,0,P|255:62|222:73,1,47.9999985351563,4|0,0:0|0:0,0:0:0:0:
72,28,31514,70,0,L|96:228,1,167.999994873047,2|0,0:1|0:0,0:0:0:0:
20,152,31885,2,0,L|44:352,1,167.999994873047,6|0,0:1|0:0,0:0:0:0:
104,340,32255,2,0,B|236:272|316:364|240:392,1,215.999993408203,10|0,0:1|0:0,0:0:0:0:
272,260,32625,22,0,P|316:288|337:341,1,80,4|0,1:0|0:0,0:0:0:0:
392,312,32903,2,0,P|415:279|450:261,1,80,8|0,0:0|0:0,0:0:0:0:
508,280,33181,1,4,0:0:0:0:
504,164,33366,70,0,L|360:196,1,120.000004577637,2|8,0:0|0:0,0:0:0:0:
316,132,33922,2,0,L|172:164,1,120.000004577637,2|0,0:0|0:0,0:0:0:0:
116,84,34477,70,0,P|56:56|60:160,1,167.999994873047,2|0,0:0|0:0,0:0:0:0:
60,180,34848,6,0,B|88:248|24:248|72:328,1,120,2|0,0:0|0:0,0:0:0:0:
104,340,35218,1,8,0:0:0:0:
120,336,35311,1,8,0:0:0:0:
136,332,35403,1,8,0:0:0:0:
152,328,35496,1,8,0:0:0:0:
208,364,35588,1,6,0:2:0:0:
432,344,36328,6,0,P|448:288|356:284,1,160,0|0,3:0|3:0,3:0:0:0:
316,304,37254,2,0,P|294:308|263:294,1,40,0|0,3:0|0:0,0:0:0:0:
218,336,37563,2,0,P|196:332|169:343,1,40,0|0,3:0|0:0,0:0:0:0:
192,268,37810,70,0,L|196:240,1,23.9999992675781,0|0,3:0|0:0,0:0:0:0:
136,204,38057,2,0,L|139:181,1,21.3333333333333,0|0,3:0|0:0,0:0:0:0:
192,168,38304,2,0,L|196:148,1,18.6666660970052,0|0,3:0|0:0,0:0:0:0:
164,120,38550,2,0,L|167:100,1,15.9999995117188,0|0,1:0|0:0,0:0:0:0:
196,88,38797,2,0,L|200:69,1,13.3333333333333,0|0,3:0|0:0,0:0:0:0:
188,56,39106,1,0,3:0:0:0:
176,72,40541,70,0,P|184:48|276:140,1,265.999991882324,2|0,0:0|0:0,0:0:0:0:
264,156,41513,38,0,P|240:210|274:270,1,120,2|0,0:2|0:0,0:0:0:0:
308,304,42254,54,0,P|324:324|352:224,1,213.333333333333,0|0,3:0|0:0,0:0:0:0:
384,156,43489,2,0,L|340:160,1,23.9999992675781,0|0,3:0|0:0,0:0:0:0:
312,108,43736,2,0,L|273:112,1,21.3333333333333,0|0,3:0|0:0,0:0:0:0:
264,184,43983,2,0,L|230:187,1,18.6666660970052,0|0,3:0|0:0,0:0:0:0:
204,144,44229,2,0,L|174:147,1,21.3333333333333,0|0,3:0|0:0,0:0:0:0:
160,132,44476,1,0,1:0:0:0:
56,276,45217,38,0,B|84:292|84:292|160:268,1,90.0000034332277,2|2,0:0|0:0,0:0:0:0:
384,208,46328,22,0,P|416:176|408:288,1,279.999991455078,2|0,0:0|0:0,0:0:0:0:
400,360,47439,70,0,L|288:344,1,95.9999970703126,2|2,0:2|0:1,0:0:0:0:
240,380,47995,1,0,0:0:0:0:
180,344,48180,22,0,P|177:328|184:304,1,32,2|0,0:1|0:0,0:0:0:0:
240,272,48550,2,0,P|241:259|236:232,1,23.9999992675781,2|0,0:1|0:0,0:0:0:0:
204,204,48921,1,0,0:1:0:0:
300,96,49291,70,0,L|388:108,1,71.9999978027344,2|0,0:1|0:0,0:0:0:0:
328,160,49662,2,0,L|416:172,1,71.9999978027344,2|0,0:1|0:0,0:0:0:0:
456,208,50032,2,0,B|492:280|440:328|428:268,1,107.999996704102,2|0,0:0|0:0,0:0:0:0:
328,248,50402,22,0,P|304:240|244:252,1,80,0|0,1:0|0:0,0:0:0:0:
208,288,50958,1,0,0:0:0:0:
132,336,51143,54,0,B|84:236|196:236|112:124,1,180.000006866455,2|0,0:0|0:0,0:0:0:0:
52,200,51884,37,0,0:0:0:0:
212,120,52254,1,0,0:0:0:0:
276,176,52393,38,0,P|318:208|437:176,1,181.999994445801,2|0,0:0|0:0,0:0:0:0:
476,108,53180,1,0,0:0:0:0:
420,60,53365,54,0,L|316:72,1,95.9999970703126,2|0,0:2|0:0,0:0:0:0:
256,44,53921,1,0,0:0:0:0:
188,68,54106,2,0,L|112:60,1,47.9999985351563,2|0,0:1|0:0,0:0:0:0:
256,148,54662,1,0,0:0:0:0:
324,172,54847,2,0,L|400:164,1,47.9999985351563,2|0,0:1|0:0,0:0:0:0:
256,252,55402,1,0,0:0:0:0:
188,276,55587,2,0,L|112:268,1,47.9999985351563,2|0,3:1|0:0,0:0:0:0:
24,88,56328,2,0,P|70:104|128:68,1,95.9999970703126,0|0,1:0|0:0,0:0:0:0:
168,40,56884,1,0,0:0:0:0:
224,88,57069,38,0,B|279:77|279:77|324:92,1,90.0000034332277,2|2,0:0|0:0,0:0:0:0:
480,152,58180,70,0,P|504:196|376:232,1,223.999993164063,2|0,0:0|0:0,0:0:0:0:
160,68,59291,70,0,P|100:56|42:94,1,95.9999970703126,6|0,0:2|0:0,0:0:0:0:
24,124,59568,2,0,P|12:184|50:242,1,95.9999970703126,10|0,0:1|0:0,0:0:0:0:
64,276,59846,1,4,0:0:0:0:
160,204,60031,22,0,L|228:212,1,40,2|0,0:1|0:0,0:0:0:0:
228,264,60216,2,0,L|304:276,1,40,4|0,0:0|0:0,0:0:0:0:
300,240,60402,2,0,L|352:248,1,32,10|0,0:1|0:0,0:0:0:0:
344,264,60587,2,0,L|404:272,1,32,0|0,0:0|0:0,0:0:0:0:
396,260,60772,2,0,P|391:296|400:316,1,47.9999985351563,4|0,0:0|0:0,0:0:0:0:
484,164,61142,70,0,L|292:140,1,167.999994873047,2|0,0:1|0:0,0:0:0:0:
364,72,61513,2,0,L|172:48,1,167.999994873047,2|0,0:1|0:0,0:0:0:0:
100,4,61883,2,0,B|32:136|124:216|152:140,1,215.999993408203,10|0,0:0|0:0,0:0:0:0:
80,224,62253,22,0,P|125:234|172:212,1,80,4|0,1:2|0:0,0:0:0:0:
212,200,62531,2,0,P|250:189|288:200,1,80,8|0,0:0|0:0,0:0:0:0:
336,236,62809,1,4,0:0:0:0:
436,356,62994,70,0,B|400:268|484:292|432:176,1,160,2|8,0:0|0:0,0:0:0:0:
388,96,63550,21,0,0:0:0:0:
388,96,63642,1,0,0:0:0:0:
388,96,63735,2,0,L|284:112,1,80,4|0,0:0|0:0,0:0:0:0:
264,64,64013,2,0,L|164:76,1,80,8|0,0:0|0:0,0:0:0:0:
116,28,64290,38,0,P|72:16|100:136,1,223.999993164063,6|0,0:0|0:0,0:0:0:0:
136,240,64846,53,8,0:0:0:0:
336,8,65031,1,8,0:0:0:0:
448,96,65216,22,0,P|460:146|436:202,1,95.9999970703126,6|0,0:2|0:0,0:0:0:0:
392,236,65494,2,0,P|380:286|404:342,1,95.9999970703126,10|0,0:1|0:0,0:0:0:0:
444,380,65772,1,4,0:0:0:0:
312,320,65957,2,0,L|232:332,1,47.9999985351563,2|0,0:1|0:0,0:0:0:0:
68,276,66513,1,0,0:0:0:0:
200,216,66698,2,0,L|280:228,1,47.9999985351563,2|0,0:1|0:0,0:0:0:0:
444,144,67253,1,4,0:0:0:0:
312,84,67438,2,0,L|232:96,1,47.9999985351563,2|0,0:1|0:0,0:0:0:0:
92,44,67809,22,0,P|82:90|99:133,1,80,8|0,0:0|0:0,0:0:0:0:
115,141,68087,1,0,0:0:0:0:
140,160,68179,2,0,P|150:206|133:249,1,80,4|0,1:2|0:0,0:0:0:0:
108,288,68457,2,0,L|204:272,1,80,8|0,0:0|0:0,0:0:0:0:
236,312,68735,1,4,0:0:0:0:
248,224,68920,70,0,P|300:208|376:236,1,120.000004577637,2|8,0:0|0:0,0:0:0:0:
396,308,69476,2,0,P|452:325|509:308,1,120.000004577637,2|0,0:0|0:0,0:0:0:0:
456,148,70031,70,0,P|443:74|371:95,1,167.999994873047,2|0,0:0|0:0,0:0:0:0:
312,88,70402,38,0,L|320:156,1,40,0|0,0:0|0:0,0:0:0:0:
268,164,70587,2,0,L|276:232,1,40,0|0,0:0|0:0,0:0:0:0:
240,256,70772,1,8,0:0:0:0:
217,247,70865,1,8,0:0:0:0:
177,233,70957,1,8,0:0:0:0:
118,209,71050,1,8,0:0:0:0:
