osu file format v14

[General]
AudioFilename: audio.mp3
AudioLeadIn: 0
PreviewTime: 47254
Countdown: 1
SampleSet: Soft
StackLeniency: 0.7
Mode: 0
LetterboxInBreaks: 0
WidescreenStoryboard: 1

[Editor]
Bookmarks: 4988,5960,10775,13553,16840,17812,19479,21516,25405,27442,28692,29664,31516,32257,33368,34479,34849,35590,37442,40544,41516,42442,45220,46331,47442,49294,50035,51146,52396,53368,57072,58183,61146,61886,62997,64247,68923,70035
DistanceSpacing: 1.5
BeatDivisor: 1
GridSize: 32
TimelineZoom: 2.000001

[Metadata]
Title:Bayside
TitleUnicode:Bayside
Artist:nev & supbaby
ArtistUnicode:nev & 슈퍼꼬마
Creator:Veridian
Version:Hard
Source:Trickster Online
Tags:Ntreev Soft. Software OST BGM VGM Oops Wharf REVOLUTION Season 2 Two Korean Korea MMO RPG
BeatmapID:1535887
BeatmapSetID:727484

[Difficulty]
HPDrainRate:4
CircleSize:5
OverallDifficulty:4
ApproachRate:7
SliderMultiplier:1.7
SliderTickRate:1

[Events]
//Background and Video events
0,0,"Wallpaper01_large.jpg",0,0
//Break Periods
2,35788,44317
//Storyboard Layer 0 (Background)
//Storyboard Layer 1 (Fail)
//Storyboard Layer 2 (Pass)
//Storyboard Layer 3 (Foreground)
//Storyboard Sound Samples

[TimingPoints]
35,1481.48148148148,4,2,1,20,1,0
1516,-100,4,2,2,5,0,0
2257,-100,4,2,1,20,0,0
4479,-83.3333333333333,4,2,1,5,0,0
4942,-83.3333333333333,4,2,1,5,0,0
5034,-83.3333333333333,4,2,3,20,0,0
5868,-100,4,2,1,5,0,0
5960,-100,4,2,4,20,0,0
7442,-100,4,2,2,5,0,0
8183,-100,4,2,1,20,0,0
10405,-100,4,2,1,5,0,0
10775,-83.3333333333333,4,2,5,20,0,0
11794,-100,4,2,1,5,0,0
11886,740.740740740741,4,2,1,50,1,0
11886,-100,4,2,1,50,0,0
12626,-100,4,2,1,50,0,0
13552,-100,4,2,1,50,0,0
13645,-100,4,2,1,5,0,0
13737,-100,4,2,1,50,0,0
13830,-100,4,2,1,5,0,0
13923,-100,4,2,1,50,0,0
14015,-100,4,2,1,5,0,0
14108,-100,4,2,1,50,0,0
14848,-100,4,2,1,50,0,0
16700,-100,4,2,1,5,0,0
16839,-83.3333333333333,4,2,3,40,0,0
17395,-100,4,2,1,5,0,0
17441,-100,4,2,1,50,0,0
17811,-100,4,2,4,50,0,0
18506,-100,4,2,1,5,0,0
18552,-100,4,2,1,50,0,0
19478,-100,4,2,1,50,0,0
19571,-100,4,2,1,5,0,0
19663,-100,4,2,1,50,0,0
19756,-100,4,2,1,5,0,0
19849,-100,4,2,1,50,0,0
19941,-100,4,2,1,5,0,0
20034,-100,4,2,1,50,0,0
20774,-100,4,2,1,50,0,0
21515,-100,4,2,1,50,0,0
22997,-100,4,2,1,50,0,0
23737,370.37037037037,4,2,1,50,1,1
23737,-125,4,2,1,50,0,1
24199,-125,4,2,1,50,0,1
24292,-125,4,2,1,50,0,1
24755,-125,4,2,1,5,0,1
24848,-125,4,2,1,50,0,1
25311,-125,4,2,1,5,0,1
25403,-125,4,2,1,50,0,1
25496,-125,4,2,1,50,0,1
25588,-125,4,2,1,50,0,1
25681,-125,4,2,1,5,0,1
25774,-125,4,2,1,50,0,1
25866,-125,4,2,1,5,0,1
25959,-125,4,2,1,50,0,1
27394,-100,4,2,1,50,0,0
27440,-100,4,2,2,50,0,1
27718,-125,4,2,1,5,0,1
27811,-125,4,2,1,50,0,1
28088,-125,4,2,1,5,0,1
28181,-125,4,2,1,50,0,1
28690,-125,4,2,3,50,0,1
28737,-111.111111111111,4,2,3,50,0,1
29292,-125,4,2,1,50,0,1
29662,-125,4,2,4,50,0,1
29848,-125,4,2,1,5,0,1
29940,-125,4,2,1,50,0,1
30125,-125,4,2,1,5,0,1
30217,-125,4,2,1,50,0,1
30311,-125,4,2,1,5,0,1
30403,-125,4,2,1,50,0,1
30496,-125,4,2,1,5,0,1
30588,-125,4,2,1,50,0,1
30681,-125,4,2,1,5,0,1
30774,-125,4,2,1,50,0,1
30866,-125,4,2,1,5,0,1
30959,-125,4,2,1,50,0,1
31051,-125,4,2,1,5,0,1
31144,-125,4,2,1,50,0,1
31422,-125,4,2,1,50,0,1
31514,-100,4,2,1,60,0,1
31699,-125,4,2,1,60,0,1
31792,-125,4,2,1,5,0,1
31885,-100,4,2,1,60,0,1
32070,-125,4,2,1,60,0,1
32162,-125,4,2,1,5,0,1
32255,-100,4,2,1,100,0,1
32533,-125,4,2,1,5,0,1
32625,-125,4,2,1,50,0,1
33274,-125,4,2,1,5,0,1
33366,-125,4,2,1,50,0,1
34292,-125,4,2,1,5,0,1
34385,-125,4,2,1,50,0,1
34477,-125,4,2,5,50,0,1
34755,-125,4,2,1,5,0,1
34801,-125,4,2,1,50,0,0
34848,-100,4,2,2,50,0,1
35125,-125,4,2,1,5,0,1
35218,-125,4,2,1,50,0,1
35588,740.740740740741,4,2,4,50,1,0
37347,-100,4,2,1,50,0,0
37717,-100,4,2,1,5,0,0
37810,-100,4,2,1,50,0,0
37933,-100,4,2,1,5,0,0
38057,-100,4,2,1,50,0,0
38180,-100,4,2,1,5,0,0
38304,-100,4,2,1,50,0,0
38427,-100,4,2,1,5,0,0
38550,-100,4,2,1,50,0,0
38674,-100,4,2,1,5,0,0
38797,-100,4,2,1,50,0,0
38921,-100,4,2,1,5,0,0
39106,-100,4,2,1,50,0,0
39662,-100,4,2,1,5,0,0
40526,-100,4,2,3,50,0,0
41467,-100,4,2,1,5,0,0
41513,-100,4,2,4,30,0,0
42254,-100,4,2,1,40,0,0
42995,-100,4,2,1,5,0,0
43489,-100,4,2,1,40,0,0
43612,-100,4,2,1,5,0,0
43736,-100,4,2,1,40,0,0
43859,-100,4,2,1,5,0,0
43983,-100,4,2,1,40,0,0
44106,-100,4,2,1,5,0,0
44229,-100,4,2,1,40,0,0
44353,-100,4,2,1,5,0,0
44476,-100,4,2,1,40,0,0
45217,-100,4,2,1,50,0,0
46328,-100,4,2,5,50,0,0
46699,-100,4,2,1,50,0,0
47393,-100,4,2,1,5,0,0
47439,-100,4,2,4,50,0,0
48180,-100,4,2,1,50,0,0
48273,-100,4,2,1,5,0,0
48365,-100,4,2,1,50,0,0
48458,-100,4,2,1,5,0,0
48550,-100,4,2,1,50,0,0
48643,-100,4,2,1,5,0,0
48736,-100,4,2,1,50,0,0
48829,-100,4,2,1,5,0,0
48921,-100,4,2,1,50,0,0
49199,-100,4,2,1,5,0,0
49291,-100,4,2,1,60,0,0
49569,-100,4,2,1,5,0,0
49662,-100,4,2,1,60,0,0
49939,-100,4,2,1,5,0,0
50032,-100,4,2,1,100,0,0
50310,-100,4,2,1,5,0,0
50402,-100,4,2,1,50,0,0
51143,-83.3333333333333,4,2,2,50,0,1
52254,-100,4,2,2,50,0,1
52393,-100,4,2,3,50,0,0
53319,-100,4,2,1,5,0,0
53365,-100,4,2,4,50,0,0
54106,-100,4,2,4,50,0,0
57069,-100,4,2,1,50,0,0
58180,-100,4,2,5,50,0,0
59291,370.37037037037,4,2,1,50,1,1
59291,-125,4,2,1,50,0,1
59568,-125,4,2,1,50,0,1
59753,-125,4,2,1,5,0,1
59846,-125,4,2,1,50,0,1
59939,-125,4,2,1,5,0,1
60031,-125,4,2,1,50,0,1
60124,-125,4,2,1,5,0,1
60216,-125,4,2,1,50,0,1
60309,-125,4,2,1,5,0,1
60402,-125,4,2,1,50,0,1
60494,-125,4,2,1,5,0,1
60587,-125,4,2,1,50,0,1
60679,-125,4,2,1,5,0,1
60772,-125,4,2,1,50,0,1
61050,-125,4,2,1,50,0,1
61142,-100,4,2,1,60,0,1
61328,-100,4,2,1,60,0,1
61420,-100,4,2,1,5,0,1
61513,-100,4,2,1,60,0,1
61698,-100,4,2,1,60,0,1
61791,-100,4,2,1,5,0,1
61883,-100,4,2,1,100,0,1
62161,-125,4,2,1,100,0,1
62207,-125,4,2,1,5,0,1
62253,-125,4,2,1,50,0,1
62902,-125,4,2,1,5,0,1
62948,-125,4,2,2,50,0,0
62994,-100,4,2,2,50,0,1
62996,-100,4,2,1,50,0,1
63365,-125,4,2,1,50,0,1
63735,-125,4,2,1,50,0,1
64291,-125,4,2,3,50,0,1
64777,-125,4,2,1,5,0,1
64846,-125,4,2,1,50,0,1
65216,-125,4,2,4,50,0,1
65494,-125,4,2,1,50,0,1
68179,-125,4,2,1,50,0,1
68828,-125,4,2,1,5,0,1
68920,-125,4,2,1,50,0,1
70031,-125,4,2,5,50,0,1
70309,-125,4,2,1,5,0,1
70402,-125,4,2,1,50,0,1
70772,-125,4,2,1,50,0,1
71096,-125,4,2,1,50,0,0

[Colours]
Combo1 : 164,255,255
Combo2 : 94,65,109
Combo3 : 239,146,232
Combo4 : 241,88,100
Combo5 : 255,224,102
SliderTrackOverride : 255,255,255
SliderBorder : 107,89,79

[HitObjects]
72,36,35,6,0,P|44:88|172:84,1,255,0|0,1:0|3:0,0:0:0:0:
272,48,2997,2,0,B|312:136|240:136|276:216,1,170,0|0,1:0|0:0,0:0:0:0:
243,284,5034,54,0,P|281:291|309:282,1,63.7499980545045,2|0,0:0|0:0,0:0:0:0:
344,364,5960,22,0,L|380:92,1,255,2|0,0:2|3:0,0:0:0:0:
428,12,8923,2,0,B|340:-28|340:44|260:8,1,170,0|0,1:0|0:0,0:0:0:0:
200,52,10775,38,0,P|152:48|131:57,1,63.7499980545045,2|0,0:0|0:0,0:0:0:0:
52,228,11886,38,0,L|204:216,1,127.5,2|0,0:2|0:0,0:0:0:0:
228,260,12626,1,0,0:0:0:0:
400,72,13367,1,0,0:0:0:0:
452,108,13552,2,0,P|455:133|426:180,1,42.5,2|2,0:0|0:0,0:0:0:0:
400,188,13923,1,2,0:0:0:0:
192,336,14663,1,0,0:0:0:0:
148,292,14848,6,0,P|129:243|156:164,1,127.5,0|0,1:0|0:0,0:0:0:0:
196,128,15589,2,0,L|180:52,2,42.5,0|0|0,0:0|0:0|0:0,0:0:0:0:
316,172,16330,2,0,L|340:288,1,85,0|0,0:0|0:0,0:0:0:0:
304,292,16839,6,0,B|392:264|384:332|464:296,1,165.749994941712,2|0,0:0|3:0,0:0:0:0:
504,176,17811,6,0,L|472:28,1,127.5,2|0,0:2|0:0,0:0:0:0:
424,104,18552,2,0,L|442:183,2,42.5,0|0|0,0:0|0:0|0:0,0:0:0:0:
328,20,19293,1,0,0:0:0:0:
280,60,19478,2,0,P|248:64|224:52,1,42.5,2|2,0:0|0:0,0:0:0:0:
192,20,19848,1,2,0:0:0:0:
40,224,20589,1,0,0:0:0:0:
80,176,20774,6,0,P|131:155|216:196,1,127.5,0|0,1:0|0:0,0:0:0:0:
252,144,21515,2,0,L|360:136,1,85,2|0,0:0|0:0,0:0:0:0:
384,180,22071,2,0,L|492:172,1,85,2|0,0:0|0:0,0:0:0:0:
508,224,22626,2,0,B|511:249|511:249|501:283,1,42.5,0|0,0:0|0:0,0:0:0:0:
468,316,22997,1,0,0:0:0:0:
352,260,23367,1,0,0:0:0:0:
176,364,23737,6,0,P|162:312|193:247,1,102,4|8,1:0|0:0,0:0:0:0:
264,212,24199,1,4,0:0:0:0:
240,168,24292,2,0,P|173:148|104:177,1,136,4|4,0:0|0:0,0:0:0:0:
28,108,24848,1,8,0:0:0:0:
112,52,25033,6,0,L|208:64,1,68,0|4,0:0|0:0,0:0:0:0:
268,8,25403,2,0,L|335:16,2,68,2|2|6,0:0|0:0|0:0,0:0:0:0:
276,112,25959,2,0,L|375:125,1,68,4|0,0:0|0:0,0:0:0:0:
432,72,26329,1,8,0:0:0:0:
424,172,26514,1,0,0:0:0:0:
424,172,26607,1,0,0:0:0:0:
424,172,26699,22,0,P|436:216|412:280,1,102,4|8,1:0|0:0,0:0:0:0:
348,340,27162,1,0,0:0:0:0:
348,340,27255,1,4,0:0:0:0:
272,240,27440,54,0,B|192:204|196:280|104:236,1,170,2|8,0:0|0:0,0:0:0:0:
28,176,27996,21,0,0:0:0:0:
108,116,28181,2,0,L|212:128,1,102,4|8,0:0|0:0,0:0:0:0:
320,64,28690,2,0,P|348:36|384:112,1,153,2|4,0:0|0:0,0:0:0:0:
316,172,29292,1,8,0:0:0:0:
432,264,29477,1,8,0:0:0:0:
320,312,29662,6,0,L|244:300,1,68,6|0,0:2|0:0,0:0:0:0:
208,324,29940,2,0,L|136:312,1,68,10|0,0:1|0:0,0:0:0:0:
100,344,30218,1,0,0:1:0:0:
40,260,30403,1,2,0:1:0:0:
40,260,30588,1,4,0:0:0:0:
96,176,30774,1,10,0:1:0:0:
96,176,30959,1,0,0:0:0:0:
48,88,31144,2,0,P|84:75|152:93,1,102,4|8,0:0|0:0,0:0:0:0:
184,124,31514,22,0,L|280:104,1,85,2|0,0:1|0:0,0:0:0:0:
252,216,31885,2,0,L|364:236,1,85,2|0,0:1|0:0,0:0:0:0:
356,108,32255,2,0,L|488:76,1,127.5,10|0,0:1|0:0,0:0:0:0:
504,104,32625,54,0,P|517:150|496:208,1,102,4|8,1:0|0:0,0:0:0:0:
444,284,33088,1,0,0:0:0:0:
444,284,33181,1,4,0:0:0:0:
364,220,33366,2,0,P|328:204|224:232,1,136,2|8,0:0|0:0,0:0:0:0:
140,192,33922,2,0,P|76:212|12:193,1,136,2|0,0:0|0:0,0:0:0:0:
76,116,34477,2,0,P|60:92|112:60,1,102,2|0,0:0|0:0,0:0:0:0:
152,84,34848,6,0,B|228:112|228:40|324:80,1,170,2|8,0:0|0:0,0:0:0:0:
324,98,35311,1,8,0:0:0:0:
316,114,35403,1,8,0:0:0:0:
308,130,35496,1,8,0:0:0:0:
300,146,35588,1,6,0:2:0:0:
380,156,45217,6,0,L|516:140,2,127.5,2|2|2,0:0|0:0|0:0,0:0:0:0:
288,64,46699,1,0,0:0:0:0:
212,168,47069,1,0,0:0:0:0:
124,76,47439,6,0,P|88:64|31:87,1,85,2|2,0:2|0:1,0:0:0:0:
84,128,47995,1,0,0:0:0:0:
44,176,48180,2,0,P|41:207|53:235,1,42.5,2|0,0:1|0:0,0:0:0:0:
88,264,48550,2,0,P|91:295|79:323,1,42.5,2|0,0:1|0:0,0:0:0:0:
44,352,48921,1,0,0:1:0:0:
168,328,49291,2,0,P|176:296|164:236,1,85,2|2,0:1|0:1,0:0:0:0:
84,148,50032,1,2,0:0:0:0:
192,80,50402,6,0,L|296:96,1,85,0|0,1:0|0:0,0:0:0:0:
332,64,50958,1,0,0:0:0:0:
394,20,51143,22,0,B|418:56|414:104|378:128|358:164|398:220,1,203.999993774414,2|0,0:0|0:0,0:0:0:0:
508,298,52254,53,0,0:0:0:0:
452,340,52393,2,0,P|432:328|320:348,1,138.125,2|0,0:0|0:0,0:0:0:0:
244,244,53365,22,0,L|136:256,1,85,2|0,0:2|0:0,0:0:0:0:
112,212,53921,1,0,0:0:0:0:
68,168,54106,1,2,0:1:0:0:
260,156,54662,1,0,0:0:0:0:
216,112,54847,1,2,0:1:0:0:
408,92,55402,1,0,0:0:0:0:
364,48,55587,1,2,3:1:0:0:
496,188,56143,1,0,0:0:0:0:
460,240,56328,6,0,P|404:248|352:224,1,85,0|0,1:0|0:0,0:0:0:0:
300,140,57069,2,0,P|232:124|156:156,1,127.5,2|2,0:0|0:0,0:0:0:0:
76,304,58180,2,0,P|124:328|256:280,1,170,2|0,0:0|0:0,0:0:0:0:
428,360,59291,6,0,L|440:264,1,68,6|0,0:2|0:0,0:0:0:0:
412,248,59568,2,0,L|424:152,1,68,10|0,0:1|0:0,0:0:0:0:
456,144,59846,1,4,0:0:0:0:
384,72,60031,1,2,0:1:0:0:
384,72,60216,1,4,0:0:0:0:
300,172,60402,1,10,0:1:0:0:
300,172,60587,1,0,0:0:0:0:
240,92,60772,2,0,P|196:80|133:100,1,102,4|8,0:0|0:0,0:0:0:0:
112,128,61142,22,0,L|12:120,1,85,2|4,0:0|0:0,0:0:0:0:
84,228,61513,2,0,L|208:240,1,85,2|4,0:1|0:0,0:0:0:0:
240,340,61883,2,0,L|100:326,1,127.5,10|0,0:0|0:0,0:0:0:0:
68,348,62253,54,0,P|28:356|24:292,1,102,4|8,1:2|0:0,0:0:0:0:
72,224,62716,1,0,0:0:0:0:
72,224,62809,1,4,0:0:0:0:
24,108,62994,6,0,B|108:64|108:144|196:100,1,170,2|8,0:0|0:0,0:0:0:0:
320,28,63642,5,0,0:0:0:0:
360,60,63735,2,0,L|344:192,1,102,4|8,0:0|0:0,0:0:0:0:
428,292,64290,1,6,0:0:0:0:
340,344,64476,2,0,P|306:351|256:331,1,68,0|0,0:0|0:0,0:0:0:0:
188,288,64846,1,8,0:0:0:0:
272,232,65031,1,8,0:0:0:0:
188,176,65216,6,0,P|178:145|199:99,1,68,6|0,0:2|0:0,0:0:0:0:
216,68,65494,2,0,L|308:80,1,68,10|0,0:1|0:0,0:0:0:0:
324,44,65772,1,4,0:0:0:0:
404,108,65957,2,0,B|412:140|412:140|398:189,1,68,2|0,0:1|0:0,0:0:0:0:
264,328,66513,1,0,0:0:0:0:
184,264,66698,2,0,B|176:232|176:232|190:180,1,68,2|0,0:1|0:0,0:0:0:0:
360,92,67253,1,4,0:0:0:0:
440,156,67438,2,0,B|448:188|448:188|434:240,1,68,2|0,0:1|0:0,0:0:0:0:
484,312,67809,2,0,L|352:296,1,102,8|0,0:0|0:0,0:0:0:0:
344,332,68179,6,0,P|291:347|241:326,1,102,4|8,1:2|0:0,0:0:0:0:
184,268,68642,1,0,0:0:0:0:
184,268,68735,1,4,0:0:0:0:
120,188,68920,2,0,P|168:164|260:208,1,136,2|8,0:0|0:0,0:0:0:0:
328,244,69476,2,0,P|376:268|468:224,1,136,2|0,0:0|0:0,0:0:0:0:
508,160,70031,2,0,L|496:72,1,68,2|4,0:0|0:0,0:0:0:0:
412,144,70402,2,0,L|400:56,1,68,0|0,0:0|0:0,0:0:0:0:
320,16,70772,5,8,0:0:0:0:
268,12,70865,1,8,0:0:0:0:
228,44,70957,1,8,0:0:0:0:
224,96,71050,1,8,0:0:0:0:
