osu file format v14

[General]
AudioFilename: audio.mp3
AudioLeadIn: 0
PreviewTime: 47254
Countdown: 1
SampleSet: Soft
StackLeniency: 0.7
Mode: 0
LetterboxInBreaks: 0
WidescreenStoryboard: 0

[Editor]
Bookmarks: 4988,5960,10775,11886,13553,16840,17812,19479,21516,25405,27442,28692,29664,31516,32257,33368,34479,34849,35590,37442,40544,41516,42442,45220,46331,47442,49294,50035,51146,52396,53368,57072,58183,61146,61886,62997,64247,68923,70035
DistanceSpacing: 1.4
BeatDivisor: 1
GridSize: 32
TimelineZoom: 3.799999

[Metadata]
Title:Bayside
TitleUnicode:Bayside
Artist:nev & supbaby
ArtistUnicode:nev & 슈퍼꼬마
Creator:Veridian
Version:Extreme
Source:Trickster Online
Tags:Ntreev Soft. Software OST BGM VGM Oops Wharf REVOLUTION Season 2 Two Korean Korea MMO RPG
BeatmapID:1535886
BeatmapSetID:727484

[Difficulty]
HPDrainRate:5
CircleSize:7
OverallDifficulty:5
ApproachRate:8.2
SliderMultiplier:1.8
SliderTickRate:1

[Events]
//Background and Video events
0,0,"Wallpaper01_large.jpg",0,0
//Break Periods
//Storyboard Layer 0 (Background)
//Storyboard Layer 1 (Fail)
//Storyboard Layer 2 (Pass)
//Storyboard Layer 3 (Foreground)
//Storyboard Sound Samples

[TimingPoints]
35,1481.48148148148,4,2,1,20,1,0
1516,-100,4,2,2,5,0,0
2257,-100,4,2,1,20,0,0
4479,-100,4,2,1,5,0,0
5034,-50,4,2,3,20,0,0
5868,-50,4,2,1,5,0,0
5960,-100,4,2,4,20,0,0
7442,-100,4,2,2,5,0,0
8183,-100,4,2,1,20,0,0
10405,-100,4,2,1,5,0,0
10775,-50,4,2,5,20,0,0
11794,-50,4,2,1,5,0,0
11886,740.740740740741,4,2,4,50,1,0
11886,-200,4,2,4,50,0,0
12626,-100,4,2,1,50,0,0
13552,-90.9090909090909,4,2,1,50,0,0
13645,-90.9090909090909,4,2,1,5,0,0
13737,-76.9230769230769,4,2,1,50,0,0
13830,-90.9090909090909,4,2,1,5,0,0
13923,-66.6666666666667,4,2,1,50,0,0
14015,-66.6666666666667,4,2,1,5,0,0
14108,-100,4,2,1,100,0,0
14293,-100,4,2,1,50,0,0
14663,-100,4,2,1,5,0,0
14848,-100,4,2,1,50,0,0
16700,-100,4,2,1,5,0,0
16839,-71.4285714285714,4,2,3,40,0,0
17302,-71.4285714285714,4,2,1,5,0,0
17348,-100,4,2,1,50,0,0
17811,-200,4,2,4,50,0,0
18506,-200,4,2,1,5,0,0
18552,-100,4,2,1,50,0,0
19478,-90.9090909090909,4,2,1,50,0,0
19571,-90.9090909090909,4,2,1,5,0,0
19663,-76.9230769230769,4,2,1,50,0,0
19756,-76.9230769230769,4,2,1,5,0,0
19849,-66.6666666666667,4,2,1,50,0,0
19941,-66.6666666666667,4,2,1,5,0,0
20034,-100,4,2,1,50,0,0
20589,-100,4,2,1,5,0,0
20774,-100,4,2,1,50,0,0
21515,-133.333333333333,4,2,1,50,0,0
22997,-100,4,2,1,50,0,0
23737,370.37037037037,4,2,1,50,1,1
24199,-100,4,2,1,5,0,1
24292,-100,4,2,1,50,0,1
24755,-100,4,2,1,5,0,1
24848,-100,4,2,1,50,0,1
25311,-100,4,2,1,5,0,1
25403,-90.9090909090909,4,2,1,50,0,1
25496,-90.9090909090909,4,2,1,50,0,1
25588,-76.9230769230769,4,2,1,50,0,1
25681,-90.9090909090909,4,2,1,5,0,1
25774,-66.6666666666667,4,2,1,50,0,1
25866,-90.9090909090909,4,2,1,5,0,1
25959,-100,4,2,1,50,0,1
27394,-100,4,2,1,50,0,0
27440,-100,4,2,2,50,0,1
27718,-66.6666666666667,4,2,1,5,0,1
27811,-100,4,2,1,50,0,1
28088,-100,4,2,1,5,0,1
28181,-100,4,2,1,50,0,1
28737,-71.4285714285714,4,2,3,50,0,1
29292,-100,4,2,1,50,0,1
29662,-83.3333333333333,4,2,4,50,0,1
29848,-83.3333333333333,4,2,1,5,0,1
29940,-83.3333333333333,4,2,1,50,0,1
30125,-83.3333333333333,4,2,1,5,0,1
30217,-83.3333333333333,4,2,1,50,0,1
30311,-83.3333333333333,4,2,1,5,0,1
30403,-100,4,2,1,50,0,1
30496,-100,4,2,1,5,0,1
30588,-100,4,2,1,50,0,1
30681,-100,4,2,1,5,0,1
30774,-125,4,2,1,50,0,1
30866,-125,4,2,1,5,0,1
30959,-125,4,2,1,50,0,1
31051,-125,4,2,1,5,0,1
31144,-166.666666666667,4,2,1,50,0,1
31422,-166.666666666667,4,2,1,50,0,1
31514,-71.4285714285714,4,2,1,60,0,1
31792,-71.4285714285714,4,2,1,5,0,1
31885,-71.4285714285714,4,2,1,60,0,1
32162,-71.4285714285714,4,2,1,5,0,1
32255,-55.5555555555556,4,2,1,100,0,1
32533,-55.5555555555556,4,2,1,5,0,1
32625,-100,4,2,1,50,0,1
33274,-100,4,2,1,5,0,1
33366,-133.333333333333,4,2,1,50,0,1
34292,-133.333333333333,4,2,1,5,0,1
34385,-133.333333333333,4,2,1,50,0,1
34477,-71.4285714285714,4,2,5,50,0,1
34755,-71.4285714285714,4,2,1,5,0,1
34801,-100,4,2,1,50,0,0
34848,-100,4,2,2,50,0,1
35125,-66.6666666666667,4,2,1,5,0,1
35218,-66.6666666666667,4,2,1,50,0,1
35588,740.740740740741,4,2,1,50,1,0
37069,-100,4,2,1,5,0,0
37254,-100,4,2,1,50,0,0
37439,-100,4,2,1,5,0,0
37563,-100,4,2,1,50,0,0
37748,-100,4,2,1,5,0,0
37810,-111.111111111111,4,2,1,50,0,0
37933,-111.111111111111,4,2,1,5,0,0
38057,-125,4,2,1,50,0,0
38180,-111.111111111111,4,2,1,5,0,0
38304,-142.857142857143,4,2,1,50,0,0
38427,-111.111111111111,4,2,1,5,0,0
38550,-166.666666666667,4,2,1,50,0,0
38674,-111.111111111111,4,2,1,5,0,0
38797,-200,4,2,1,50,0,0
38921,-111.111111111111,4,2,1,5,0,0
39106,-200,4,2,1,50,0,0
39662,-111.111111111111,4,2,1,5,0,0
40526,-71.4285714285714,4,2,3,50,0,0
41467,-71.4285714285714,4,2,1,5,0,0
41513,-200,4,2,4,30,0,0
42254,-100,4,2,1,40,0,0
42995,-100,4,2,1,5,0,0
43427,-111.111111111111,4,2,1,40,0,0
43550,-111.111111111111,4,2,1,5,0,0
43674,-125,4,2,1,40,0,0
43859,-111.111111111111,4,2,1,5,0,0
43967,-142.857142857143,4,2,1,40,0,0
44106,-111.111111111111,4,2,1,5,0,0
44229,-125,4,2,1,40,0,0
44353,-111.111111111111,4,2,1,5,0,0
44476,-100,4,2,1,40,0,0
45217,-133.333333333333,4,2,1,50,0,0
46328,-71.4285714285714,4,2,5,50,0,0
46699,-100,4,2,1,50,0,0
47393,-100,4,2,1,5,0,0
47439,-83.3333333333333,4,2,4,50,0,0
48180,-125,4,2,1,50,0,0
48273,-125,4,2,1,5,0,0
48365,-125,4,2,1,50,0,0
48458,-125,4,2,1,5,0,0
48550,-166.666666666667,4,2,1,50,0,0
48643,-166.666666666667,4,2,1,5,0,0
48736,-166.666666666667,4,2,1,50,0,0
48829,-166.666666666667,4,2,1,5,0,0
48921,-200,4,2,1,50,0,0
49199,-200,4,2,1,5,0,0
49291,-83.3333333333333,4,2,1,60,0,0
49569,-83.3333333333333,4,2,1,5,0,0
49662,-83.3333333333333,4,2,1,60,0,0
49939,-83.3333333333333,4,2,1,5,0,0
50032,-55.5555555555556,4,2,1,100,0,0
50310,-55.5555555555556,4,2,1,5,0,0
50402,-100,4,2,1,50,0,0
51143,-100,4,2,2,50,0,1
52393,-71.4285714285714,4,2,3,50,0,0
53319,-71.4285714285714,4,2,1,5,0,0
53365,-83.3333333333333,4,2,4,50,0,0
57069,-133.333333333333,4,2,1,50,0,0
58180,-71.4285714285714,4,2,5,50,0,0
59291,370.37037037037,4,2,4,50,1,1
59291,-83.3333333333333,4,2,4,50,0,1
59568,-83.3333333333333,4,2,1,50,0,1
59753,-83.3333333333333,4,2,1,5,0,1
59846,-83.3333333333333,4,2,1,50,0,1
59939,-83.3333333333333,4,2,1,5,0,1
60031,-100,4,2,1,50,0,1
60124,-100,4,2,1,5,0,1
60216,-100,4,2,1,50,0,1
60309,-100,4,2,1,5,0,1
60402,-125,4,2,1,50,0,1
60494,-125,4,2,1,5,0,1
60587,-125,4,2,1,50,0,1
60679,-125,4,2,1,5,0,1
60772,-166.666666666667,4,2,1,50,0,1
61050,-166.666666666667,4,2,1,50,0,1
61142,-71.4285714285714,4,2,1,60,0,1
61420,-71.4285714285714,4,2,1,5,0,1
61513,-71.4285714285714,4,2,1,60,0,1
61791,-71.4285714285714,4,2,1,5,0,1
61883,-55.5555555555556,4,2,1,100,0,1
62207,-55.5555555555556,4,2,1,5,0,1
62253,-100,4,2,1,50,0,1
62902,-100,4,2,1,5,0,1
62948,-100,4,2,2,50,0,0
62994,-100,4,2,1,50,0,1
63272,-100,4,2,1,5,0,1
63365,-100,4,2,1,50,0,1
63735,-100,4,2,1,50,0,1
64291,-71.4285714285714,4,2,3,50,0,1
64777,-71.4285714285714,4,2,1,5,0,1
64846,-100,4,2,1,50,0,1
65216,-83.3333333333333,4,2,4,50,0,1
65494,-83.3333333333333,4,2,1,50,0,1
68179,-100,4,2,1,50,0,1
68828,-100,4,2,1,5,0,1
68920,-133.333333333333,4,2,1,50,0,1
70031,-71.4285714285714,4,2,5,50,0,1
70309,-71.4285714285714,4,2,1,5,0,1
70402,-71.4285714285714,4,2,1,50,0,1
70772,-100,4,2,1,50,0,1
71096,-100,4,2,1,50,0,0

[Colours]
Combo1 : 67,254,203
Combo2 : 94,65,109
Combo3 : 239,146,232
Combo4 : 241,88,100
Combo5 : 255,224,102
Combo6 : 187,255,240
SliderTrackOverride : 255,255,255
SliderBorder : 107,89,79

[HitObjects]
128,112,35,6,0,B|256:160|256:60|390:112,1,270,0|0,1:0|3:0,0:0:0:0:
352,264,2997,2,0,B|268:296|268:228|176:264,1,180,0|0,1:0|0:0,0:0:0:0:
104,320,5034,54,0,P|92:336|48:248,1,202.5,2|0,0:0|0:0,0:0:0:0:
43,249,5960,38,0,B|171:201|171:301|305:249,1,270,2|0,0:2|3:0,0:0:0:0:
412,136,8923,2,0,B|328:168|328:100|236:136,1,180,0|0,1:0|0:0,0:0:0:0:
140,184,10775,38,0,P|128:200|100:100,1,247.5,2|0,0:0|0:0,0:0:0:0:
86,98,11886,6,0,P|112:92|48:44,1,180,2|0,0:2|0:0,0:0:0:0:
16,92,13552,70,0,L|24:136,1,24.7500007553101,2|0,0:0|0:0,0:0:0:0:
88,152,13737,2,0,L|100:208,1,29.2499986610413,2|0,0:0|0:0,0:0:0:0:
24,252,13923,2,0,L|36:312,1,33.7500012874604,2|0,0:0|0:0,0:0:0:0:
120,340,14108,1,0,3:0:0:0:
180,288,14293,54,0,P|220:276|276:296,1,90
164,172,14848,2,0,P|200:192|292:168,1,135,0|0,1:0|0:0,0:0:0:0:
360,92,15589,1,0,0:0:0:0:
408,132,15774,2,0,L|384:236,1,90
348,368,16330,1,0,0:0:0:0:
316,320,16515,2,0,L|328:268,1,45
244,184,16839,22,0,P|224:176|284:128,1,157.499995193482,2|0,0:0|0:0,0:0:0:0:
291,133,17348,70,0,P|325:146|357:130,1,67.5,0|0,3:0|3:0,0:0:0:0:
470,214,17811,22,0,P|430:201|392:214,1,84.375,2|0,0:2|0:0,0:0:0:0:
391,214,18552,21,0,0:0:0:0:
340,276,18737,2,0,L|220:264,1,90
192,320,19293,1,0,0:0:0:0:
148,240,19478,38,0,L|142:206,1,24.7500007553101,2|0,0:0|0:0,0:0:0:0:
208,156,19663,2,0,L|200:112,1,29.2499986610413,2|0,0:0|0:0,0:0:0:0:
84,104,19848,2,0,L|75:57,1,29.2499986610413,2|0,0:0|0:0,0:0:0:0:
172,4,20034,53,0,3:0:0:0:
244,56,20219,2,0,P|288:68|336:52,1,90
228,184,20774,2,0,P|289:162|356:187,1,135,0|0,1:0|0:0,0:0:0:0:
404,240,21515,38,0,B|444:237|444:237|461:249|461:249|508:246,2,101.250003862381,2|2|0,0:0|0:0|0:0,0:0:0:0:
352,296,22811,53,0,0:0:0:0:
256,200,22997,1,0,0:0:0:0:
256,200,23367,1,0,0:0:0:0:
256,200,23737,38,0,L|261:240,3,30,4|4|4|4,1:0|0:0|0:0|0:0,0:0:0:0:
212,152,24014,2,0,P|256:139|300:154,1,90,8|0,0:0|0:0,0:0:0:0:
340,192,24292,2,0,L|324:296,1,90,4|0,0:0|0:0,0:0:0:0:
352,333,24570,1,0,0:0:0:0:
410,320,24662,2,0,P|435:316|460:294,1,45,4|0,0:0|0:0,0:0:0:0:
504,228,24848,2,0,P|516:185|503:143,1,90,8|0,0:0|0:0,0:0:0:0:
461,101,25125,1,0,0:0:0:0:
403,112,25218,2,0,L|331:108,1,45,4|0,0:0|0:0,0:0:0:0:
294,131,25403,54,0,P|289:107|305:69,1,49.5000015106202,2|8,0:0|0:0,0:0:0:0:
194,115,25588,2,0,P|173:135|145:143,1,58.4999973220826,2|0,0:0|0:0,0:0:0:0:
230,207,25774,2,0,P|262:216|286:239,1,67.5000025749208,6|0,0:0|0:0,0:0:0:0:
236,344,25959,37,4,0:0:0:0:
180,324,26051,1,0,0:0:0:0:
224,284,26143,1,4,0:0:0:0:
338,281,26329,2,0,P|354:249|312:183,1,90,8|0,0:0|0:0,0:0:0:0:
298,157,26607,1,0,0:0:0:0:
338,117,26699,2,0,L|374:109,3,30,4|4|4|4,1:0|0:0|0:0|0:0,0:0:0:0:
384,49,26977,2,0,L|258:78,1,90,8|0,0:0|0:0,0:0:0:0:
236,84,27255,1,4,0:0:0:0:
99,212,27440,38,0,B|125:198|125:198|150:202|150:202|172:191|172:191|197:195|197:195|224:182,1,135,2|0,0:0|0:0,0:0:0:0:
276,208,27811,54,0,P|300:268|260:344,1,135,8|0,0:0|0:0,0:0:0:0:
228,364,28181,2,0,L|112:340,1,90,4|0,0:0|0:0,0:0:0:0:
84,360,28459,2,0,P|56:328|68:284,1,90,8|0,0:0|0:0,0:0:0:0:
24,244,28736,22,0,B|104:196|104:284|200:240,1,180,6|4,0:0|0:0,0:0:0:0:
220,80,29292,69,8,0:0:0:0:
336,332,29477,1,8,0:0:0:0:
437,239,29662,6,0,P|455:192|425:127,1,107.999996704102,6|0,0:2|0:0,0:0:0:0:
393,87,29940,2,0,P|346:69|281:99,1,107.999996704102,10|0,0:1|0:0,0:0:0:0:
245,139,30218,2,0,P|217:144|165:118,1,53.9999983520508,0|0,0:1|0:0,0:0:0:0:
56,68,30403,6,0,L|64:132,1,45,2|0,0:1|0:0,0:0:0:0:
124,152,30588,2,0,L|116:216,1,45,4|0,0:0|0:0,0:0:0:0:
64,224,30774,2,0,L|72:280,1,36,10|0,0:1|0:0,0:0:0:0:
108,288,30959,2,0,L|100:336,1,36
88,344,31144,2,0,P|124:333|181:357,1,80.9999975280763,4|8,0:0|0:0,0:0:0:0:
192,284,31514,70,0,L|432:324,1,188.999994232178,2|0,0:1|0:0,0:0:0:0:
240,224,31885,2,0,L|480:264,1,188.999994232178,2|0,0:1|0:0,0:0:0:0:
480,336,32255,2,0,B|436:244|428:120|504:92|552:164,1,242.999992584229,10|0,0:1|0:0,0:0:0:0:
424,88,32625,22,0,P|376:100|323:77,1,90,4|0,1:0|0:0,0:0:0:0:
292,52,32903,2,0,P|244:40|191:63,1,90,8|0,0:0|0:0,0:0:0:0:
160,88,33181,2,0,L|88:76,1,45,4|0,0:0|0:0,0:0:0:0:
40,140,33366,70,0,P|24:184|80:152,1,135.000005149842,2|8,0:0|0:0,0:0:0:0:
240,232,33922,2,0,P|256:276|200:244,1,135.000005149842,2|0,0:0|0:0,0:0:0:0:
188,212,34385,1,8,0:0:0:0:
224,168,34477,70,0,P|312:196|424:148,1,188.999994232178,2|0,0:0|0:0,0:0:0:0:
484,76,34848,6,0,B|470:102|470:102|474:127|474:127|463:149|463:149|467:174|467:174|454:201,1,135,2|0,0:0|0:0,0:0:0:0:
468,272,35218,21,8,0:0:0:0:
408,256,35311,1,8,0:0:0:0:
331,329,35403,1,8,0:0:0:0:
271,345,35496,1,8,0:0:0:0:
187,261,35588,1,6,0:2:0:0:
42,242,36328,6,0,P|87:168|173:164,1,180,0|0,3:0|0:0,0:0:0:0:
198,327,37254,2,0,P|171:343|130:343,1,45,0|0,3:0|0:0,0:0:0:0:
148,267,37563,2,0,P|126:242|122:226,1,45,0|0,3:0|0:0,0:0:0:0:
192,208,37810,38,0,P|196:180|208:168,1,26.9999991760254,0|0,3:0|3:0,3:0:0:0:
256,204,38057,2,0,P|268:196|292:200,1,24,0|0,3:0|3:0,3:0:0:0:
284,256,38304,2,0,P|296:260|308:276,1,20.9999993591309,0|0,3:0|3:0,0:0:0:0:
268,308,38550,2,0,P|272:324|264:332,1,17.9999994506836,0|0,1:0|0:0,3:0:0:0:
220,328,38797,2,0,P|216:340|212:344,1,15,0|0,3:0|0:0,3:0:0:0:
176,313,39106,2,0,P|124:330|68:310,1,112.5,0|0,3:0|3:0,0:0:0:0:
63,87,40541,70,0,P|71:63|119:163,1,314.999990386963,2|0,0:0|0:0,0:0:0:0:
126,164,41513,6,0,P|103:175|103:215,1,67.5,2|0,0:2|0:0,0:0:0:0:
140,260,42254,54,0,L|332:244,1,180,0|0,3:0|0:0,0:0:0:0:
324,84,43427,2,0,L|328:128,1,26.9999991760254,0|0,3:0|0:0,3:0:0:0:
384,128,43674,2,0,L|387:172,1,36,0|0,3:0|0:0,3:0:0:0:
296,184,43967,2,0,L|299:211,1,23.6249992790222,0|0,3:0|0:0,3:0:0:0:
364,236,44229,2,0,L|368:276,1,24,0|0,3:0|0:0,3:0:0:0:
332,328,44476,2,0,P|375:316|435:342,1,90,0|0,1:0|0:0,3:0:0:0:
280,372,45032,1,0,0:0:0:0:
232,328,45217,22,0,B|192:324|192:324|176:340|176:340|120:332,1,101.250003862381,2|2,0:0|0:0,0:0:0:0:
120,340,46328,70,0,P|88:320|224:284,1,362.249988945008,2|0,0:0|0:0,0:0:0:0:
224,284,47439,22,0,L|316:276,1,53.9999983520508,2|0,0:2|0:0,0:0:0:0:
324,308,47717,1,0,0:0:0:0:
320,320,47810,1,2,0:1:0:0:
372,252,47995,1,0,0:0:0:0:
429,324,48180,70,0,L|419:292,1,18,2|0,0:1|0:0,0:0:0:0:
492,264,48365,2,0,L|484:232,1,18
416,212,48550,2,0,L|408:188,1,13.4999995880127,2|0,0:1|0:0,0:0:0:0:
436,152,48736,2,0,L|428:132,1,13.4999995880127
404,128,48921,2,0,L|392:92,1,33.75,0|0,0:1|0:0,0:0:0:0:
408,40,49291,70,0,L|308:28,1,80.9999975280763,2|0,0:1|0:0,0:0:0:0:
328,120,49662,2,0,L|228:108,1,80.9999975280763,2|0,0:1|0:0,0:0:0:0:
152,56,50032,2,0,B|180:116|164:192|116:168,1,121.499996292114,2|0,0:0|0:0,0:0:0:0:
92,192,50402,37,0,1:0:0:0:
96,200,50495,1,0,0:0:0:0:
100,208,50588,1,0,0:0:0:0:
48,272,50773,1,0,0:0:0:0:
52,280,50866,1,0,0:0:0:0:
56,288,50958,2,0,L|65:312,1,22.5
136,272,51143,38,0,B|157:258|157:258|182:261|182:261|204:248|204:248|229:250|229:250|247:238|247:238|272:240|272:240|301:225,1,180,2|0,0:0|0:0,0:0:0:0:
300,140,52069,53,0,0:0:0:0:
285,147,52162,1,0,0:0:0:0:
273,152,52254,1,0,0:0:0:0:
216,172,52393,22,0,P|196:208|373:269,1,314.999990386963,2|0,0:0|0:0,0:0:0:0:
384,264,53365,70,0,L|444:272,1,53.9999983520508,2|0,0:2|0:0,0:0:0:0:
495,255,53643,1,0,0:0:0:0:
500,268,53736,1,2,0:1:0:0:
432,184,53921,2,0,L|420:148,1,26.9999991760254
448,40,54106,1,2,0:1:0:0:
496,84,54476,37,0,0:0:0:0:
347,78,54662,2,0,L|359:114,1,26.9999991760254
331,222,54847,1,2,0:1:0:0:
283,178,55217,5,0,0:0:0:0:
432,300,55402,2,0,L|420:264,1,26.9999991760254
448,156,55588,1,2,3:1:0:0:
496,200,55958,5,0,0:0:0:0:
353,143,56143,1,0,0:0:0:0:
357,151,56236,1,0,0:0:0:0:
361,159,56328,2,0,B|329:143|299:165,1,53.9999983520508,0|0,1:0|0:0,0:0:0:0:
240,216,56699,1,0,0:0:0:0:
224,224,56791,1,0,0:0:0:0:
208,228,56884,1,0,0:0:0:0:
188,224,56976,1,0,0:0:0:0:
172,216,57069,38,0,B|168:184|168:184|152:168|152:168|148:120,1,101.250003862381,2|2,0:0|0:0,0:0:0:0:
144,104,58180,70,0,P|140:72|84:168,1,346.49998942566,2|0,0:0|0:0,0:0:0:0:
88,176,59291,22,0,L|132:168,4,26.9999991760254,6|4|4|4|0,0:2|0:0|0:0|0:0|0:0,0:0:0:0:
32,232,59568,2,0,P|16:284|48:352,1,107.999996704102,10|0,0:1|0:0,0:0:0:0:
92,308,59846,2,0,P|117:304|156:314,1,53.9999983520508,4|0,0:0|0:0,0:0:0:0:
208,336,60031,70,0,L|272:328,1,45,2|0,0:1|0:0,0:0:0:0:
280,252,60216,2,0,L|324:257,1,45,4|0,0:0|0:0,0:0:0:0:
356,324,60402,2,0,L|402:320,1,36,10|0,0:1|0:0,0:0:0:0:
428,284,60587,2,0,L|473:290,1,36
484,300,60772,2,0,P|472:264|492:220,1,80.9999975280763,4|8,0:0|0:0,0:0:0:0:
504,144,61142,70,0,L|304:188,1,188.999994232178,2|0,0:1|0:0,0:0:0:0:
416,76,61513,2,0,L|216:120,1,188.999994232178,2|0,0:1|0:0,0:0:0:0:
156,252,61883,2,0,B|216:204|256:72|136:-4|84:88,1,283.499991348267,10|0,0:0|0:0,0:0:0:0:
92,72,62253,38,0,L|52:64,4,22.5,4|4|4|4|0,1:2|0:0|0:0|0:0|0:0,0:0:0:0:
24,124,62531,2,0,L|128:144,1,90,8|0,0:0|0:0,0:0:0:0:
76,200,62809,2,0,P|72:224|78:250,1,45,4|0,0:0|0:0,0:0:0:0:
120,296,62994,38,0,B|146:282|146:282|171:286|171:286|193:275|193:275|218:279|218:279|256:256,1,135,2|0,0:0|0:0,0:0:0:0:
296,300,63365,54,0,P|332:312|396:288,1,90,8|0,0:0|0:0,0:0:0:0:
436,268,63642,1,0,0:0:0:0:
492,240,63735,2,0,L|484:136,1,90,4|0,0:0|0:0,0:0:0:0:
460,92,64013,2,0,P|482:95|504:91,2,45,8|0|0,0:0|0:0|0:0,0:0:0:0:
344,40,64290,22,0,P|328:20|273:126,1,236.25,6|0,0:0|0:0,0:0:0:0:
289,131,64846,69,8,0:0:0:0:
176,336,65031,1,8,0:0:0:0:
60,184,65216,38,0,L|108:192,4,26.9999991760254,6|4|4|4|0,0:2|0:0|0:0|0:0|0:0,0:0:0:0:
8,236,65494,2,0,L|140:260,1,107.999996704102,10|0,0:1|0:0,0:0:0:0:
176,228,65772,2,0,P|182:262|160:300,1,53.9999983520508,4|0,0:0|0:0,0:0:0:0:
256,124,65957,1,2,0:1:0:0:
256,68,66328,5,8,0:0:0:0:
336,228,66513,2,0,P|330:262|352:300,1,53.9999983520508
256,124,66698,1,2,0:1:0:0:
256,8,66976,5,8,0:0:0:0:
176,228,67253,2,0,P|182:262|160:300,1,53.9999983520508,4|0,0:0|0:0,0:0:0:0:
256,124,67438,1,2,0:1:0:0:
256,68,67809,5,8,0:0:0:0:
340,100,67994,2,0,L|352:20,1,53.9999983520508
480,56,68179,38,0,L|460:180,1,90,4|0,1:2|0:0,0:0:0:0:
492,208,68457,2,0,P|504:252|458:315,1,90,8|0,0:0|0:0,0:0:0:0:
444,336,68735,2,0,L|372:324,1,45,4|0,0:0|0:0,0:0:0:0:
336,344,68920,70,0,P|304:372|300:308,1,135.000005149842,2|8,0:0|0:0,0:0:0:0:
356,214,69476,2,0,P|388:242|392:178,1,135.000005149842,2|0,0:0|0:0,0:0:0:0:
340,152,69939,1,8,0:0:0:0:
288,196,70031,70,0,P|207:229|96:176,1,188.999994232178,2|0,0:0|0:0,0:0:0:0:
72,148,70402,38,0,L|76:108,4,31.4999990386963
223,5,70772,21,8,0:0:0:0:
207,65,70865,1,8,0:0:0:0:
280,142,70957,1,8,0:0:0:0:
296,202,71050,1,8,0:0:0:0:
