osu file format v14

[General]
AudioFilename: audio.mp3
AudioLeadIn: 0
PreviewTime: 32009
Countdown: 0
SampleSet: Normal
StackLeniency: 0.7
Mode: 0
LetterboxInBreaks: 0
WidescreenStoryboard: 1

[Editor]
DistanceSpacing: 0.5
BeatDivisor: 4
GridSize: 4
TimelineZoom: 1.7

[Metadata]
Title:Bonetrousle (Underswap Version)
TitleUnicode:Bonetrousle (Underswap Version)
Artist:nerdylizardeperson
ArtistUnicode:nerdylizardeperson
Creator:DaxMasterix
Version:Skull Kid's Insane
Source:UNDERTALE
Tags:alternative universe chiptune radiation toby fox Song That Might Play When You Fight Sans Gero Skull Kid nerdy lizard person
BeatmapID:1031467
BeatmapSetID:443828

[Difficulty]
HPDrainRate:6
CircleSize:3.8
OverallDifficulty:7.5
ApproachRate:9
SliderMultiplier:1.8
SliderTickRate:1

[Events]
//Background and Video events
0,0,"tumblr_o1o2lgDuyT1v0gkrlo1_500.jpg",0,0
//Break Periods
//Storyboard Layer 0 (Background)
//Storyboard Layer 1 (Fail)
//Storyboard Layer 2 (Pass)
//Storyboard Layer 3 (Foreground)
//Storyboard Sound Samples

[TimingPoints]
9.9463087248321,400,4,3,1,60,1,0
6709,-100,4,3,1,20,0,0
6809,-100,4,3,1,60,0,0
9909,-100,4,3,1,20,0,0
10009,-100,4,3,1,60,0,0
13109,-100,4,3,1,20,0,0
13209,-100,4,3,1,60,0,0
16309,-100,4,3,1,20,0,0
16409,-100,4,3,1,60,0,0
32009,-90.9090909090909,4,3,1,60,0,1
44784,-90.9090909090909,4,3,1,60,0,0
44809,-90.9090909090909,4,3,1,60,0,1
51209,-100,4,3,1,40,0,0
57209,-100,4,1,2,40,0,0

[Colours]
Combo1 : 0,64,128
Combo2 : 0,128,192

[HitObjects]
96,76,9,6,0,L|80:164,1,90,0|2,0:0|0:0,0:0:0:0:
208,124,409,2,0,L|192:36,1,90,8|2,0:0|0:0,0:0:0:0:
320,76,809,2,0,L|304:164,1,90,0|2,0:0|0:0,0:0:0:0:
432,124,1209,2,0,L|416:36,1,90,8|2,0:0|0:0,0:0:0:0:
416,308,1609,6,0,L|432:220,1,90,0|2,0:0|0:0,0:0:0:0:
304,260,2009,2,0,L|320:348,1,90,8|2,0:0|0:0,0:0:0:0:
192,308,2409,2,0,L|208:220,1,90,0|2,0:0|0:0,0:0:0:0:
80,260,2809,2,0,L|96:348,1,90,8|2,0:0|0:0,0:0:0:0:
96,76,3209,6,0,L|80:164,1,90,0|2,0:0|0:0,0:0:0:0:
208,124,3609,2,0,L|192:36,1,90,8|2,0:0|0:0,0:0:0:0:
320,76,4009,2,0,L|304:164,1,90,0|2,0:0|0:0,0:0:0:0:
432,124,4409,2,0,L|416:36,1,90,8|2,0:0|0:0,0:0:0:0:
416,308,4809,6,0,L|432:220,1,90,0|2,0:0|0:0,0:0:0:0:
304,260,5209,2,0,L|320:348,1,90,8|2,0:0|0:0,0:0:0:0:
192,308,5609,2,0,L|208:220,1,90,0|2,0:0|0:0,0:0:0:0:
80,260,6009,2,0,L|96:348,1,90,8|2,0:0|0:0,0:0:0:0:
144,188,6409,6,0,B|88:176|88:176|-12:196,1,135,4|0,0:0|0:0,0:0:0:0:
11,191,6809,1,10,0:0:0:0:
240,288,7009,1,0,0:0:0:0:
240,288,7209,2,0,L|220:96,1,180,2|8,0:0|0:0,0:0:0:0:
132,300,7809,1,2,0:0:0:0:
336,176,8009,6,0,L|320:64,2,90,0|2|10,0:0|0:0|0:0,0:0:0:0:
424,288,8609,2,0,B|340:268|340:268|248:288,1,180,2|2,0:0|0:0,0:0:0:0:
132,300,9209,1,10,0:0:0:0:
260,200,9409,1,2,0:0:0:0:
84,224,9609,6,0,P|48:160|76:72,1,135
84,66,10009,1,10,0:0:0:0:
184,316,10209,1,0,0:0:0:0:
184,316,10409,2,0,L|-12:292,1,180,2|10,0:0|0:0,0:0:0:0:
284,184,11009,1,0,0:0:0:0:
260,336,11209,5,2,0:0:0:0:
424,116,11409,1,2,0:0:0:0:
184,72,11609,1,8,0:0:0:0:
364,260,11809,5,2,0:0:0:0:
300,76,12009,1,2,0:0:0:0:
188,224,12209,1,0,0:0:0:0:
424,116,12409,2,0,L|415:21,1,90,10|2,0:0|0:0,0:0:0:0:
372,196,12809,6,0,P|448:212|512:160,1,135,4|0,0:0|0:0,0:0:0:0:
512,144,13209,1,10,0:0:0:0:
256,176,13409,1,0,0:0:0:0:
256,176,13609,2,0,L|272:360,1,180,2|10,0:0|0:0,0:0:0:0:
361,144,14209,1,0,0:0:0:0:
152,204,14409,6,0,L|163:311,2,90,0|2|10,0:0|0:0|0:0,0:0:0:0:
71,83,15009,2,0,B|155:103|155:103|247:83,1,180,2|0,0:0|0:0,0:0:0:0:
24,164,15609,1,10,0:0:0:0:
156,16,15809,1,2,0:0:0:0:
280,172,16009,6,0,P|296:232|268:312,1,135
237,327,16409,1,10,0:0:0:0:
196,68,16609,1,0,0:0:0:0:
196,68,16809,2,0,L|376:80,1,180,2|10,0:0|0:0,0:0:0:0:
124,144,17409,1,0,0:0:0:0:
144,4,17609,5,2,0:0:0:0:
232,232,17809,1,2,0:0:0:0:
8,212,18009,1,8,0:0:0:0:
308,104,18209,5,2,0:0:0:0:
84,184,18409,1,2,0:0:0:0:
272,328,18609,1,0,0:0:0:0:
188,104,18809,2,0,L|84:108,1,90,10|2,0:0|0:0,0:0:0:0:
288,16,19209,6,0,B|268:108|268:108|292:200,1,180,4|10,0:0|0:0,0:0:0:0:
392,60,19809,1,0,0:0:0:0:
160,148,20009,2,0,B|180:240|180:240|156:332,1,180,2|10,0:0|0:0,0:0:0:0:
60,212,20609,1,0,0:0:0:0:
276,284,20809,6,0,P|284:236|272:192,1,90,2|2,0:0|0:0,0:0:0:0:
208,368,21209,1,10,0:0:0:0:
208,368,21409,2,0,L|408:356,1,180,2|0,0:0|0:0,0:0:0:0:
60,208,22009,1,10,0:0:0:0:
116,376,22209,1,0,0:0:0:0:
132,132,22409,6,0,P|56:104|-32:156,1,180,4|10,0:0|0:0,0:0:0:0:
220,232,23009,1,0,0:0:0:0:
220,232,23209,2,0,L|212:52,1,180,2|10,0:0|0:0,0:0:0:0:
120,300,23809,1,0,0:0:0:0:
344,252,24009,5,2,0:0:0:0:
140,276,24209,1,0,0:0:0:0:
324,276,24409,1,10,0:0:0:0:
160,248,24609,2,0,B|168:340,1,90,2|0,0:0|0:0,0:0:0:0:
208,148,25009,1,2,0:0:0:0:
64,256,25209,1,10,0:0:0:0:
300,208,25409,1,0,0:0:0:0:
300,208,25609,6,0,P|314:122|248:46,1,180,4|10,0:0|0:0,0:0:0:0:
196,312,26209,1,0,0:0:0:0:
196,312,26409,2,0,B|284:296|284:296|388:316,1,180,2|10,0:0|0:0,0:0:0:0:
104,356,27009,1,0,0:0:0:0:
296,212,27209,5,2,0:0:0:0:
12,256,27409,1,0,0:0:0:0:
248,336,27609,1,10,0:0:0:0:
212,92,27809,2,0,P|276:60|392:100,1,180,2|0,0:0|0:0,0:0:0:0:
124,188,28409,1,10,0:0:0:0:
188,8,28609,1,0,0:0:0:0:
180,280,28809,6,0,L|-4:260,1,180,4|10,0:0|0:0,0:0:0:0:
304,172,29409,1,0,0:0:0:0:
304,172,29609,2,0,B|288:260|288:260|316:372,1,180,2|10,0:0|0:0,0:0:0:0:
404,256,30209,1,0,0:0:0:0:
176,176,30409,6,0,L|64:180,2,90,2|0|10,0:0|0:0|0:0,0:0:0:0:
304,156,31009,1,2,0:0:0:0:
412,88,31209,2,0,P|420:32|412:-4,1,90,0|2,0:0|0:0,0:0:0:0:
304,156,31609,1,8,0:0:0:0:
308,180,31709,1,0,0:0:0:0:
312,204,31809,1,0,0:0:0:0:
412,88,32009,5,12,0:0:0:0:
216,132,32209,1,2,0:0:0:0:
468,164,32409,1,8,0:1:0:0:
164,52,32609,1,2,0:0:0:0:
412,88,32809,2,0,L|400:256,1,148.50000453186,10|0,0:0|2:0,0:0:0:0:
380,264,33209,2,0,P|428:252|484:264,1,99.0000030212403,8|0,0:1|0:0,0:0:0:0:
264,316,33609,6,0,P|216:328|160:316,1,99.0000030212403,10|0,0:0|0:0,0:0:0:0:
24,212,34009,1,8,0:1:0:0:
152,352,34209,1,0,0:0:0:0:
132,156,34409,1,8,0:0:0:0:
40,332,34609,1,2,0:0:0:0:
216,244,34809,2,0,L|204:140,1,99.0000030212403,8|2,0:1|0:0,0:0:0:0:
148,304,35209,6,0,P|228:336|304:268,1,198.000006042481,10|8,0:0|0:1,0:0:0:0:
56,240,35809,1,0,0:0:0:0:
56,240,36009,2,0,L|68:344,1,99.0000030212403,8|0,0:0|0:0,0:0:0:0:
216,244,36409,2,0,L|204:140,1,99.0000030212403,8|0,0:1|0:0,0:0:0:0:
108,40,36809,6,0,B|204:64|204:64|308:44,1,198.000006042481,10|8,0:0|0:1,0:0:0:0:
56,120,37409,1,0,0:0:0:0:
56,120,37609,2,0,P|48:180|60:228,1,99.0000030212403,8|0,0:0|0:0,0:0:0:0:
212,260,38009,2,0,P|220:200|208:152,1,99.0000030212403,8|0,0:1|0:0,0:0:0:0:
116,360,38409,5,10,0:0:0:0:
160,356,38509,1,0,0:0:0:0:
204,352,38609,1,2,0:0:0:0:
248,348,38709,1,0,0:0:0:0:
292,344,38809,2,0,L|284:288,1,49.5000015106202,8|0,0:1|0:0,0:0:0:0:
376,180,39009,2,0,L|368:229,1,49.5000015106202,2|0,0:0|0:0,0:0:0:0:
296,120,39209,2,0,P|348:84|468:144,1,198.000006042481,10|8,0:0|0:1,0:0:0:0:
188,192,39809,1,0,0:0:0:0:
188,192,40009,6,0,L|196:80,1,99.0000030212403,10|0,0:0|0:0,0:0:0:0:
288,304,40409,2,0,B|188:280|188:280|84:304,1,198.000006042481,8|8,0:1|0:0,0:0:0:0:
188,368,41009,1,2,0:0:0:0:
272,208,41209,1,8,0:1:0:0:
104,208,41409,1,2,0:0:0:0:
364,276,41609,6,0,L|348:120,1,148.50000453186,10|0,0:0|2:0,0:0:0:0:
364,144,42009,2,0,P|408:156|464:144,1,99.0000030212403,8|0,0:1|0:0,0:0:0:0:
268,84,42409,2,0,L|280:196,1,99.0000030212403,10|0,0:0|0:0,0:0:0:0:
356,24,42809,1,8,0:1:0:0:
164,112,43009,1,0,0:0:0:0:
164,112,43209,6,0,B|172:192|172:192|156:248|156:248|164:332,1,198.000006042481,10|8,0:0|0:1,0:0:0:0:
268,84,43809,1,0,0:0:0:0:
40,232,44009,2,0,L|52:344,1,99.0000030212403,8|0,0:0|0:0,0:0:0:0:
278,182,44409,2,0,L|268:84,1,99.0000030212403,8|0,0:1|0:0,0:0:0:0:
216,296,44809,5,12,0:0:0:0:
400,252,45009,1,2,0:0:0:0:
356,76,45209,1,8,0:1:0:0:
172,120,45409,1,2,0:0:0:0:
414,162,45609,2,0,L|402:10,1,148.50000453186,10|0,0:0|2:0,0:0:0:0:
414,30,46009,2,0,P|466:42|518:34,1,99.0000030212403,8|0,0:1|0:0,0:0:0:0:
312,92,46409,6,0,P|260:80|208:88,1,99.0000030212403,10|0,0:0|0:0,0:0:0:0:
414,162,46809,1,8,0:1:0:0:
215,85,47009,1,0,0:0:0:0:
348,264,47209,2,0,L|456:260,1,99.0000030212403,8|2,0:0|0:0,0:0:0:0:
248,192,47609,2,0,L|140:196,1,99.0000030212403,8|2,0:1|0:0,0:0:0:0:
32,288,48009,6,0,B|60:192|60:192|32:88,1,198.000006042481,10|8,0:0|0:1,0:0:0:0:
144,276,48609,1,0,0:0:0:0:
144,276,48809,2,0,P|204:288|260:268,1,99.0000030212403,8|0,0:0|0:0,0:0:0:0:
340,188,49209,1,8,0:1:0:0:
308,368,49409,1,0,0:0:0:0:
260,116,49609,6,0,P|328:80|436:140,1,198.000006042481,10|8,0:0|0:1,0:0:0:0:
156,176,50209,1,0,0:0:0:0:
156,176,50409,2,0,L|168:68,1,99.0000030212403,8|0,0:0|0:0,0:0:0:0:
340,188,50809,2,0,L|328:296,1,99.0000030212403,8|0,0:1|0:0,0:0:0:0:
260,120,51209,5,2,0:0:0:0:
292,96,51309,1,0,0:0:0:0:
332,88,51409,1,0,0:0:0:0:
372,92,51509,1,0,0:0:0:0:
408,112,51609,1,2,0:0:0:0:
432,144,51709,1,0,0:0:0:0:
444,184,51809,1,2,0:0:0:0:
436,224,51909,1,0,0:0:0:0:
416,260,52009,2,2,B|396:188|396:188|424:60,1,180
460,340,52609,1,0,0:0:0:0:
460,340,52809,6,0,P|416:348|364:336,1,90,2|2,0:0|0:0,0:0:0:0:
196,256,53209,2,0,P|240:248|283:256,1,90,2|0,0:0|0:0,0:0:0:0:
148,332,53609,1,0,0:0:0:0:
156,176,53809,1,2,0:0:0:0:
283,256,54009,1,2,0:0:0:0:
148,332,54209,1,2,0:0:0:0:
156,176,54409,6,0,L|256:180,1,90,2|0,0:0|0:0,0:0:0:0:
100,264,54809,2,0,L|10:260,1,90,2|0,0:0|0:0,0:0:0:0:
156,176,55209,2,0,L|356:184,1,180,2|2,0:0|0:0,0:0:0:0:
76,124,56009,5,2,0:0:0:0:
164,288,56209,1,0,0:0:0:0:
160,32,56409,1,2,0:0:0:0:
164,288,56809,5,2,0:0:0:0:
368,148,57209,1,0,0:2:0:0:
