osu file format v14

[General]
AudioFilename: audio.mp3
AudioLeadIn: 0
PreviewTime: 32009
Countdown: 0
SampleSet: Normal
StackLeniency: 0.7
Mode: 0
LetterboxInBreaks: 0
WidescreenStoryboard: 1

[Editor]
DistanceSpacing: 1
BeatDivisor: 2
GridSize: 4
TimelineZoom: 1.7

[Metadata]
Title:Bonetrousle (Underswap Version)
TitleUnicode:Bonetrousle (Underswap Version)
Artist:nerdylizardeperson
ArtistUnicode:nerdylizardeperson
Creator:DaxMasterix
Version:Normal
Source:UNDERTALE
Tags:alternative universe chiptune radiation toby fox Song That Might Play When You Fight Sans Gero Skull Kid nerdy lizard person
BeatmapID:953700
BeatmapSetID:443828

[Difficulty]
HPDrainRate:4
CircleSize:3
OverallDifficulty:4
ApproachRate:5
SliderMultiplier:1.4
SliderTickRate:1

[Events]
//Background and Video events
0,0,"tumblr_o1o2lgDuyT1v0gkrlo1_500.jpg",0,0
//Break Periods
//Storyboard Layer 0 (Background)
//Storyboard Layer 1 (Fail)
//Storyboard Layer 2 (Pass)
//Storyboard Layer 3 (Foreground)
//Storyboard Sound Samples

[TimingPoints]
9.9463087248321,400,4,1,1,50,1,0
32009,-100,4,1,1,50,0,1
51209,-100,4,2,0,50,0,0
57209,-100,4,1,2,40,0,0

[Colours]
Combo1 : 0,64,128
Combo2 : 0,128,192

[HitObjects]
130,206,9,6,0,P|142:262|194:338,1,140,0|2,0:0|0:0,0:0:0:0:
326,330,809,2,0,P|365:272|382:205,1,140,0|2,0:0|0:0,0:0:0:0:
457,86,1609,6,0,P|397:54|325:46,1,140,0|2,0:0|0:0,0:0:0:0:
185,46,2409,2,0,P|115:53|54:86,1,140,0|2,0:0|0:0,0:0:0:0:
92,148,3009,1,0,0:0:0:0:
130,206,3209,6,0,P|118:262|66:338,1,140,0|2,0:0|0:0,0:0:0:0:
28,196,4009,2,0,P|58:147|133:93,1,140,0|2,0:0|0:0,0:0:0:0:
264,96,4809,6,0,P|320:136|359:194,1,140,0|2,0:0|0:0,0:0:0:0:
314,328,5609,2,0,P|274:270|257:203,1,140,0|2,0:0|0:0,0:0:0:0:
272,136,6209,1,0,0:0:0:0:
300,72,6409,6,0,P|372:56|444:64,1,140,0|2,0:0|0:0,0:0:0:0:
500,188,7209,1,0,0:0:0:0:
437,313,7609,2,0,P|399:319|363:319,2,70,2|0|0,0:0|0:0|0:0,0:0:0:0:
500,188,8409,5,2,0:0:0:0:
437,63,8809,1,0,0:0:0:0:
376,188,9209,1,2,0:0:0:0:
344,124,9409,1,0,0:0:0:0:
313,63,9609,6,0,P|244:44|180:64,1,140,0|2,0:0|0:0,0:0:0:0:
248,188,10409,1,0,0:0:0:0:
315,312,10809,2,0,P|352:320|392:320,2,70,2|0|0,0:0|0:0|0:0,0:0:0:0:
248,188,11609,6,0,P|211:180|171:180,2,70,2|0|0,0:0|0:0|0:0,0:0:0:0:
188,316,12409,1,2,0:0:0:0:
120,296,12609,1,0,0:0:0:0:
68,248,12809,5,0,0:0:0:0:
60,108,13209,2,0,P|56:77|40:41,2,70,2|0|0,0:0|0:0|0:0,0:0:0:0:
68,248,14009,1,2,0:0:0:0:
132,216,14209,1,0,0:0:0:0:
184,172,14409,5,0,0:0:0:0:
256,52,14809,1,2,0:0:0:0:
328,172,15209,2,0,P|392:176|468:152,1,140,0|2,0:0|0:0,0:0:0:0:
456,84,15809,1,0,0:0:0:0:
396,48,16009,5,0,0:0:0:0:
256,48,16409,2,0,P|220:60|184:100,2,70,2|0|0,0:0|0:0|0:0,0:0:0:0:
328,172,17209,1,2,0:0:0:0:
307,238,17409,1,0,0:0:0:0:
284,304,17609,6,0,P|310:326|343:336,2,70,0|0|2,0:0|0:0|0:0,0:0:0:0:
180,208,18409,1,0,0:0:0:0:
232,76,18809,1,2,0:0:0:0:
162,85,19009,1,0,0:0:0:0:
92,96,19209,6,0,P|56:152|40:252,1,140,0|2,0:0|0:0,0:0:0:0:
124,336,20009,1,0,0:0:0:0:
180,208,20409,2,0,P|176:176|160:136,2,70,2|0|0,0:0|0:0|0:0,0:0:0:0:
123,335,21209,6,0,P|156:349|190:354,1,70,2|0,0:0|0:0,0:0:0:0:
320,296,21809,2,0,P|287:282|253:277,1,70,0|2,0:0|0:0,0:0:0:0:
256,136,22409,5,0,0:0:0:0:
332,20,22809,2,0,P|364:6|398:1,2,70,2|0|0,0:0|0:0|0:0,0:0:0:0:
322,154,23609,2,0,P|288:149|256:136,2,70,2|0|0,0:0|0:0|0:0,0:0:0:0:
417,256,24409,6,0,P|430:287|436:322,1,70,2|0,0:0|0:0,0:0:0:0:
304,368,25009,2,0,P|269:362|237:349,1,70,0|2,0:0|0:0,0:0:0:0:
124,268,25609,5,0,0:0:0:0:
60,144,26009,2,0,P|47:111|42:76,2,70,2|0|0,0:0|0:0|0:0,0:0:0:0:
192,96,26809,2,0,P|186:130|174:163,2,70,2|0|0,0:0|0:0|0:0,0:0:0:0:
324,52,27609,6,0,L|392:40,1,70,2|0,0:0|0:0,0:0:0:0:
452,168,28209,2,0,L|384:180,1,70,0|2,0:0|0:0,0:0:0:0:
373,320,28809,5,0,0:0:0:0:
256,244,29209,2,0,L|256:168,2,70,2|0|0,0:0|0:0|0:0,0:0:0:0:
139,320,30009,2,0,P|106:333|72:338,2,70,2|0|0,0:0|0:0|0:0,0:0:0:0:
256,244,30809,5,2,0:0:0:0:
268,176,31009,2,0,P|296:108|368:72,1,140
404,124,31609,2,0,L|368:260,1,140,2|4,0:0|0:0,0:0:0:0:
256,344,32409,5,10,0:0:0:0:
144,260,32809,2,0,L|108:124,1,140,0|10,0:0|0:0,0:0:0:0:
164,76,33409,1,0,0:0:0:0:
232,60,33609,6,0,P|260:88|276:120,2,70,0|0|10,0:0|0:0|0:0,0:0:0:0:
108,124,34409,1,0,0:0:0:0:
216,216,34809,1,10,0:0:0:0:
252,276,35009,1,0,0:0:0:0:
256,340,35209,6,0,P|320:364|400:360,1,140,0|10,0:0|0:0,0:0:0:0:
476,252,36009,2,0,P|412:228|332:232,1,140,0|10,0:0|0:0,0:0:0:0:
288,276,36609,1,0,0:0:0:0:
256,340,36809,6,0,P|192:364|112:360,1,140,0|10,0:0|0:0,0:0:0:0:
36,251,37609,2,0,P|101:227|170:229,1,140,0|10,0:0|0:0,0:0:0:0:
224,276,38209,1,0,0:0:0:0:
256,340,38409,6,0,P|292:356|328:364,1,70
388,336,38809,2,0,P|404:300|412:264,1,70,10|0,0:0|0:0,0:0:0:0:
384,204,39209,2,0,P|320:180|240:184,1,140,0|10,0:0|0:0,0:0:0:0:
188,220,39809,1,0,0:0:0:0:
156,280,40009,6,0,P|92:248|52:192,1,140,0|10,0:0|0:0,0:0:0:0:
124,72,40809,1,0,0:0:0:0:
256,24,41209,1,10,0:0:0:0:
324,28,41409,1,0,0:0:0:0:
384,64,41609,6,0,P|432:128|448:216,1,140,0|10,0:0|0:0,0:0:0:0:
308,192,42409,2,0,P|276:265|208:323,1,140,0|10,0:0|0:0,0:0:0:0:
196,247,43009,1,0,0:0:0:0:
159,190,43209,6,0,P|79:199|-4:169,1,140,0|10,0:0|0:0,0:0:0:0:
96,64,44009,1,0,0:0:0:0:
236,76,44409,1,10,0:0:0:0:
304,96,44609,1,0,0:0:0:0:
372,88,44809,6,0,P|412:156|440:272,1,140,0|10,0:0|0:0,0:0:0:0:
356,332,45609,1,0,0:0:0:0:
216,352,46009,1,10,0:0:0:0:
148,348,46209,1,0,0:0:0:0:
92,308,46409,6,0,P|72:228|76:140,1,140,0|10,0:0|0:0,0:0:0:0:
120,40,47209,1,0,0:0:0:0:
224,132,47609,1,10,0:0:0:0:
252,196,47809,1,0,0:0:0:0:
256,264,48009,6,0,P|320:292|392:292,1,140,0|10,0:0|0:0,0:0:0:0:
452,168,48809,2,0,P|392:128|324:116,1,140,0|10,0:0|0:0,0:0:0:0:
256,108,49409,1,0,0:0:0:0:
185,115,49609,6,0,P|117:128|60:168,1,140,0|10,0:0|0:0,0:0:0:0:
122,292,50409,2,0,P|192:291|256:264,1,140,0|10,0:0|0:0,0:0:0:0:
288,200,51009,1,0,0:0:0:0:
288,132,51209,6,0,P|360:108|424:120,1,140,0|2,0:0|0:0,0:0:0:0:
508,232,52009,2,0,P|436:256|372:244,1,140,0|2,0:0|0:0,0:0:0:0:
288,132,52809,2,0,P|293:86|304:64,2,70,0|0|2,0:0|0:0|0:0,0:0:0:0:
236,264,53609,1,0,0:0:0:0:
100,292,54009,1,2,0:0:0:0:
4,192,54409,6,0,L|16:124,2,70,0|0|2,0:0|0:0|0:0,0:0:0:0:
100,292,55209,1,0,0:0:0:0:
136,156,55609,1,2,0:0:0:0:
236,264,56009,2,0,L|224:332,2,70,0|0|2,0:0|0:0|0:0,0:0:0:0:
272,128,56809,1,2,0:0:0:0:
408,92,57209,5,0,0:0:0:0:
