osu file format v14

[General]
AudioFilename: audio.mp3
AudioLeadIn: 0
PreviewTime: 32009
Countdown: 0
SampleSet: Normal
StackLeniency: 0.6
Mode: 0
LetterboxInBreaks: 0
WidescreenStoryboard: 1

[Editor]
DistanceSpacing: 1
BeatDivisor: 4
GridSize: 4
TimelineZoom: 1.7

[Metadata]
Title:Bonetrousle (Underswap Version)
TitleUnicode:Bonetrousle (Underswap Version)
Artist:nerdylizardeperson
ArtistUnicode:nerdylizardeperson
Creator:DaxMasterix
Version:Hard
Source:UNDERTALE
Tags:alternative universe chiptune radiation toby fox Song That Might Play When You Fight Sans Gero Skull Kid nerdy lizard person
BeatmapID:953699
BeatmapSetID:443828

[Difficulty]
HPDrainRate:5
CircleSize:4
OverallDifficulty:6
ApproachRate:7
SliderMultiplier:1.6
SliderTickRate:1

[Events]
//Background and Video events
0,0,"tumblr_o1o2lgDuyT1v0gkrlo1_500.jpg",0,0
//Break Periods
//Storyboard Layer 0 (Background)
//Storyboard Layer 1 (Fail)
//Storyboard Layer 2 (Pass)
//Storyboard Layer 3 (Foreground)
//Storyboard Sound Samples

[TimingPoints]
9.9463087248321,400,4,1,1,50,1,0
32009,-100,4,1,1,50,0,1
51209,-100,4,2,0,50,0,0
57209,-100,4,1,2,40,0,0

[Colours]
Combo1 : 0,64,128
Combo2 : 0,128,192

[HitObjects]
252,172,9,6,0,L|264:92,1,80
328,44,409,2,0,L|408:56,1,80,2|0,0:0|0:0,0:0:0:0:
456,120,809,2,0,L|444:200,1,80
380,248,1209,2,0,L|300:236,1,80,2|0,0:0|0:0,0:0:0:0:
252,172,1609,6,0,L|264:92,1,80
216,28,2010,2,0,L|136:16,1,80,2|0,0:0|0:0,0:0:0:0:
72,64,2409,2,0,L|60:144,1,80
108,208,2809,2,0,L|188:220,1,80,2|0,0:0|0:0,0:0:0:0:
252,172,3209,6,0,L|264:92,1,80
340,64,3609,2,0,L|328:144,1,80,2|0,0:0|0:0,0:0:0:0:
312,220,4009,2,0,L|300:300,1,80
224,328,4409,2,0,L|236:248,1,80,2|0,0:0|0:0,0:0:0:0:
252,172,4809,6,0,L|264:92,1,80
188,120,5209,2,0,L|176:200,1,80,2|0,0:0|0:0,0:0:0:0:
160,276,5609,2,0,L|148:356,1,80
224,328,6009,2,0,L|236:248,1,80,2|0,0:0|0:0,0:0:0:0:
308,216,6409,6,0,L|388:228,1,80
464,204,6809,1,2,0:0:0:0:
476,124,7009,1,0,0:0:0:0:
420,68,7209,2,0,P|336:28|260:28,1,160,0|2,0:0|0:0,0:0:0:0:
208,76,7809,1,0,0:0:0:0:
128,68,8009,6,0,P|88:80|48:80,2,80,0|0|2,0:0|0:0|0:0,0:0:0:0:
208,76,8609,2,0,P|208:132|120:236,1,160
92,268,9209,2,0,P|100:312|124:340,1,80,2|0,0:0|0:0,0:0:0:0:
192,372,9609,6,0,P|232:384|280:380,1,80
348,372,10009,1,2,0:0:0:0:
416,332,10209,1,0,0:0:0:0:
460,268,10409,2,0,P|488:200|472:112,1,160,0|2,0:0|0:0,0:0:0:0:
412,64,11009,1,0,0:0:0:0:
336,36,11209,6,0,P|296:28|256:28,1,80
176,40,11609,1,2,0:0:0:0:
176,40,11809,1,0,0:0:0:0:
352,112,12009,2,0,P|325:142|305:177,1,80
275,252,12409,1,2,0:0:0:0:
275,252,12609,1,0,0:0:0:0:
425,135,12809,6,0,P|456:100|472:64,1,80
396,40,13209,1,2,0:0:0:0:
316,36,13409,1,0,0:0:0:0:
236,20,13609,2,0,P|152:32|56:80,1,160,0|2,0:0|0:0,0:0:0:0:
48,136,14209,1,0,0:0:0:0:
76,212,14409,6,0,P|72:256|52:288,2,80,0|0|2,0:0|0:0|0:0,0:0:0:0:
48,136,15009,2,0,P|100:128|224:148,1,160
280,172,15609,1,2,0:0:0:0:
316,244,15809,1,0,0:0:0:0:
308,324,16009,6,0,P|356:332|396:332,1,80
464,312,16409,2,0,P|495:282|511:249,1,80,2|0,0:0|0:0,0:0:0:0:
512,172,16809,2,0,P|504:116|436:36,1,160,0|2,0:0|0:0,0:0:0:0:
360,56,17409,1,0,0:0:0:0:
280,68,17609,6,0,P|240:88|188:132,1,80
156,168,18009,1,2,0:0:0:0:
156,168,18209,1,0,0:0:0:0:
316,136,18409,2,0,P|313:180|325:247,1,80
340,293,18809,1,2,0:0:0:0:
340,293,19009,1,0,0:0:0:0:
392,137,19209,6,0,P|368:68|296:24,1,160,0|2,0:0|0:0,0:0:0:0:
256,92,19809,1,0,0:0:0:0:
215,24,20009,2,0,P|147:63|120:137,1,160,0|2,0:0|0:0,0:0:0:0:
128,216,20609,1,0,0:0:0:0:
152,292,20809,6,0,P|112:308|72:308,1,80
128,216,21209,2,0,P|168:200|208:200,1,80,2|0,0:0|0:0,0:0:0:0:
307,199,21609,2,0,P|347:200|384:216,1,80
436,308,22009,2,0,P|396:307|360:292,1,80,2|0,0:0|0:0,0:0:0:0:
204,199,22409,6,0,P|176:120|188:48,1,160,0|2,0:0|0:0,0:0:0:0:
256,92,23009,1,0,0:0:0:0:
323,47,23209,2,0,P|335:125|307:199,1,160,0|2,0:0|0:0,0:0:0:0:
256,260,23809,1,0,0:0:0:0:
192,308,24009,6,0,P|147:320|111:324,1,80
72,224,24409,2,0,P|117:212|153:208,1,80,2|0,0:0|0:0,0:0:0:0:
320,308,24809,2,0,P|365:320|401:324,1,80
440,224,25209,2,0,P|395:212|359:208,1,80,2|0,0:0|0:0,0:0:0:0:
212,172,25609,6,0,B|140:136|148:72|148:72|188:56,1,160,0|2,0:0|0:0,0:0:0:0:
256,44,26209,1,0,0:0:0:0:
334,60,26409,2,0,B|364:72|364:72|372:136|300:172,1,160,0|2,0:0|0:0,0:0:0:0:
256,240,27009,1,0,0:0:0:0:
192,284,27209,6,0,P|152:296|108:296,1,80
64,164,27609,2,0,P|103:165|141:176,1,80,2|0,0:0|0:0,0:0:0:0:
320,284,28009,2,0,P|358:295|397:296,1,80
448,164,28408,2,0,P|408:165|370:176,1,80,2|0,0:0|0:0,0:0:0:0:
180,176,28809,6,0,B|184:124|160:60|160:60|192:32,1,160,0|2,0:0|0:0,0:0:0:0:
256,80,29409,1,0,0:0:0:0:
320,32,29609,2,0,B|352:60|352:60|328:124|332:176,1,160,0|2,0:0|0:0,0:0:0:0:
368,248,30209,1,0,0:0:0:0:
380,328,30409,5,0,0:0:0:0:
256,352,30609,1,0,0:0:0:0:
132,328,30809,1,2,0:0:0:0:
112,204,31009,2,0,B|140:152|144:80|144:80|192:64,1,160
256,128,31609,1,2,0:0:0:0:
256,128,31709,1,0,0:0:0:0:
256,128,31809,1,0,0:0:0:0:
338,70,32009,5,4,0:0:0:0:
344,164,32209,1,0,0:0:0:0:
256,208,32409,1,10,0:0:0:0:
168,164,32609,1,0,0:0:0:0:
174,70,32809,2,0,P|100:72|28:116,2,160,0|10|0,0:0|0:0|0:0,0:0:0:0:
256,124,33809,5,0,0:0:0:0:
338,178,34009,2,0,P|412:176|480:128,1,160,10|0,0:0|0:0,0:0:0:0:
388,96,34609,1,0,0:0:0:0:
338,178,34809,2,0,P|344:228|368:264,1,80,10|0,0:0|0:0,0:0:0:0:
428,320,35209,6,0,P|396:344|356:352,1,80
205,336,35609,2,0,P|237:312|276:304,1,80,10|0,0:0|0:0,0:0:0:0:
428,220,36009,2,0,P|396:244|358:253,1,80
206,237,36409,2,0,P|238:213|277:205,1,80,10|0,0:0|0:0,0:0:0:0:
123,287,36809,6,0,P|91:311|52:319,1,80
52,220,37209,2,0,P|84:196|123:188,1,80,10|0,0:0|0:0,0:0:0:0:
276,205,37609,2,0,P|244:229|205:237,1,80
206,139,38009,2,0,P|238:115|277:107,1,80,10|0,0:0|0:0,0:0:0:0:
375,52,38409,6,0,L|372:92,3,40
412,136,38809,2,0,L|416:176,3,40,10|0|0|0,0:0|0:0|0:0|0:0,0:0:0:0:
372,220,39209,2,0,P|344:284|260:328,1,160,0|10,0:0|0:0,0:0:0:0:
172,328,39809,1,0,0:0:0:0:
80,296,40009,5,0,0:0:0:0:
44,208,40209,1,0,0:0:0:0:
44,208,40309,1,0,0:0:0:0:
44,208,40409,2,0,P|48:136|132:56,1,160,10|0,0:0|0:0,0:0:0:0:
188,112,41009,1,0,0:0:0:0:
256,44,41209,1,10,0:0:0:0:
324,112,41409,1,0,0:0:0:0:
410,69,41609,6,0,P|440:92|468:132,1,80
332,196,42009,2,0,P|337:232|328:280,1,80,10|0,0:0|0:0,0:0:0:0:
181,274,42409,2,0,P|174:235|180:196,1,80
46,126,42809,2,0,P|70:94|101:69,1,80,10|0,0:0|0:0,0:0:0:0:
216,80,43209,6,0,L|296:96,1,80
144,232,43609,2,0,L|160:152,1,80,10|0,0:0|0:0,0:0:0:0:
296,304,44009,2,0,L|217:288,1,80
368,152,44408,2,0,L|352:230,1,80,10|0,0:0|0:0,0:0:0:0:
216,80,44809,5,0,0:0:0:0:
312,72,45009,1,0,0:0:0:0:
368,152,45209,1,10,0:0:0:0:
460,176,45409,1,0,0:0:0:0:
512,256,45609,2,0,P|480:316|400:368,2,160,0|10|0,0:0|0:0|0:0,0:0:0:0:
460,176,46609,5,0,0:0:0:0:
460,80,46809,2,0,P|408:84|308:128,1,160,10|0,0:0|0:0,0:0:0:0:
256,204,47409,1,0,0:0:0:0:
309,281,47609,2,0,P|343:303|387:315,1,80,10|0,0:0|0:0,0:0:0:0:
335,203,48009,6,0,P|295:200|256:204,1,80
380,314,48409,2,0,P|403:281|419:245,1,80,10|0,0:0|0:0,0:0:0:0:
262,297,48809,2,0,P|278:333|301:365,1,80
335,203,49209,1,10,0:0:0:0:
256,148,49409,1,0,0:0:0:0:
176,203,49609,6,0,P|164:248|172:288,1,80
342,280,50009,2,0,P|347:240|336:203,1,80,10|0,0:0|0:0,0:0:0:0:
144,124,50409,2,0,P|110:148|90:182,1,80
421,180,50809,2,0,P|400:147|368:124,1,80,10|0,0:0|0:0,0:0:0:0:
256,64,51209,6,0,L|268:104,3,40
256,140,51609,2,0,L|244:180,3,40,2|0|0|0,0:0|0:0|0:0|0:0,0:0:0:0:
256,216,52009,2,0,B|308:280|404:284,2,160,0|2|0,0:0|0:0|0:0,0:0:0:0:
212,148,53009,5,0,0:0:0:0:
300,148,53209,2,0,P|356:136|448:64,1,160,2|0,0:0|0:0,0:0:0:0:
368,40,53809,1,0,0:0:0:0:
288,52,54009,1,2,0:0:0:0:
232,108,54209,1,0,0:0:0:0:
216,188,54409,6,0,L|160:244,1,80
296,188,54809,2,0,L|352:244,1,80,2|0,0:0|0:0,0:0:0:0:
180,316,55209,2,0,P|256:340|332:316,1,160,0|2,0:0|0:0,0:0:0:0:
216,188,56009,5,0,0:0:0:0:
256,120,56209,1,0,0:0:0:0:
296,188,56409,1,2,0:0:0:0:
408,72,56809,1,0,0:0:0:0:
104,72,57209,5,2,0:0:0:0:
