osu file format v14

[General]
AudioFilename: audio.mp3
AudioLeadIn: 0
PreviewTime: 32009
Countdown: 0
SampleSet: Normal
StackLeniency: 0.7
Mode: 0
LetterboxInBreaks: 0
WidescreenStoryboard: 1

[Editor]
Bookmarks: 32409
DistanceSpacing: 1
BeatDivisor: 4
GridSize: 4
TimelineZoom: 2.599999

[Metadata]
Title:Bonetrousle (Underswap Version)
TitleUnicode:Bonetrousle (Underswap Version)
Artist:nerdylizardeperson
ArtistUnicode:nerdylizardeperson
Creator:DaxMasterix
Version:Easy
Source:UNDERTALE
Tags:alternative universe chiptune radiation toby fox Song That Might Play When You Fight Sans Gero Skull Kid nerdy lizard person
BeatmapID:953698
BeatmapSetID:443828

[Difficulty]
HPDrainRate:2
CircleSize:2
OverallDifficulty:2
ApproachRate:3
SliderMultiplier:1.2
SliderTickRate:1

[Events]
//Background and Video events
0,0,"tumblr_o1o2lgDuyT1v0gkrlo1_500.jpg",0,0
//Break Periods
//Storyboard Layer 0 (Background)
//Storyboard Layer 1 (Fail)
//Storyboard Layer 2 (Pass)
//Storyboard Layer 3 (Foreground)
//Storyboard Sound Samples

[TimingPoints]
9.9463087248321,400,4,1,1,50,1,0
32009,-100,4,1,1,50,0,1
51209,-100,4,2,0,50,0,0
57209,-100,4,1,2,40,0,0

[Colours]
Combo1 : 0,64,128
Combo2 : 0,128,192

[HitObjects]
392,92,9,6,0,B|456:80|456:80|500:148|492:252,2,240
256,288,2409,1,0,0:0:0:0:
120,92,3209,6,0,B|56:80|56:80|12:148|20:252,2,240
256,288,5609,1,0,0:0:0:0:
392,92,6409,6,0,P|464:184|444:300,1,240
332,340,7609,1,2,0:0:0:0:
256,248,8009,2,0,L|256:16,2,180,0|0|2,0:0|0:0|0:0,0:0:0:0:
180,340,9609,5,0,0:0:0:0:
67,298,10009,1,2,0:0:0:0:
4,196,10409,2,0,P|48:96|180:36,1,240
256,108,11609,1,2,0:0:0:0:
352,37,12009,1,0,0:0:0:0:
449,108,12409,1,2,0:0:0:0:
351,179,12809,6,0,P|255:240|159:179,1,240
256,108,14009,1,2,0:0:0:0:
148,56,14409,2,0,B|84:44|84:44|32:104|36:200,2,180,0|0|2,0:0|0:0|0:0,0:0:0:0:
256,108,16009,5,0,0:0:0:0:
364,56,16409,1,2,0:0:0:0:
472,108,16809,2,0,P|504:204|436:316,1,240
344,240,18009,1,2,0:0:0:0:
256,320,18409,1,0,0:0:0:0:
168,240,18809,1,2,0:0:0:0:
72,312,19209,6,0,P|6:217|37:105,1,240
140,44,20409,2,0,P|168:32|204:28,2,60,2|0|0,0:0|0:0|0:0,0:0:0:0:
156,164,21209,1,2,0:0:0:0:
256,232,21609,1,0,0:0:0:0:
356,164,22009,1,2,0:0:0:0:
464,108,22409,6,0,P|495:219|429:315,1,240
312,348,23609,2,0,P|252:356|212:352,2,60,2|0|0,0:0|0:0|0:0,0:0:0:0:
344,232,24409,1,2,0:0:0:0:
256,152,24809,1,0,0:0:0:0:
168,232,25209,1,2,0:0:0:0:
72,312,25609,6,0,P|6:217|37:105,1,240
140,44,26809,2,0,P|168:32|204:28,2,60,2|0|0,0:0|0:0|0:0,0:0:0:0:
156,164,27609,1,2,0:0:0:0:
256,228,28009,1,0,0:0:0:0:
356,164,28409,1,2,0:0:0:0:
464,108,28809,6,0,P|495:219|429:315,1,240
312,348,30009,2,0,P|252:356|212:352,2,60,2|0|0,0:0|0:0|0:0,0:0:0:0:
332,228,30809,2,0,L|316:108,1,120,2|0,0:0|0:0,0:0:0:0:
195,109,31609,2,0,L|180:228,1,120,2|4,0:0|0:0,0:0:0:0:
88,304,32409,5,10,0:0:0:0:
60,188,32809,2,0,P|68:124|92:72,1,120,0|10,0:0|0:0,0:0:0:0:
196,16,33609,1,0,0:0:0:0:
316,16,34009,2,0,P|428:92|452:188,1,240,10|10,0:0|0:0,0:0:0:0:
424,304,35209,6,0,P|196:332|40:152,2,480
468,192,38809,5,10,0:0:0:0:
424,80,39209,2,0,P|376:48|316:28,1,120,0|10,0:0|0:0,0:0:0:0:
194,28,40009,1,0,0:0:0:0:
88,80,40409,2,0,P|52:192|88:304,1,240,10|10,0:0|0:0,0:0:0:0:
194,360,41609,6,0,B|310:395|314:325|430:360,2,240
192,240,43609,1,10,0:0:0:0:
256,136,44009,2,0,P|300:176|312:236,1,120,0|10,0:0|0:0,0:0:0:0:
316,356,44809,5,0,0:0:0:0:
424,300,45209,1,10,0:0:0:0:
476,192,45609,2,0,P|488:136|488:68,1,120,0|10,0:0|0:0,0:0:0:0:
376,32,46409,1,0,0:0:0:0:
256,60,46809,2,0,P|136:64|28:136,1,240,10|10,0:0|0:0,0:0:0:0:
36,248,48009,6,0,P|264:276|420:96,2,480
156,40,52009,5,2,0:0:0:0:
256,260,52809,1,0,0:0:0:0:
356,40,53609,1,2,0:0:0:0:
472,248,54409,6,0,L|380:340,2,120
355,216,55609,1,2,0:0:0:0:
238,184,56009,2,0,L|272:300,2,120
322,99,57209,5,0,0:0:0:0:
