osu file format v14

[General]
AudioFilename: audio.mp3
AudioLeadIn: 0
PreviewTime: 32009
Countdown: 0
SampleSet: Normal
StackLeniency: 0.7
Mode: 0
LetterboxInBreaks: 0
WidescreenStoryboard: 0

[Editor]
DistanceSpacing: 1.2
BeatDivisor: 4
GridSize: 4
TimelineZoom: 1.7

[Metadata]
Title:Bonetrousle (Underswap Version)
TitleUnicode:Bonetrousle (Underswap Version)
Artist:nerdylizardeperson
ArtistUnicode:nerdylizardeperson
Creator:DaxMasterix
Version:Insane
Source:UNDERTALE
Tags:alternative universe chiptune radiation toby fox Song That Might Play When You Fight Sans Gero Skull Kid nerdy lizard person
BeatmapID:953697
BeatmapSetID:443828

[Difficulty]
HPDrainRate:6
CircleSize:4
OverallDifficulty:7
ApproachRate:9
SliderMultiplier:1.8
SliderTickRate:1

[Events]
//Background and Video events
0,0,"tumblr_o1o2lgDuyT1v0gkrlo1_500.jpg",0,0
//Break Periods
//Storyboard Layer 0 (Background)
//Storyboard Layer 1 (Fail)
//Storyboard Layer 2 (Pass)
//Storyboard Layer 3 (Foreground)
//Storyboard Sound Samples

[TimingPoints]
9.9463087248321,400,4,1,1,50,1,0
32009,-100,4,1,1,50,0,1
51209,-100,4,2,0,50,0,0
57209,-100,4,1,2,40,0,0

[Colours]
Combo1 : 0,64,128
Combo2 : 0,128,192

[HitObjects]
232,248,9,6,0,P|272:264|320:268,1,90
280,136,409,2,0,P|240:120|192:116,1,90,2|0,0:0|0:0,0:0:0:0:
352,192,809,2,0,P|368:152|372:104,1,90
160,192,1209,2,0,P|144:232|140:280,1,90,2|0,0:0|0:0,0:0:0:0:
372,278,1609,6,0,P|368:233|352:192,1,90
139,105,2009,2,0,P|143:150|159:191,1,90,2|0,0:0|0:0,0:0:0:0:
318,115,2409,2,0,P|273:119|232:136,1,90
193,268,2810,2,0,P|238:264|279:248,1,90,2|0,0:0|0:0,0:0:0:0:
160,192,3209,5,0,0:0:0:0:
116,292,3409,1,0,0:0:0:0:
211,339,3609,2,0,P|256:347|300:339,1,90,2|0,0:0|0:0,0:0:0:0:
396,292,4009,1,0,0:0:0:0:
352,192,4209,1,0,0:0:0:0:
300,96,4409,2,0,P|256:88|212:96,1,90,2|0,0:0|0:0,0:0:0:0:
160,192,4809,6,0,P|120:168|96:128,1,90
256,288,5209,2,0,P|232:328|192:352,1,90,2|0,0:0|0:0,0:0:0:0:
352,192,5609,2,0,P|392:216|416:256,1,90
256,96,6009,2,0,P|280:56|320:32,1,90,2|0,0:0|0:0,0:0:0:0:
256,192,6409,5,0,0:0:0:0:
160,140,6609,1,0,0:0:0:0:
164,248,6809,2,0,P|120:280|88:296,2,90,2|0|0,0:0|0:0|0:0,0:0:0:0:
160,140,7409,1,0,0:0:0:0:
256,88,7609,1,2,0:0:0:0:
352,140,7809,1,0,0:0:0:0:
348,248,8009,6,0,P|392:280|424:296,2,90,0|0|2,0:0|0:0|0:0,0:0:0:0:
256,192,8609,2,0,P|200:176|64:196,1,180
52,296,9209,1,2,0:0:0:0:
156,332,9409,1,0,0:0:0:0:
256,296,9609,5,0,0:0:0:0:
356,332,9809,1,0,0:0:0:0:
460,296,10009,2,0,P|488:260|500:216,2,90,2|0|0,0:0|0:0|0:0,0:0:0:0:
392,212,10609,1,0,0:0:0:0:
324,128,10809,2,0,P|356:96|400:80,1,90,2|0,0:0|0:0,0:0:0:0:
284,228,11209,5,0,0:0:0:0:
212,148,11409,1,0,0:0:0:0:
140,228,11609,1,2,0:0:0:0:
140,228,11809,1,0,0:0:0:0:
284,228,12009,1,0,0:0:0:0:
116,63,12209,1,0,0:0:0:0:
156,294,12409,1,2,0:0:0:0:
262,81,12609,1,0,0:0:0:0:
51,190,12809,5,0,0:0:0:0:
16,88,13009,1,0,0:0:0:0:
116,63,13209,2,0,P|160:80|196:104,2,90,2|0|0,0:0|0:0|0:0,0:0:0:0:
16,88,13809,1,0,0:0:0:0:
51,190,14009,1,2,0:0:0:0:
16,292,14209,1,0,0:0:0:0:
108,352,14409,6,0,P|156:364|204:368,2,90,0|0|2,0:0|0:0|0:0,0:0:0:0:
16,292,15009,2,0,P|76:272|208:284,1,180
256,364,15609,1,2,0:0:0:0:
320,278,15809,1,0,0:0:0:0:
256,192,16009,5,0,0:0:0:0:
202,98,16209,1,0,0:0:0:0:
310,98,16409,2,0,P|356:84|392:64,2,90,2|0|0,0:0|0:0|0:0,0:0:0:0:
202,98,17009,1,0,0:0:0:0:
148,192,17209,2,0,P|102:206|66:226,1,90,2|0,0:0|0:0,0:0:0:0:
256,192,17609,5,0,0:0:0:0:
328,272,17809,1,0,0:0:0:0:
400,192,18009,1,2,0:0:0:0:
400,192,18209,1,0,0:0:0:0:
256,192,18409,1,0,0:0:0:0:
424,357,18609,1,0,0:0:0:0:
384,126,18809,1,2,0:0:0:0:
278,339,19009,1,0,0:0:0:0:
489,230,19209,6,0,P|504:176|500:96,1,135,0|0,0:0|2:0,0:0:0:0:
480,68,19609,1,2,0:0:0:0:
384,126,19809,1,0,0:0:0:0:
292,68,20009,2,0,P|200:56|112:56,1,180,0|2,0:0|0:0,0:0:0:0:
8,76,20609,1,0,0:0:0:0:
48,260,20809,5,0,0:0:0:0:
80,156,21009,1,0,0:0:0:0:
188,340,21209,1,2,0:0:0:0:
156,236,21409,1,0,0:0:0:0:
292,156,21609,1,0,0:0:0:0:
260,260,21809,1,0,0:0:0:0:
368,76,22009,1,2,0:0:0:0:
400,180,22209,1,0,0:0:0:0:
260,52,22409,6,0,P|206:37|126:41,1,135,0|0,0:0|2:0,0:0:0:0:
98,61,22809,1,2,0:0:0:0:
156,157,23009,1,0,0:0:0:0:
96,253,23209,2,0,P|169:305|256:328,1,180,0|2,0:0|0:0,0:0:0:0:
360,296,23809,1,0,0:0:0:0:
448,116,24009,5,0,0:0:0:0:
440,224,24209,1,0,0:0:0:0:
256,192,24409,1,2,0:0:0:0:
256,84,24609,1,0,0:0:0:0:
64,116,24809,1,0,0:0:0:0:
72,224,25009,1,0,0:0:0:0:
256,192,25209,1,2,0:0:0:0:
256,84,25409,1,0,0:0:0:0:
255,299,25609,6,0,P|321:316|388:311,1,135,0|0,0:0|2:0,0:0:0:0:
418,291,26010,1,2,0:0:0:0:
464,192,26210,1,0,0:0:0:0:
419,99,26409,2,0,P|331:115|256:164,1,180,0|2,0:0|0:0,0:0:0:0:
356,212,27009,1,0,0:0:0:0:
156,172,27209,5,0,0:0:0:0:
124,276,27409,1,0,0:0:0:0:
356,212,27609,1,2,0:0:0:0:
388,108,27809,1,0,0:0:0:0:
124,276,28009,1,0,0:0:0:0:
228,312,28209,1,0,0:0:0:0:
388,108,28409,1,2,0:0:0:0:
284,72,28609,1,0,0:0:0:0:
332,276,28809,6,0,P|404:248|460:192,1,135,0|0,0:0|2:0,0:0:0:0:
464,180,29209,1,2,0:0:0:0:
388,108,29409,1,0,0:0:0:0:
284,72,29609,2,0,P|220:72|76:112,1,180,0|2,0:0|0:0,0:0:0:0:
44,184,30209,1,0,0:0:0:0:
228,268,30409,5,0,0:0:0:0:
284,116,30609,1,0,0:0:0:0:
120,260,30809,1,2,0:0:0:0:
392,124,31009,2,0,P|416:204|376:288,1,180
120,260,31609,1,2,0:0:0:0:
84,234,31709,1,0,0:0:0:0:
70,192,31809,1,0,0:0:0:0:
284,116,32009,5,4,0:0:0:0:
228,268,32209,1,0,0:0:0:0:
332,220,32409,1,10,0:0:0:0:
180,164,32609,1,0,0:0:0:0:
284,116,32809,2,0,P|338:99|419:94,1,135,0|0,0:0|2:0,0:0:0:0:
512,156,33209,2,0,P|468:168|423:168,1,90,10|0,0:0|0:0,0:0:0:0:
284,116,33609,5,0,0:0:0:0:
152,192,33809,1,0,0:0:0:0:
152,192,33909,1,0,0:0:0:0:
152,192,34009,2,0,B|88:224|88:224|16:140|64:28,1,270,10|0,0:0|0:0,0:0:0:0:
236,180,34809,2,0,P|239:224|228:268,1,90,10|0,0:0|0:0,0:0:0:0:
284,116,35209,6,0,L|372:100,1,90
228,267,35609,2,0,L|140:284,1,90,10|0,0:0|0:0,0:0:0:0:
372,99,36009,2,0,L|445:149,1,90
140,285,36409,2,0,L|66:234,1,90,10|0,0:0|0:0,0:0:0:0:
445,150,36809,6,0,L|461:238,1,90
67,234,37209,2,0,L|51:146,1,90,10|0,0:0|0:0,0:0:0:0:
461,238,37609,2,0,L|410:311,1,90
51,146,38009,2,0,L|101:72,1,90,10|0,0:0|0:0,0:0:0:0:
256,344,38409,5,0,0:0:0:0:
277,311,38509,1,0,0:0:0:0:
282,272,38609,1,0,0:0:0:0:
274,234,38709,1,0,0:0:0:0:
260,197,38809,1,10,0:0:0:0:
245,161,38909,1,0,0:0:0:0:
233,123,39009,1,0,0:0:0:0:
233,84,39109,1,0,0:0:0:0:
255,52,39209,6,0,P|312:28|388:32,1,135,0|0,0:0|2:0,0:0:0:0:
480,80,39609,2,0,P|420:104|392:104,1,90,10|0,0:0|0:0,0:0:0:0:
255,52,40009,5,0,0:0:0:0:
112,88,40209,1,0,0:0:0:0:
112,88,40309,1,0,0:0:0:0:
112,88,40409,2,0,B|48:56|48:56|-24:140|24:252,1,270,10|0,0:0|0:0,0:0:0:0:
245,113,41209,2,0,P|248:69|237:25,1,90,10|0,0:0|0:0,0:0:0:0:
256,192,41609,6,0,P|300:216|344:228,1,90
512,148,42009,2,0,P|461:144|417:152,1,90,10|0,0:0|0:0,0:0:0:0:
256,192,42409,2,0,P|212:216|168:228,1,90
0,148,42809,2,0,P|50:144|94:152,1,90,10|0,0:0|0:0,0:0:0:0:
338,226,43209,6,0,P|352:272|356:324,1,90
155,314,43609,2,0,P|160:269|173:226,1,90,10|0,0:0|0:0,0:0:0:0:
422,150,44009,2,0,P|436:196|440:248,1,90
71,237,44409,2,0,P|76:192|90:150,2,90,10|0|0,0:0|0:0|0:0,0:0:0:0:
155,314,45009,5,0,0:0:0:0:
256,352,45209,1,10,0:0:0:0:
357,314,45409,1,0,0:0:0:0:
448,256,45609,2,0,P|484:196|488:128,1,135,0|0,0:0|2:0,0:0:0:0:
452,32,46009,2,0,P|428:70|417:113,1,90,10|0,0:0|0:0,0:0:0:0:
448,256,46409,5,0,0:0:0:0:
340,208,46609,1,0,0:0:0:0:
340,208,46709,1,0,0:0:0:0:
340,208,46809,2,0,B|316:132|316:132|216:96|128:132,1,270,10|0,0:0|0:0,0:0:0:0:
280,269,47609,2,0,P|315:297|357:314,1,90,10|0,0:0|0:0,0:0:0:0:
130,131,48009,6,0,P|112:176|104:224,1,90
381,252,48409,2,0,P|400:208|408:160,1,90,10|0,0:0|0:0,0:0:0:0:
195,317,48809,2,0,P|240:336|288:344,1,90
336,59,49209,1,10,0:0:0:0:
231,40,49409,1,0,0:0:0:0:
280,343,49609,6,0,P|336:336|372:324,1,90
231,40,50009,2,0,P|176:48|140:60,1,90,10|0,0:0|0:0,0:0:0:0:
407,167,50409,2,0,P|400:112|388:76,1,90
104,216,50809,2,0,P|112:272|124:308,1,90,10|0,0:0|0:0,0:0:0:0:
256,192,51209,5,0,0:0:0:0:
283,188,51309,1,0,0:0:0:0:
311,195,51409,1,0,0:0:0:0:
335,209,51509,1,0,0:0:0:0:
357,226,51609,1,2,0:0:0:0:
380,242,51709,1,0,0:0:0:0:
405,255,51809,1,0,0:0:0:0:
432,260,51909,1,0,0:0:0:0:
461,258,52009,6,0,P|500:232|512:136,1,135
512,44,52409,2,0,P|473:70|449:130,1,90,2|0,0:0|0:0,0:0:0:0:
461,258,52809,5,0,0:0:0:0:
392,344,53009,1,0,0:0:0:0:
391,344,53109,1,0,0:0:0:0:
392,344,53209,2,0,P|264:360|116:308,1,270,2|0,0:0|0:0,0:0:0:0:
68,228,54009,1,2,0:0:0:0:
176,208,54209,1,0,0:0:0:0:
256,132,54409,6,0,P|280:88|288:48,1,90
307,222,54809,2,0,P|334:264|364:291,1,90,2|0,0:0|0:0,0:0:0:0:
204,222,55209,2,0,P|120:224|36:272,1,180,0|2,0:0|0:0,0:0:0:0:
37,270,56009,5,0,0:0:0:0:
140,304,56209,1,0,0:0:0:0:
204,222,56409,1,2,0:0:0:0:
409,289,56809,1,0,0:0:0:0:
364,78,57209,5,0,0:0:0:0:
