osu file format v14

[General]
AudioFilename: audio.mp3
AudioLeadIn: 0
PreviewTime: 32009
Countdown: 0
SampleSet: Normal
StackLeniency: 0.3
Mode: 0
LetterboxInBreaks: 0
WidescreenStoryboard: 1

[Editor]
Bookmarks: 9,57209
DistanceSpacing: 1.1
BeatDivisor: 8
GridSize: 4
TimelineZoom: 1

[Metadata]
Title:Bonetrousle (Underswap Version)
TitleUnicode:Bonetrousle (Underswap Version)
Artist:nerdylizardeperson
ArtistUnicode:nerdylizardeperson
Creator:DaxMasterix
Version:Gero's Cool Insane
Source:UNDERTALE
Tags:alternative universe chiptune radiation toby fox Song That Might Play When You Fight Sans Gero Skull Kid nerdy lizard person
BeatmapID:1028454
BeatmapSetID:443828

[Difficulty]
HPDrainRate:7
CircleSize:6
OverallDifficulty:7
ApproachRate:9
SliderMultiplier:1.7
SliderTickRate:2

[Events]
//Background and Video events
0,0,"tumblr_o1o2lgDuyT1v0gkrlo1_500.jpg",0,0
//Break Periods
//Storyboard Layer 0 (Background)
//Storyboard Layer 1 (Fail)
//Storyboard Layer 2 (Pass)
//Storyboard Layer 3 (Foreground)
//Storyboard Sound Samples

[TimingPoints]
9.9463087248321,400,4,1,1,50,1,0
32009,-83.3333333333333,4,1,1,50,0,1
51209,-100,4,2,0,50,0,0
57209,-100,4,1,2,40,0,0

[Colours]
Combo1 : 0,64,128
Combo2 : 0,128,192

[HitObjects]
204,70,9,6,0,P|164:57|124:70,1,85,4|0,0:0|0:0,0:0:0:0:
164,229,409,2,0,B|178:216|184:192|184:192|178:168|164:155,1,85,2|0,0:0|0:0,0:0:0:0:
124,314,809,2,0,P|164:327|204:314,1,85
256,236,1209,1,2,0:0:0:0:
256,236,1409,1,0,0:0:0:0:
308,314,1609,6,0,P|348:327|388:314,1,85
348,155,2009,2,0,B|334:168|328:192|328:192|334:216|348:229,1,85,2|0,0:0|0:0,0:0:0:0:
388,70,2409,2,0,P|348:57|308:70,1,85
256,148,2809,1,2,0:0:0:0:
256,148,3009,1,0,0:0:0:0:
204,70,3209,6,0,P|164:57|124:70,1,85
164,229,3609,2,0,B|178:216|184:192|184:192|178:168|164:155,1,85,2|0,0:0|0:0,0:0:0:0:
124,314,4009,2,0,P|164:327|204:314,1,85
256,236,4409,1,2,0:0:0:0:
256,236,4609,1,0,0:0:0:0:
308,314,4809,6,0,P|348:327|388:314,1,85
348,155,5209,2,0,B|334:168|328:192|328:192|334:216|348:229,1,85,2|0,0:0|0:0,0:0:0:0:
388,70,5609,2,0,P|348:57|308:70,1,85
256,148,6009,1,2,0:0:0:0:
256,148,6209,1,0,0:0:0:0:
308,70,6409,6,0,L|368:9,1,85
204,70,6809,2,0,L|143:9,1,85,2|0,0:0|0:0,0:0:0:0:
184,160,7209,2,0,B|224:160|256:199|256:199|288:160|328:160,1,170,0|2,0:0|0:0,0:0:0:0:
395,226,7809,1,0,0:0:0:0:
461,159,8009,5,0,0:0:0:0:
395,226,8209,2,0,B|381:266|381:266|395:306,1,85,0|2,0:0|0:0,0:0:0:0:
467,362,8609,2,0,P|395:324|323:362,1,170
256,296,9209,1,2,0:0:0:0:
256,296,9409,1,0,0:0:0:0:
189,362,9609,6,0,P|149:375|109:362,1,85
69,276,10009,2,0,P|109:263|149:276,1,85,2|0,0:0|0:0,0:0:0:0:
109,362,10409,2,0,L|35:209,1,170,0|2,0:0|0:0,0:0:0:0:
101,143,11009,1,0,0:0:0:0:
34,76,11209,5,0,0:0:0:0:
101,143,11409,2,0,P|141:155|181:143,1,85,0|2,0:0|0:0,0:0:0:0:
256,88,11809,1,0,0:0:0:0:
330,143,12009,2,0,P|370:155|411:143,1,85
478,76,12409,1,2,0:0:0:0:
411,143,12609,1,0,0:0:0:0:
476,209,12809,6,0,L|439:285,1,85
256,304,13209,2,0,L|292:227,1,85,2|0,0:0|0:0,0:0:0:0:
314,363,13609,2,0,L|194:243,1,170,0|2,0:0|0:0,0:0:0:0:
256,172,14209,1,0,0:0:0:0:
318,243,14409,5,0,0:0:0:0:
256,172,14609,2,0,L|195:111,1,85,0|2,0:0|0:0,0:0:0:0:
256,40,15009,2,0,B|288:0|344:0|344:0|413:0,1,170
480,66,15609,1,2,0:0:0:0:
413,0,15809,1,0,0:0:0:0:
346,66,16009,6,0,B|332:106|332:106|346:146,1,85
256,252,16409,2,0,B|270:212|270:212|256:172,1,85,2|0,0:0|0:0,0:0:0:0:
184,312,16809,2,0,B|212:339|256:356|256:356|300:339|328:312,1,170,0|2,0:0|0:0,0:0:0:0:
256,252,17409,1,0,0:0:0:0:
184,312,17609,5,0,0:0:0:0:
112,252,17809,2,0,P|99:212|112:172,1,85,0|2,0:0|0:0,0:0:0:0:
164,96,18209,1,0,0:0:0:0:
216,20,18409,2,0,B|256:6|256:6|296:20,1,85
348,96,18809,1,2,0:0:0:0:
400,172,19009,1,0,0:0:0:0:
400,172,19109,1,2,0:0:0:0:
400,172,19209,6,0,P|412:212|400:252,1,85
366,285,19509,2,0,L|351:269,2,21.25,0|0|2,0:0|0:0|0:0,0:0:0:0:
432,351,19809,1,0,0:0:0:0:
256,252,20009,2,0,B|212:252|212:252|183:280,1,85
183,103,20409,2,0,B|212:132|212:132|256:132,1,85,2|0,0:0|0:0,0:0:0:0:
128,192,20809,6,0,L|43:192,2,85,0|0|2,0:0|0:0|0:0,0:0:0:0:
220,192,21409,2,0,B|292:192|292:192|300:188|300:188|300:196|300:196|308:192|308:192|380:192,1,170
446,125,22009,1,2,0:0:0:0:
379,58,22209,1,0,0:0:0:0:
300,192,22409,6,0,P|287:232|300:272,1,85
332,304,22709,2,0,L|346:288,2,21.25,0|0|2,0:0|0:0|0:0,0:0:0:0:
256,356,23009,1,0,0:0:0:0:
180,304,23209,1,0,0:0:0:0:
256,252,23409,1,0,0:0:0:0:
332,304,23609,2,0,B|376:304|376:304|408:336,1,85,2|0,0:0|0:0,0:0:0:0:
180,304,24009,6,0,B|136:304|136:304|104:336,1,85
40,266,24409,1,2,0:0:0:0:
106,199,24609,2,0,P|144:127|106:55,1,170
46,127,25209,1,2,0:0:0:0:
223,164,25409,1,0,0:0:0:0:
223,164,25509,1,2,0:0:0:0:
223,164,25609,6,0,B|237:151|243:127|243:127|237:103|223:90,1,85
256,57,25909,2,0,L|240:32,2,21.25,0|0|2,0:0|0:0|0:0,0:0:0:0:
319,127,26209,1,0,0:0:0:0:
382,57,26409,2,0,L|501:177,1,170,0|2,0:0|0:0,0:0:0:0:
435,243,27009,1,0,0:0:0:0:
368,176,27209,6,0,P|328:163|288:176,1,85
140,241,27609,1,2,0:0:0:0:
140,241,27809,2,0,P|180:254|220:241,2,85
73,174,28409,1,2,0:0:0:0:
8,236,28609,6,0,L|128:356,1,170
161,323,29109,2,0,L|176:307,2,21.25,0|0|2,0:0|0:0|0:0,0:0:0:0:
256,240,29409,1,0,0:0:0:0:
256,240,29609,2,0,B|300:240|300:240|328:268,1,85
328,115,30009,2,0,B|299:143|299:143|255:143,1,85,2|0,0:0|0:0,0:0:0:0:
404,192,30409,6,0,L|488:192,2,85,0|0|2,0:0|0:0|0:0,0:0:0:0:
328,115,31009,2,0,B|292:192|292:192|328:270,1,170
404,192,31609,1,2,0:0:0:0:
404,192,31709,1,2,0:0:0:0:
404,192,31809,1,2,0:0:0:0:
208,104,32009,6,0,P|160:89|112:104,1,101.999996887207,4|0,0:0|0:0,0:0:0:0:
208,280,32409,2,0,P|255:294|303:279,1,101.999996887207,8|0,0:0|0:0,0:0:0:0:
160,192,32809,2,0,L|256:373,1,203.999993774414,0|8,0:0|0:0,0:0:0:0:
112,280,33409,1,0,0:0:0:0:
256,192,33609,5,0,0:0:0:0:
112,104,33809,1,0,0:0:0:0:
256,192,34009,2,0,P|304:207|352:192,1,101.999996887207,8|0,0:0|0:0,0:0:0:0:
431,112,34409,1,0,0:0:0:0:
351,32,34609,1,0,0:0:0:0:
431,112,34809,2,0,L|503:183,1,101.999996887207,8|0,0:0|0:0,0:0:0:0:
424,283,35209,6,0,B|412:331|360:358|360:358|308:331|296:283,1,203.999993774414,0|8,0:0|0:0,0:0:0:0:
152,192,35809,1,0,0:0:0:0:
88,283,36010,2,0,B|100:331|152:358|152:358|204:331|216:283,1,203.999993774414,0|8,0:0|0:0,0:0:0:0:
360,192,36609,1,0,0:0:0:0:
360,192,36709,1,0,0:0:0:0:
360,192,36809,5,0,0:0:0:0:
256,88,37009,1,0,0:0:0:0:
152,192,37209,1,8,0:0:0:0:
256,296,37409,1,0,0:0:0:0:
360,192,37609,2,0,L|432:119,1,101.999996887207
152,192,38009,2,0,L|79:119,1,101.999996887207,8|0,0:0|0:0,0:0:0:0:
256,88,38409,5,0,0:0:0:0:
256,103,38509,1,0,0:0:0:0:
256,118,38609,1,0,0:0:0:0:
256,133,38709,1,0,0:0:0:0:
256,148,38809,1,8,0:0:0:0:
256,163,38909,1,0,0:0:0:0:
256,178,39009,1,0,0:0:0:0:
256,193,39109,1,0,0:0:0:0:
256,208,39209,5,0,0:0:0:0:
172,280,39409,1,0,0:0:0:0:
256,352,39609,1,8,0:0:0:0:
340,280,39809,1,0,0:0:0:0:
92,296,40009,2,0,P|114:339|161:361,1,101.999996887207
350,361,40409,2,0,P|395:338|417:293,1,101.999996887207,8|0,0:0|0:0,0:0:0:0:
172,184,40809,2,0,B|172:212|158:232|158:232|172:252|172:280,1,101.999996887207
340,280,41209,2,0,B|340:252|354:232|354:232|340:212|340:184,1,101.999996887207,8|0,0:0|0:0,0:0:0:0:
224,84,41609,6,0,B|177:61|133:81|125:85|117:89|77:109|26:84,1,203.999993774414,0|8,0:0|0:0,0:0:0:0:
172,184,42209,1,0,0:0:0:0:
288,84,42409,2,0,B|335:61|379:81|387:85|395:89|435:109|486:84,1,203.999993774414,0|8,0:0|0:0,0:0:0:0:
340,184,43009,1,0,0:0:0:0:
224,84,43209,6,0,P|256:10|288:84,1,203.999993774414,0|8,0:0|0:0,0:0:0:0:
256,192,43809,1,0,0:0:0:0:
300,296,44009,2,0,B|272:304|256:321|256:321|240:304|212:296,1,101.999996887207
320,376,44409,2,0,B|348:368|364:351|364:351|380:368|408:376,1,101.999996887207,8|0,0:0|0:0,0:0:0:0:
192,376,44809,6,0,B|164:368|148:351|148:351|132:368|104:376,1,101.999996887207,4|0,0:0|0:0,0:0:0:0:
24,296,45209,1,8,0:0:0:0:
103,216,45409,1,0,0:0:0:0:
103,216,45609,2,0,B|156:216|156:216|202:216|222:168|202:120|156:120,1,203.999993774414,0|8,0:0|0:0,0:0:0:0:
256,68,46209,1,0,0:0:0:0:
355,119,46409,6,0,P|313:145|314:194,1,101.999996887207
156,119,46809,2,0,P|198:145|197:194,1,101.999996887207,8|0,0:0|0:0,0:0:0:0:
117,273,47209,1,0,0:0:0:0:
196,352,47409,1,0,0:0:0:0:
316,352,47609,1,8,0:0:0:0:
395,273,47809,1,0,0:0:0:0:
314,194,48009,6,0,B|312:228|288:256|256:272|256:272|224:256|200:228|197:194,1,203.999993774414,0|8,0:0|0:0,0:0:0:0:
256,100,48609,1,0,0:0:0:0:
348,324,48809,2,0,P|256:362|164:324,1,203.999993774414,0|8,0:0|0:0,0:0:0:0:
84,244,49409,1,0,0:0:0:0:
163,164,49609,6,0,B|196:164|216:184|216:184|256:152|296:184|296:184|316:164|349:164,1,203.999993774414,0|8,0:0|0:0,0:0:0:0:
428,84,50209,1,0,0:0:0:0:
507,163,50409,2,0,P|522:211|507:259,1,101.999996887207
304,212,50809,2,0,P|289:164|304:116,1,101.999996887207,8|0,0:0|0:0,0:0:0:0:
396,212,51209,5,2,0:0:0:0:
378,222,51309,1,2,0:0:0:0:
360,232,51409,1,2,0:0:0:0:
343,243,51509,1,0,0:0:0:0:
328,272,51609,5,2,0:0:0:0:
311,283,51709,1,0,0:0:0:0:
293,293,51809,1,2,0:0:0:0:
276,303,51909,1,2,0:0:0:0:
261,332,52009,6,0,L|222:256,1,85,2|0,0:0|0:0,0:0:0:0:
116,197,52409,2,0,L|191:158,1,85,2|0,0:0|0:0,0:0:0:0:
251,52,52809,2,0,L|289:127,1,85,2|2,0:0|0:0,0:0:0:0:
396,187,53209,2,0,L|320:225,1,85,2|0,0:0|0:0,0:0:0:0:
256,344,53609,2,0,L|217:268,1,85,0|2,0:0|0:0,0:0:0:0:
104,192,54009,2,0,L|179:153,1,85,2|2,0:0|0:0,0:0:0:0:
256,8,54409,5,2,0:0:0:0:
310,163,54609,1,0,0:0:0:0:
172,68,54809,1,2,0:0:0:0:
340,68,55009,1,0,0:0:0:0:
202,163,55209,2,0,P|256:217|310:163,1,170,2|2,0:0|0:0,0:0:0:0:
177,294,56009,5,2,0:0:0:0:
256,344,56209,1,0,0:0:0:0:
335,294,56409,1,2,0:0:0:0:
256,124,56809,1,2,0:0:0:0:
256,344,57209,5,0,0:0:0:0:
