osu file format v14

[General]
AudioFilename: audio.mp3
AudioLeadIn: 0
PreviewTime: 124043
Countdown: 0
SampleSet: Soft
StackLeniency: 0.3
Mode: 0
LetterboxInBreaks: 0
WidescreenStoryboard: 0

[Editor]
DistanceSpacing: 1.7
BeatDivisor: 4
GridSize: 4
TimelineZoom: 2.2

[Metadata]
Title:Gateau au chocolat
TitleUnicode:Gâteau au chocolat
Artist:nenpulse
ArtistUnicode:nenpulse
Creator:KuBsNia_ZhoYL_
Version:Macaron
Source:あなたに恋する恋愛ルセット
Tags:galgame eroge full ver remix bootleg yuikonnu ゆいこんぬ Japanese Video Game petit bonheur yuiko visual novel anata ni koisuru ren'ai recette ユニゾンシフト unisonshift opening Meis Clauson La recette de mon amour pour toi
BeatmapID:2245422
BeatmapSetID:1072889

[Difficulty]
HPDrainRate:5.5
CircleSize:3.8
OverallDifficulty:8.5
ApproachRate:9
SliderMultiplier:1.4
SliderTickRate:1

[Events]
//Background and Video events
0,0,"bbbggg.jpg",0,0
//Break Periods
2,185571,192271
//Storyboard Layer 0 (Background)
//Storyboard Layer 1 (Fail)
//Storyboard Layer 2 (Pass)
//Storyboard Layer 3 (Foreground)
//Storyboard Layer 4 (Overlay)
//Storyboard Sound Samples
Sample,287866,0,"otsu.wav",70

[TimingPoints]
1372,333.333333333333,4,2,2,70,1,0
1372,-100,4,2,2,50,0,0
10705,-125,4,2,2,50,0,0
11371,-200,4,2,2,50,0,0
11705,-100,4,2,2,50,0,0
12038,-76.9230769230769,4,2,2,70,0,0
20038,-100,4,2,2,70,0,0
21371,-83.3333333333333,4,2,2,70,0,0
21705,-83.3333333333333,4,2,2,55,0,0
22371,-58.8235294117647,4,2,2,70,0,0
22705,-76.9230769230769,4,2,2,70,0,0
32538,-76.9230769230769,4,2,2,70,0,0
33038,-58.8235294117647,4,2,2,70,0,0
33371,-76.9230769230769,4,2,2,70,0,0
43705,-71.4285714285714,4,2,2,70,0,0
44038,-100,4,2,2,60,0,0
52038,-100,4,2,2,60,0,0
52121,-100,4,2,2,50,0,0
52705,-100,4,2,2,60,0,0
52788,-100,4,2,2,50,0,0
53371,-142.857142857143,4,2,2,55,0,0
53788,-142.857142857143,4,2,2,5,0,0
53871,-142.857142857143,4,2,2,55,0,0
54371,-83.3333333333333,4,2,2,55,0,0
54705,-90.9090909090909,4,2,2,65,0,0
62705,-100,4,2,2,65,0,0
62788,-100,4,2,2,50,0,0
63371,-100,4,2,2,65,0,0
63455,-100,4,2,2,50,0,0
64038,-100,4,2,2,55,0,0
70371,-125,4,2,2,55,0,0
70705,-83.3333333333333,4,2,2,65,0,0
75538,-100,4,2,2,50,0,0
75705,-83.3333333333333,4,2,2,65,0,0
76038,-66.6666666666667,4,2,2,80,0,1
84038,-100,4,2,2,70,0,1
86371,-58.8235294117647,4,2,2,70,0,1
86705,-66.6666666666667,4,2,2,80,0,1
92038,-83.3333333333333,4,2,2,80,0,0
92121,-83.3333333333333,4,2,2,70,0,0
96038,-100,4,2,2,70,0,0
96121,-125,4,2,2,50,0,0
96538,-100,4,2,2,55,0,0
96621,-100,4,2,2,57,0,0
96705,-99.9999999999999,4,2,2,60,0,0
96788,-71.4285714285714,4,2,2,62,0,0
96871,-83.3333333333333,4,2,2,65,0,0
96955,-83.3333333333333,4,2,2,67,0,0
97038,-76.9230769230769,4,2,2,70,0,0
97121,-58.8235294117647,4,2,2,72,0,0
97205,-58.8235294117647,4,2,2,75,0,0
97288,-58.8235294117647,4,2,2,77,0,0
97371,-66.6666666666667,4,2,2,80,0,1
98705,-76.9230769230769,4,2,2,80,0,1
98788,-76.9230769230769,4,2,2,70,0,1
99371,-76.9230769230769,4,2,2,80,0,1
99455,-76.9230769230769,4,2,2,70,0,1
100038,-76.9230769230769,4,2,2,80,0,1
100121,-76.9230769230769,4,2,2,70,0,1
100705,-100,4,2,2,80,0,1
100788,-76.9230769230769,4,2,2,70,0,1
101038,-76.9230769230769,4,2,2,80,0,1
101121,-76.9230769230769,4,2,2,70,0,1
101371,-76.9230769230769,4,2,2,80,0,1
102705,-86.9565217391304,4,2,2,70,0,0
113038,-66.6666666666667,4,2,2,70,0,0
113371,-86.9565217391304,4,2,2,70,0,0
123705,-66.6666666666667,4,2,2,70,0,0
124038,-90.9090909090909,4,2,3,60,0,0
134705,-83.3333333333333,4,2,3,65,0,0
144705,-76.9230769230769,4,2,3,50,0,0
144788,-76.9230769230769,4,2,3,55,0,0
144871,-76.9230769230769,4,2,3,60,0,0
144955,-76.9230769230769,4,2,3,65,0,0
145038,-66.6666666666667,4,2,2,70,0,0
145371,-100,4,2,2,55,0,0
150371,-125,4,2,2,55,0,0
150705,-76.9230769230769,4,2,2,65,0,0
153371,-100,4,2,2,65,0,0
153455,-100,4,2,2,50,0,0
154038,-100,4,2,2,65,0,0
154121,-100,4,2,2,50,0,0
154371,-100,4,2,2,60,0,0
154455,-100,4,2,2,50,0,0
154538,-100,4,2,2,60,0,0
155038,-142.857142857143,4,2,2,40,0,0
155121,-100,4,2,2,45,0,0
155205,-100,4,2,2,50,0,0
155288,-100,4,2,2,55,0,0
155371,-100,4,2,2,20,0,0
155538,-100,4,2,2,55,0,0
155621,-100,4,2,2,57,0,0
155705,-66.6666666666667,4,2,2,60,0,0
156038,-66.6666666666667,4,2,2,80,0,1
164038,-100,4,2,2,70,0,1
166371,-58.8235294117647,4,2,2,70,0,1
166705,-66.6666666666667,4,2,2,80,0,1
172038,-83.3333333333333,4,2,2,80,0,0
176038,-83.3333333333333,4,2,2,70,0,0
176121,-83.3333333333333,4,2,2,50,0,0
176538,-83.3333333333333,4,2,2,55,0,0
176621,-83.3333333333333,4,2,2,57,0,0
176705,-83.3333333333333,4,2,2,60,0,0
176788,-83.3333333333333,4,2,2,62,0,0
176871,-83.3333333333333,4,2,2,65,0,0
176955,-83.3333333333333,4,2,2,67,0,0
177038,-71.4285714285714,4,2,2,70,0,0
177121,-71.4285714285714,4,2,2,72,0,0
177205,-83.3333333333333,4,2,2,75,0,0
177288,-83.3333333333333,4,2,2,77,0,0
177371,-62.5,4,2,2,80,0,1
178705,-100,4,2,2,80,0,1
178788,-100,4,2,2,70,0,1
179371,-100,4,2,2,80,0,1
179455,-100,4,2,2,70,0,1
180038,-100,4,2,2,80,0,1
180121,-100,4,2,2,70,0,1
180705,-100,4,2,2,80,0,1
180788,-83.3333333333333,4,2,2,70,0,1
181038,-100,4,2,2,80,0,1
181121,-100,4,2,2,70,0,1
181371,-76.9230769230769,4,2,2,70,0,1
182705,-250,4,2,2,50,0,0
185371,-250.000000000001,4,2,2,20,0,0
192871,-125,4,2,2,65,0,0
212038,-76.9230769230769,4,2,2,75,0,0
216038,-76.9230769230769,4,2,2,50,0,0
216371,-76.9230769230769,4,2,2,55,0,0
216705,-76.9230769230769,4,2,2,60,0,0
217038,-76.9230769230769,4,2,2,55,0,0
218038,-100,4,2,2,60,0,0
218371,-66.6666666666667,4,2,2,40,0,0
218621,-66.6666666666667,4,2,2,60,0,0
218705,-66.6666666666667,4,2,2,80,0,1
226705,-100,4,2,2,70,0,1
229038,-58.8235294117647,4,2,2,70,0,1
229371,-66.6666666666667,4,2,2,80,0,1
234705,-83.3333333333333,4,2,2,70,0,0
238705,-100,4,2,2,70,0,0
238788,-125,4,2,2,50,0,0
239038,-100,4,2,2,50,0,0
239205,-100,4,2,2,55,0,0
239288,-100,4,2,2,57,0,0
239372,-111.111111111111,4,2,2,60,0,0
239455,-71.4285714285714,4,2,2,62,0,0
239538,-83.3333333333333,4,2,2,65,0,0
239622,-83.3333333333333,4,2,2,67,0,0
239705,-71.4285714285714,4,2,2,70,0,0
239788,-58.8235294117647,4,2,2,72,0,0
239872,-58.8235294117647,4,2,2,75,0,0
239955,-58.8235294117647,4,2,2,77,0,0
240038,-66.6666666666667,4,2,2,80,0,1
241371,-76.9230769230769,4,2,2,80,0,1
241454,-76.9230769230769,4,2,2,70,0,1
242037,-76.9230769230769,4,2,2,80,0,1
242121,-76.9230769230769,4,2,2,70,0,1
242704,-76.9230769230769,4,2,2,80,0,1
242787,-76.9230769230769,4,2,2,70,0,1
243371,-100,4,2,2,80,0,1
243454,-76.9230769230769,4,2,2,70,0,1
243704,-83.3333333333333,4,2,2,80,0,1
243787,-76.9230769230769,4,2,2,70,0,1
244037,-76.9230769230769,4,2,2,80,0,1
245371,-76.9230769230769,4,2,3,85,0,0
255705,-58.8235294117647,4,2,3,70,0,0
256038,-76.9230769230769,4,2,3,80,0,0
266371,-58.8235294117647,4,2,3,80,0,0
266705,-76.9230769230769,4,2,2,80,0,0
266788,-76.9230769230769,4,2,2,60,0,0
276038,-100,4,2,2,60,0,0
277038,-100,4,2,2,40,0,0
277371,-100,4,2,2,55,0,0
285455,-100,4,2,2,40,0,0
286705,-125,4,2,2,40,0,0

[Colours]
Combo1 : 255,157,255
Combo2 : 255,151,151
Combo3 : 186,116,116
Combo4 : 255,255,172

[HitObjects]
79,352,1372,5,2,1:2:0:0:
170,301,1538,1,0,0:0:0:0:
94,243,1705,1,2,0:0:0:0:
5,284,1871,2,0,L|-1:199,1,70,2|0,0:0|0:0,0:0:0:0:
70,108,2205,5,2,0:0:0:0:
164,153,2371,1,2,0:0:0:0:
207,47,2538,2,0,L|135:53,1,70,2|0,0:0|1:2,0:0:0:0:
269,126,2871,5,2,0:0:0:0:
311,33,3038,1,2,0:0:0:0:
269,126,3205,2,0,L|281:205,1,70,2|0,0:0|0:0,0:0:0:0:
356,285,3538,5,2,0:0:0:0:
443,230,3705,1,2,0:0:0:0:
443,230,3871,1,0,0:0:0:0:
356,285,4038,6,0,L|274:296,1,70,2|0,1:2|0:0,0:0:0:0:
250,203,4371,1,2,0:0:0:0:
183,291,4538,2,0,L|189:360,1,70,2|0,0:0|0:0,0:0:0:0:
287,295,4871,5,2,0:0:0:0:
250,203,5038,1,0,0:0:0:0:
287,111,5205,1,2,0:0:0:0:
174,136,5371,6,0,P|204:98|296:124,1,140,2|0,1:2|0:0,0:0:0:0:
375,168,5871,2,0,P|311:147|262:193,1,140,2|0,0:0|0:0,0:0:0:0:
302,340,6371,2,0,L|306:260,1,70,2|0,0:0|0:0,0:0:0:0:
479,329,6705,5,2,1:2:0:0:
398,262,6871,1,0,0:0:0:0:
477,193,7038,1,2,0:0:0:0:
398,262,7205,2,0,L|378:167,1,70,2|0,0:0|0:0,0:0:0:0:
442,49,7538,5,2,0:0:0:0:
345,13,7705,1,2,0:0:0:0:
442,49,7871,2,0,L|429:124,1,70,2|0,0:0|1:2,0:0:0:0:
317,167,8205,5,2,0:0:0:0:
220,124,8371,1,2,0:0:0:0:
153,211,8538,2,0,L|224:205,1,70,2|0,0:0|0:0,0:0:0:0:
317,167,8871,5,2,0:0:0:0:
414,215,9038,1,2,0:0:0:0:
414,215,9205,1,0,0:0:0:0:
479,135,9371,5,2,1:2:0:0:
387,96,9538,1,2,0:0:0:0:
317,167,9705,1,0,0:0:0:0:
263,80,9871,2,0,P|218:40|123:45,1,140,2|0,0:0|0:0,0:0:0:0:
76,149,10371,1,2,0:0:0:0:
164,217,10538,1,0,0:0:0:0:
261,192,10705,6,0,P|259:152|242:204,1,168,6|0,1:2|0:0,0:0:0:0:
345,164,11371,1,2,3:2:0:0:
362,162,11454,1,0,3:2:0:0:
379,167,11538,1,2,3:2:0:0:
393,177,11621,1,0,0:0:0:0:
402,187,11705,2,0,L|400:233,1,35,8|0,1:2|0:0,0:0:0:0:
488,162,11871,1,0,1:2:0:0:
488,162,11955,1,0,1:2:0:0:
488,162,12038,6,0,L|484:270,1,90.9999958343508,6|0,1:2|0:0,0:0:0:0:
412,374,12371,1,10,0:0:0:0:
261,292,12538,2,0,L|249:399,1,90.9999958343508,2|0,0:0|1:2,0:0:0:0:
171,339,12871,1,0,0:0:0:0:
345,302,13038,2,0,L|330:201,1,90.9999958343508,10|0,0:0|0:0,0:0:0:0:
179,78,13371,6,0,P|191:134|289:141,1,136.499993751526,2|0,1:2|0:0,0:0:0:0:
272,142,13705,2,0,P|321:129|381:123,1,90.9999958343508,10|0,0:0|0:0,0:0:0:0:
451,160,14038,1,2,1:2:0:0:
385,45,14205,1,0,0:0:0:0:
411,228,14371,1,8,0:0:0:0:
471,83,14538,1,2,0:0:0:0:
253,54,14705,6,0,L|271:168,1,90.9999958343508,2|0,1:2|0:0,0:0:0:0:
330,200,15038,1,10,0:0:0:0:
179,78,15205,2,0,L|161:192,1,90.9999958343508,2|0,0:0|1:2,0:0:0:0:
113,279,15538,1,2,0:0:0:0:
256,230,15705,1,10,0:0:0:0:
164,167,15871,1,2,0:0:0:0:
197,357,16038,6,0,P|230:325|341:344,1,136.499993751526,2|0,1:2|0:0,0:0:0:0:
336,345,16371,2,0,L|323:219,1,90.9999958343508,10|0,0:0|0:0,0:0:0:0:
348,148,16705,1,0,1:2:0:0:
268,72,16871,1,2,0:0:0:0:
256,214,17038,1,10,0:0:0:0:
405,91,17205,1,8,0:0:0:0:
420,97,17288,1,8,0:0:0:0:
433,103,17371,6,0,L|415:217,1,90.9999958343508,6|0,1:2|0:0,0:0:0:0:
339,317,17705,1,10,0:0:0:0:
460,260,17871,1,0,0:0:0:0:
300,138,18038,5,2,1:2:0:0:
272,279,18205,1,2,0:0:0:0:
304,142,18371,1,8,0:0:0:0:
276,283,18538,1,2,0:0:0:0:
138,87,18705,6,0,L|156:201,1,90.9999958343508,6|0,1:2|0:0,0:0:0:0:
182,312,19038,1,10,0:0:0:0:
88,224,19204,1,0,0:0:0:0:
235,142,19371,5,2,1:2:0:0:
262,273,19538,1,2,0:0:0:0:
239,145,19704,1,8,0:0:0:0:
266,276,19871,1,2,0:0:0:0:
322,136,20038,5,6,1:2:0:0:
193,211,20205,1,0,3:2:0:0:
276,72,20371,1,10,0:0:0:0:
329,216,20538,1,0,3:2:0:0:
386,92,20705,5,2,1:2:0:0:
388,62,20788,1,2,0:0:0:0:
409,44,20871,1,2,3:2:0:0:
436,41,20954,1,2,3:2:0:0:
458,57,21038,1,2,1:2:0:0:
465,84,21121,1,2,0:0:0:0:
453,109,21204,1,2,3:2:0:0:
445,136,21288,1,2,3:2:0:0:
452,171,21371,6,0,L|440:276,1,83.9999974365235,4|0,0:0|0:0,0:0:0:0:
215,349,21705,2,0,L|168:368,1,41.9999987182618
297,316,21871,2,0,L|351:341,1,41.9999987182618
227,267,22038,2,0,L|226:213,1,41.9999987182618,0|0,1:0|0:0,0:0:0:0:
323,165,22205,2,0,L|352:165,2,27.9999991455078,0|0|0,1:0|1:0|0:0,0:0:0:0:
306,176,22371,6,0,P|274:93|351:70,1,178.500003404617,10|0,0:0|0:0,0:0:0:0:
399,131,22705,6,0,L|395:227,1,90.9999958343508,6|0,1:2|0:0,0:0:0:0:
421,368,23038,1,10,0:0:0:0:
472,277,23205,2,0,B|476:171,1,90.9999958343508,2|0,0:0|1:2,0:0:0:0:
507,100,23538,1,0,0:0:0:0:
361,50,23705,1,10,0:0:0:0:
393,196,23871,1,2,0:0:0:0:
297,123,24038,5,2,1:2:0:0:
422,96,24205,1,0,0:0:0:0:
287,37,24371,1,10,0:0:0:0:
263,202,24538,1,0,0:0:0:0:
179,67,24705,2,0,L|187:158,1,90.9999958343508,2|0,1:2|0:0,0:0:0:0:
43,240,25038,2,0,L|55:149,1,90.9999958343508,10|0,0:0|0:0,0:0:0:0:
132,332,25371,5,2,1:2:0:0:
168,182,25538,1,0,0:0:0:0:
51,241,25705,1,10,0:0:0:0:
218,271,25871,2,0,B|206:368,1,90.9999958343508,2|0,0:0|1:2,0:0:0:0:
339,352,26205,1,2,0:0:0:0:
225,275,26371,1,10,0:0:0:0:
393,268,26538,1,2,0:0:0:0:
311,188,26705,5,2,1:2:0:0:
339,352,26871,1,0,0:0:0:0:
232,281,27038,1,10,0:0:0:0:
393,268,27205,1,0,0:0:0:0:
234,176,27371,2,0,L|241:266,1,90.9999958343508,2|0,1:2|0:0,0:0:0:0:
393,268,27705,2,0,L|401:178,1,90.9999958343508,10|0,0:0|0:0,0:0:0:0:
318,222,28038,5,2,1:2:0:0:
147,192,28205,1,2,0:0:0:0:
318,222,28371,1,8,0:0:0:0:
147,192,28538,2,0,L|154:282,1,90.9999958343508,2|0,0:0|1:2,0:0:0:0:
302,344,28871,5,2,0:0:0:0:
134,366,29038,1,10,0:0:0:0:
302,344,29205,2,0,L|309:253,1,90.9999958343508,2|0,0:0|1:2,0:0:0:0:
224,126,29538,5,2,0:0:0:0:
394,173,29705,1,10,0:0:0:0:
224,126,29871,2,0,L|230:217,1,90.9999958343508,2|0,0:0|1:2,0:0:0:0:
319,91,30205,5,2,0:0:0:0:
446,99,30371,1,10,0:0:0:0:
446,99,30538,1,0,0:0:0:0:
292,176,30705,5,6,1:2:0:0:
386,29,30871,1,0,0:0:0:0:
452,191,31038,1,10,0:0:0:0:
319,91,31205,2,0,L|219:116,1,90.9999958343508,2|0,0:0|1:2,0:0:0:0:
112,164,31538,1,2,0:0:0:0:
147,288,31705,1,10,0:0:0:0:
215,191,31871,1,2,0:0:0:0:
284,305,32038,6,0,P|369:337|452:294,1,181.999991668702,6|0,1:2|0:0,0:0:0:0:
512,143,32538,1,2,1:2:0:0:
512,143,32621,1,2,0:0:0:0:
512,143,32705,2,0,L|461:135,1,45.4999979171754,0|0,1:2|0:0,0:0:0:0:
369,175,32871,2,0,L|400:180,2,30.3333319447836,0|0|0,1:0|1:0|0:0,0:0:0:0:
351,191,33038,6,0,B|307:208|307:208|325:68,1,178.500003404617,10|0,0:0|0:0,0:0:0:0:
378,26,33371,6,0,L|258:51,1,90.9999958343508,6|0,1:2|0:0,0:0:0:0:
163,175,33705,1,10,0:0:0:0:
98,76,33871,2,0,B|215:91,1,90.9999958343508,2|0,0:0|1:2,0:0:0:0:
289,45,34205,1,2,0:0:0:0:
315,194,34371,1,10,0:0:0:0:
389,89,34538,1,0,0:0:0:0:
469,238,34705,5,2,1:2:0:0:
316,275,34871,1,0,0:0:0:0:
392,190,35038,1,10,0:0:0:0:
356,345,35205,1,0,0:0:0:0:
231,199,35371,2,0,L|238:289,1,90.9999958343508,2|0,1:2|0:0,0:0:0:0:
59,259,35705,2,0,L|67:169,1,90.9999958343508,10|0,0:0|0:0,0:0:0:0:
123,337,36038,5,2,1:2:0:0:
231,199,36205,1,0,0:0:0:0:
257,333,36371,1,10,0:0:0:0:
144,241,36538,2,0,B|153:124,1,90.9999958343508,2|0,0:0|1:2,0:0:0:0:
131,0,36871,1,2,0:0:0:0:
78,134,37038,1,10,0:0:0:0:
184,54,37205,1,2,0:0:0:0:
265,166,37371,6,0,L|257:75,1,90.9999958343508,2|0,1:2|0:0,0:0:0:0:
444,113,37705,2,0,L|437:204,1,90.9999958343508,10|0,0:0|0:0,0:0:0:0:
346,21,38038,1,2,1:2:0:0:
360,169,38205,1,0,0:0:0:0:
257,75,38371,1,10,0:0:0:0:
444,113,38538,1,0,0:0:0:0:
235,223,38705,5,6,1:2:0:0:
377,248,38871,1,2,0:0:0:0:
235,223,39038,1,8,0:0:0:0:
377,248,39205,2,0,L|369:338,1,90.9999958343508,2|0,0:0|1:2,0:0:0:0:
147,359,39538,5,2,0:0:0:0:
297,311,39705,1,10,0:0:0:0:
147,359,39871,2,0,L|154:268,1,90.9999958343508,2|4,0:0|1:2,0:0:0:0:
35,146,40205,5,2,0:0:0:0:
180,195,40371,1,10,0:0:0:0:
35,146,40538,2,0,L|28:236,1,90.9999958343508,2|0,0:0|1:2,0:0:0:0:
63,73,40871,5,2,0:0:0:0:
180,195,41038,1,10,0:0:0:0:
180,195,41205,1,2,0:0:0:0:
227,0,41371,5,4,1:2:0:0:
120,140,41537,1,2,0:0:0:0:
107,8,41705,1,8,0:0:0:0:
261,83,41871,2,0,B|253:190,1,90.9999958343508,2|0,0:0|1:2,0:0:0:0:
188,276,42205,1,2,0:0:0:0:
311,362,42371,1,10,0:0:0:0:
311,362,42538,1,2,0:0:0:0:
488,265,42705,6,0,P|440:215|314:224,1,181.999991668702,6|0,1:2|0:0,0:0:0:0:
387,339,43205,1,2,1:2:0:0:
387,339,43288,1,0,0:0:0:0:
387,339,43371,2,0,L|389:281,1,45.4999979171754,4|0,0:0|0:0,0:0:0:0:
376,132,43538,2,0,L|373:168,2,30.3333319447836,0|0|0,1:0|1:0|0:0,0:0:0:0:
357,120,43705,6,0,P|298:93|294:172,1,146.999995513916,10|0,0:0|0:0,0:0:0:0:
278,156,44038,6,0,L|285:87,1,70,2|0,1:2|0:0,0:0:0:0:
160,60,44371,2,0,L|169:161,1,70,2|0,0:0|0:0,0:0:0:0:
84,259,44705,2,0,P|128:254|160:234,1,70,2|0,0:0|0:0,0:0:0:0:
1,160,45038,2,0,P|45:165|77:185,1,70,2|0,0:0|0:0,0:0:0:0:
200,310,45371,6,0,P|219:283|145:246,1,140,2|0,1:2|0:0,0:0:0:0:
122,368,45871,1,2,0:0:0:0:
200,310,46038,2,0,L|281:296,1,70,2|0,0:0|0:0,0:0:0:0:
256,202,46371,2,0,L|345:222,1,70,2|0,0:0|0:0,0:0:0:0:
459,153,46705,6,0,P|410:157|388:173,1,70,2|0,1:2|0:0,0:0:0:0:
512,258,47038,2,0,P|462:249|436:228,1,70,2|0,0:0|0:0,0:0:0:0:
320,135,47371,2,0,P|276:144|253:164,1,70,2|0,0:0|0:0,0:0:0:0:
238,243,47705,1,2,0:0:0:0:
327,221,47871,1,2,0:0:0:0:
257,159,48038,2,0,P|236:126|234:91,1,70,2|0,1:2|0:0,0:0:0:0:
105,32,48371,6,0,P|142:25|177:33,1,70,2|0,0:0|0:0,0:0:0:0:
71,151,48705,2,0,P|105:118|137:106,1,70,2|0,0:0|0:0,0:0:0:0:
137,256,49038,2,0,P|135:218|145:187,1,70,2|0,0:0|0:0,0:0:0:0:
236,332,49371,6,0,P|194:293|110:291,1,140,2|0,1:2|0:0,0:0:0:0:
51,360,49871,1,2,0:0:0:0:
147,384,50038,2,0,P|196:370|221:354,1,70,2|0,0:0|0:0,0:0:0:0:
304,312,50371,6,0,L|294:381,1,70,2|0,0:0|0:0,0:0:0:0:
398,303,50705,1,2,1:2:0:0:
336,235,50871,1,2,0:0:0:0:
398,303,51038,1,0,0:0:0:0:
454,230,51205,2,0,P|476:196|481:155,1,70,2|0,0:0|0:0,0:0:0:0:
393,136,51538,1,2,0:0:0:0:
302,151,51705,1,2,0:0:0:0:
393,136,51871,1,0,0:0:0:0:
440,62,52038,6,0,L|450:29,5,35,6|0|0|0|0|0,1:2|0:0|0:0|0:0|0:0|0:0,0:0:0:0:
349,63,52538,2,0,L|337:19,1,35,2|0,0:0|0:0,0:0:0:0:
457,88,52705,6,0,L|466:54,5,35,6|0|0|0|0|0,1:2|0:0|0:0|0:0|0:0|0:0,0:0:0:0:
364,37,53205,2,0,L|355:4,1,35,2|0,0:0|0:0,0:0:0:0:
403,178,53371,6,0,P|417:223|412:265,1,73.4999977569581,2|0,1:2|0:0,0:0:0:0:
366,322,53705,2,0,L|355:296,1,24.4999992523194,0|0,3:2|0:0,0:0:0:0:
236,230,53871,2,0,P|245:264|276:283,1,73.4999977569581
320,186,54205,2,0,L|327:158,2,16.3333328348796,2|0|0,1:2|1:2|0:0,0:0:0:0:
305,147,54371,6,0,P|273:110|169:112,1,125.999996154785,10|0,0:0|0:0,0:0:0:0:
117,155,54705,5,6,1:2:0:0:
217,205,54871,1,0,0:0:0:0:
124,267,55038,2,0,B|78:264|48:212,1,77.0000023498536,10|0,0:0|0:0,0:0:0:0:
217,205,55371,1,2,1:2:0:0:
124,267,55538,1,2,0:0:0:0:
212,336,55705,2,0,P|260:357|290:353,1,77.0000023498536,10|0,0:0|0:0,0:0:0:0:
370,220,56038,6,0,L|360:302,1,77.0000023498536,2|0,1:2|0:0,0:0:0:0:
470,283,56371,2,0,L|478:365,1,77.0000023498536,10|0,0:0|0:0,0:0:0:0:
445,184,56705,2,0,P|480:158|517:153,1,77.0000023498536,0|2,1:2|0:0,0:0:0:0:
334,139,57038,2,0,P|298:119|253:119,1,77.0000023498536,10|0,0:0|0:0,0:0:0:0:
163,98,57371,5,2,1:2:0:0:
229,22,57538,1,0,0:0:0:0:
263,117,57705,1,10,0:0:0:0:
208,201,57871,2,0,P|205:244|217:284,1,77.0000023498536,2|0,0:0|1:2,0:0:0:0:
298,314,58205,1,2,0:0:0:0:
213,276,58371,1,10,0:0:0:0:
142,335,58538,2,0,P|108:344|74:369,1,77.0000023498536,2|0,0:0|1:2,0:0:0:0:
0,316,58871,1,0,0:0:0:0:
142,335,59038,6,0,P|183:323|208:300,1,77.0000023498536,10|0,0:0|0:0,0:0:0:0:
79,212,59371,2,0,P|103:239|151:252,1,77.0000023498536,2|0,1:2|0:0,0:0:0:0:
136,93,59705,2,0,P|136:142|153:175,1,77.0000023498536,10|0,0:0|0:0,0:0:0:0:
280,26,60038,6,0,P|216:82|146:78,1,154.000004699707,6|8,1:2|0:0,0:0:0:0:
58,2,60538,1,2,0:0:0:0:
0,110,60705,2,0,P|36:141|84:150,1,77.0000023498536,2|0,1:2|0:0,0:0:0:0:
164,190,61038,1,10,0:0:0:0:
246,129,61205,1,0,0:0:0:0:
332,184,61371,6,0,P|337:244|323:279,1,77.0000023498536,4|0,1:2|0:0,0:0:0:0:
221,384,61705,1,10,0:0:0:0:
245,293,61871,1,0,0:0:0:0:
332,259,62038,2,0,P|394:253|420:266,1,77.0000023498536,2|0,1:2|0:0,0:0:0:0:
456,347,62371,1,10,0:0:0:0:
512,258,62538,1,2,0:0:0:0:
461,171,62705,6,0,L|467:132,3,35,6|0|0|0,1:2|0:0|0:0|0:0,0:0:0:0:
450,58,63038,2,0,L|444:23,1,35,8|0,0:0|0:0,0:0:0:0:
377,90,63205,2,0,L|384:132,1,35,2|0,0:0|0:0,0:0:0:0:
479,187,63371,6,0,L|485:148,3,35,4|0|0|0,1:2|0:0|0:0|0:0,0:0:0:0:
461,60,63705,2,0,L|453:17,1,35,10|0,0:0|0:0,0:0:0:0:
363,87,63872,2,0,L|371:138,1,35,2|0,0:0|0:0,0:0:0:0:
280,199,64038,6,0,P|316:188|389:252,1,140,6|8,1:2|0:0,0:0:0:0:
292,332,64538,2,0,B|271:306|271:306|281:192,1,140,2|0,0:0|0:0,0:0:0:0:
189,137,65038,1,10,0:0:0:0:
189,137,65205,1,8,0:0:0:0:
30,321,65371,6,0,P|12:252|44:171,1,140,6|0,1:2|0:0,0:0:0:0:
161,212,65871,2,0,P|153:280|113:337,1,140,2|0,0:0|0:0,0:0:0:0:
89,134,66371,1,10,0:0:0:0:
161,212,66538,1,2,0:0:0:0:
249,58,66705,6,0,P|234:127|270:208,1,140,2|0,1:2|0:0,0:0:0:0:
381,162,67205,2,0,P|372:94|328:39,1,140,2|0,0:0|0:0,0:0:0:0:
317,245,67705,1,10,0:0:0:0:
381,162,67871,1,2,0:0:0:0:
206,196,68038,6,0,P|226:255|223:350,1,140,2|0,1:2|0:0,0:0:0:0:
123,226,68538,2,0,P|103:167|106:72,1,140,2|0,0:0|0:0,0:0:0:0:
211,30,69038,2,0,P|223:77|222:109,1,70,10|2,0:0|0:0,0:0:0:0:
381,136,69371,2,0,P|319:128|353:62,1,140,2|8,1:2|0:0,0:0:0:0:
470,59,69871,5,2,3:2:0:0:
478,76,69955,1,2,3:2:0:0:
479,100,70038,2,0,P|480:123|472:145,1,35,0|0,3:2|1:2,0:0:0:0:
426,210,70205,1,2,1:2:0:0:
306,165,70371,6,0,P|346:138|404:143,1,84,10|0,0:0|0:0,0:0:0:0:
426,210,70705,6,0,L|413:313,1,83.9999974365235,6|0,1:2|0:0,0:0:0:0:
251,227,71038,2,0,P|227:184|233:132,1,83.9999974365235,8|0,0:0|0:0,0:0:0:0:
258,362,71371,2,0,L|174:340,1,83.9999974365235,2|0,1:2|0:0,0:0:0:0:
88,155,71705,2,0,P|130:176|154:215,1,83.9999974365235,8|0,0:0|0:0,0:0:0:0:
17,321,72038,6,0,L|-2:233,2,83.9999974365235,2|0|8,1:2|0:0|0:0,0:0:0:0:
111,381,72538,1,2,0:0:0:0:
219,273,72705,6,0,P|258:301|278:340,1,83.9999974365235,2|0,1:2|0:0,0:0:0:0:
415,215,73038,2,0,P|380:243|365:284,1,83.9999974365235,10|0,0:0|0:0,0:0:0:0:
218,157,73371,2,0,P|177:176|160:209,1,83.9999974365235,6|0,1:2|0:0,0:0:0:0:
369,71,73705,2,0,P|410:90|435:121,1,83.9999974365235,10|0,0:0|0:0,0:0:0:0:
415,215,74038,5,6,1:2:0:0:
415,215,74205,1,2,0:0:0:0:
496,76,74371,1,8,0:0:0:0:
338,151,74538,2,0,P|280:159|316:70,1,167.999994873047,14|2,1:2|0:0,0:0:0:0:
399,38,75038,1,2,0:0:0:0:
399,38,75538,6,0,L|346:45,1,35,2|2,1:2|0:0,0:0:0:0:
283,74,75705,2,0,L|157:42,1,125.999996154785,10|0,3:2|0:0,0:0:0:0:
160,42,76038,6,0,P|176:108|209:133,1,105.000004005432,6|0,1:2|0:0,0:0:0:0:
323,338,76371,1,10,0:0:0:0:
383,168,76538,1,0,0:0:0:0:
436,304,76705,1,2,1:2:0:0:
275,214,76871,1,2,0:0:0:0:
391,176,77038,1,10,0:0:0:0:
391,176,77121,1,2,0:0:0:0:
391,176,77205,1,2,0:0:0:0:
323,338,77371,6,0,P|274:350|217:335,1,105.000004005432,2|0,1:2|0:0,0:0:0:0:
51,200,77705,2,0,P|100:188|157:203,1,105.000004005432,10|0,0:0|0:0,0:0:0:0:
221,337,78038,1,2,1:2:0:0:
330,197,78205,1,2,0:0:0:0:
252,58,78371,2,0,L|232:171,1,105.000004005432,10|0,0:0|0:0,0:0:0:0:
333,298,78705,5,2,1:2:0:0:
353,298,78788,1,2,0:0:0:0:
373,292,78871,1,2,0:0:0:0:
330,197,79038,1,8,0:0:0:0:
305,326,79205,2,0,P|364:331|411:304,1,105.000004005432,2|0,0:0|1:2,0:0:0:0:
424,158,79538,1,2,0:0:0:0:
481,314,79705,1,8,0:0:0:0:
505,174,79871,1,2,0:0:0:0:
330,197,80038,6,0,L|345:86,1,105.000004005432,2|0,1:2|0:0,0:0:0:0:
423,0,80371,1,10,0:0:0:0:
461,116,80538,1,2,0:0:0:0:
247,26,80705,1,2,1:2:0:0:
252,57,80788,1,2,0:0:0:0:
257,87,80871,1,2,0:0:0:0:
222,177,81038,1,8,0:0:0:0:
344,92,81205,1,2,0:0:0:0:
123,38,81371,6,0,B|148:99|148:99|85:168|144:251,1,210.000008010865,6|8,1:2|0:0,0:0:0:0:
222,177,81871,1,0,0:0:0:0:
52,252,82038,2,0,P|104:252|159:294,1,105.000004005432,2|0,1:2|0:0,0:0:0:0:
171,309,82288,1,0,0:0:0:0:
171,309,82371,1,10,0:0:0:0:
79,346,82538,1,0,0:0:0:0:
257,251,82705,6,0,L|248:374,1,105.000004005432,2|0,1:2|0:0,0:0:0:0:
358,328,83038,1,10,0:0:0:0:
192,197,83205,2,0,P|230:171|296:178,1,105.000004005432,2|0,0:0|1:2,0:0:0:0:
458,106,83538,2,0,P|406:101|354:135,1,105.000004005432,2|8,0:0|0:0,0:0:0:0:
366,336,83871,1,2,0:0:0:0:
366,336,83955,1,0,0:0:0:0:
366,336,84038,6,0,B|392:363|392:363|419:238,1,140,0|2,1:2|0:0,0:0:0:0:
287,173,84538,2,0,B|250:182|250:182|345:267,1,140,2|0,0:0|0:0,0:0:0:0:
380,181,85038,1,2,0:0:0:0:
468,186,85205,2,0,B|478:149|478:149|356:189,1,140,2|0,0:0|0:0,0:0:0:0:
326,250,85705,5,2,0:0:0:0:
245,197,85871,1,0,0:0:0:0:
231,308,86038,1,2,1:2:0:0:
130,251,86205,2,0,L|106:251,2,23.3333333333333,0|0|0,1:0|1:0|0:0,0:0:0:0:
142,259,86371,6,0,B|224:207|179:98,1,178.500003404617,8|0,3:2|0:0,0:0:0:0:
180,101,86705,6,0,P|178:161|238:213,1,105.000004005432,6|2,1:2|0:0,0:0:0:0:
279,345,87038,1,8,0:0:0:0:
322,220,87205,1,2,0:0:0:0:
160,311,87371,2,0,P|209:276|261:273,1,105.000004005432,0|2,1:2|0:0,0:0:0:0:
410,306,87705,1,10,0:0:0:0:
403,327,87788,1,2,0:0:0:0:
397,350,87871,1,2,0:0:0:0:
480,214,88038,6,0,P|460:180|452:113,1,105.000004005432,2|0,1:2|0:0,0:0:0:0:
500,36,88371,1,10,0:0:0:0:
412,175,88538,1,0,0:0:0:0:
292,52,88705,1,2,1:2:0:0:
337,206,88871,1,2,0:0:0:0:
412,30,89038,2,0,P|374:59|359:126,1,105.000004005432,10|0,0:0|0:0,0:0:0:0:
187,153,89371,5,2,1:2:0:0:
209,163,89455,1,2,0:0:0:0:
238,166,89538,1,2,0:0:0:0:
254,60,89705,1,10,0:0:0:0:
263,193,89871,2,0,P|211:197|162:175,1,105.000004005432,2|0,0:0|1:2,0:0:0:0:
7,84,90205,1,2,0:0:0:0:
92,0,90371,1,8,0:0:0:0:
174,82,90538,1,2,0:0:0:0:
24,181,90705,6,0,P|18:233|45:292,1,105.000004005432,6|0,1:2|0:0,0:0:0:0:
114,129,91038,1,10,0:0:0:0:
216,252,91205,2,0,P|236:201|236:136,1,105.000004005432,6|0,0:0|1:2,0:0:0:0:
319,326,91538,1,2,0:0:0:0:
394,190,91705,2,0,P|374:141|371:89,1,105.000004005432,14|0,0:0|0:0,0:0:0:0:
510,334,92038,6,0,B|451:310|451:310|402:361|322:322,1,167.999994873047,6|0,1:2|0:0,0:0:0:0:
266,259,92538,2,0,P|292:200|335:265,1,167.999994873047,2|2,0:0|0:0,0:0:0:0:
230,355,93038,1,10,0:0:0:0:
107,289,93205,1,2,0:0:0:0:
230,355,93371,6,0,B|202:309|202:309|222:182,1,167.999994873047,2|0,1:2|0:0,0:0:0:0:
117,130,93871,2,0,B|134:242|134:242|106:288,1,167.999994873047,2|2,0:0|0:0,0:0:0:0:
41,156,94371,1,10,0:0:0:0:
219,196,94538,1,2,0:0:0:0:
385,44,94705,6,0,P|315:22|251:89,1,167.999994873047,2|0,1:2|0:0,0:0:0:0:
187,122,95205,2,0,P|257:100|317:167,1,167.999994873047,2|2,0:0|0:0,0:0:0:0:
345,258,95705,1,10,0:0:0:0:
421,141,95871,1,2,0:0:0:0:
436,345,96038,6,0,L|394:337,5,35,6|2|2|2|0|0,1:2|0:0|0:0|0:0|0:0|0:0,0:0:0:0:
345,258,96538,2,0,L|389:249,1,35,2|0,0:0|0:0,0:0:0:0:
285,324,96705,5,6,1:2:0:0:
261,298,96788,1,2,0:0:0:0:
251,265,96871,1,2,0:0:0:0:
257,231,96954,1,2,0:0:0:0:
263,199,97038,2,0,P|217:151|147:190,1,136.499993751526,6|0,1:2|0:0,0:0:0:0:
106,257,97371,6,0,B|66:205|66:205|102:45,1,210.000008010865,6|8,1:2|0:0,0:0:0:0:
270,0,97871,1,2,0:0:0:0:
288,205,98038,1,6,1:2:0:0:
178,91,98205,1,0,0:0:0:0:
370,118,98371,2,0,P|409:154|413:224,1,105.000004005432,8|0,0:0|0:0,0:0:0:0:
474,47,98705,6,0,L|429:58,3,45.4999979171754,6|0|0|0,1:2|0:0|0:0|0:0,0:0:0:0:
370,118,99038,2,0,L|326:105,1,45.4999979171754,10|0,0:0|0:0,0:0:0:0:
294,13,99205,2,0,L|342:27,1,45.4999979171754,2|0,0:0|0:0,0:0:0:0:
487,72,99371,6,0,L|440:83,3,45.4999979171754,6|0|0|0,1:2|0:0|0:0|0:0,0:0:0:0:
377,143,99705,2,0,L|333:130,1,45.4999979171754,10|0,0:0|0:0,0:0:0:0:
284,38,99871,2,0,L|332:53,1,45.4999979171754
500,97,100038,6,0,L|453:108,3,45.4999979171754,6|0|0|0,1:2|0:0|3:2|0:0,0:0:0:0:
384,168,100371,2,0,L|340:155,1,45.4999979171754,10|0,1:2|0:0,0:0:0:0:
274,63,100538,2,0,L|322:78,1,45.4999979171754,2|0,3:2|0:0,0:0:0:0:
285,221,100705,5,6,1:2:0:0:
250,214,100788,1,0,0:0:0:0:
216,221,100871,1,0,3:2:0:0:
189,243,100955,1,0,3:2:0:0:
163,268,101038,1,14,1:2:0:0:
135,298,101121,1,0,0:0:0:0:
94,308,101204,1,0,3:2:0:0:
53,302,101288,1,0,3:2:0:0:
22,273,101371,6,0,P|83:199|175:214,1,181.999991668702,6|8,1:2|0:0,0:0:0:0:
236,384,101871,2,0,L|251:284,1,90.9999958343508,2|0,0:0|0:0,0:0:0:0:
120,304,102205,2,0,L|125:344,3,30.3333319447836,2|0|0|6,1:2|0:2|1:2|3:2,3:2:0:0:
407,102,102705,6,0,L|397:211,1,80.5000015354157,6|0,1:2|0:0,0:0:0:0:
319,265,103038,1,10,0:0:0:0:
244,152,103205,2,0,B|309:158|309:158|346:180|346:180|421:182,1,161.000003070831,2|0,0:0|0:0,0:0:0:0:
463,254,103705,1,10,0:0:0:0:
508,133,103871,1,0,0:0:0:0:
343,236,104038,6,0,P|365:202|430:174,1,80.5000015354157,2|0,1:2|0:0,0:0:0:0:
256,59,104371,2,0,P|278:93|343:121,1,80.5000015354157,10|0,0:0|0:0,0:0:0:0:
205,228,104705,1,2,0:0:0:0:
250,133,104871,1,0,0:0:0:0:
180,34,105038,2,0,P|146:55|124:89,1,80.5000015354157,10|0,0:0|0:0,0:0:0:0:
25,287,105371,6,0,P|70:260|91:205,1,80.5000015354157,2|0,1:2|0:0,0:0:0:0:
198,196,105705,1,10,0:0:0:0:
167,351,105871,2,0,B|173:286|173:286|195:249|195:249|200:181,1,161.000003070831,2|0,0:0|0:0,0:0:0:0:
271,152,106371,1,10,0:0:0:0:
377,285,106538,1,0,0:0:0:0:
345,198,106705,6,0,P|310:225|287:265,1,80.5000015354157,2|0,1:2|0:0,0:0:0:0:
415,140,107038,2,0,P|380:113|338:106,1,80.5000015354157,10|0,0:0|0:0,0:0:0:0:
440,219,107371,1,2,0:0:0:0:
501,154,107538,1,0,0:0:0:0:
377,285,107705,2,0,P|384:342|401:372,1,80.5000015354157,10|0,0:0|0:0,0:0:0:0:
483,343,108038,5,2,1:2:0:0:
377,285,108205,1,0,0:0:0:0:
440,219,108371,1,10,0:0:0:0:
326,185,108538,2,0,P|277:171|232:167,1,80.5000015354157,2|0,0:0|0:0,0:0:0:0:
393,114,108872,5,2,0:0:0:0:
326,185,109038,1,8,0:0:0:0:
247,167,109205,2,0,P|182:174|148:192,1,80.5000015354157,2|0,0:0|1:2,0:0:0:0:
284,73,109538,5,2,0:0:0:0:
247,167,109704,1,8,0:0:0:0:
168,179,109871,2,0,P|120:207|91:240,1,80.5000015354157,2|0,0:0|0:0,0:0:0:0:
54,376,110205,5,0,0:0:0:0:
10,250,110371,1,10,0:0:0:0:
10,250,110538,1,2,0:0:0:0:
193,358,110705,5,4,1:2:0:0:
161,203,110871,1,2,0:0:0:0:
300,256,111038,1,10,0:0:0:0:
193,358,111205,2,0,B|189:305|189:305|167:268|167:268|161:203,1,161.000003070831,2|0,0:0|0:0,0:0:0:0:
197,131,111705,1,10,0:0:0:0:
366,217,111871,1,0,0:0:0:0:
442,52,112038,6,0,P|377:70|328:157,1,161.000003070831,6|10,1:2|0:0,0:0:0:0:
440,271,112538,1,0,0:0:0:0:
441,254,112621,1,0,0:0:0:0:
443,237,112705,2,0,L|446:187,1,40.2500007677078,4|0,0:0|1:2,1:2:0:0:
354,314,112871,2,0,L|365:362,2,26.8333338451386,0|0|0,1:0|1:0|0:0,0:0:0:0:
325,301,113038,6,0,B|280:316|280:316|254:236|187:236,1,157.500006008148,10|0,3:2|0:0,0:0:0:0:
209,238,113371,6,0,P|197:303|209:348,1,80.5000015354157,6|0,1:2|0:0,0:0:0:0:
138,201,113705,1,8,0:0:0:0:
85,327,113871,2,0,B|142:332|142:332|181:354|181:354|265:361,1,161.000003070831,2|2,0:0|0:0,0:0:0:0:
368,339,114371,1,10,0:0:0:0:
240,359,114538,1,0,0:0:0:0:
368,339,114705,6,0,P|388:291|389:231,1,80.5000015354157,2|0,1:2|0:0,0:0:0:0:
240,359,115038,2,0,P|220:311|222:251,1,80.5000015354157,10|0,0:0|0:0,0:0:0:0:
253,139,115371,1,2,0:0:0:0:
307,280,115538,1,0,0:0:0:0:
328,118,115705,1,10,0:0:0:0:
207,207,115871,1,0,0:0:0:0:
422,165,116038,6,0,P|398:201|391:266,1,80.5000015354157,2|0,1:2|0:0,0:0:0:0:
307,280,116371,1,8,0:0:0:0:
389,236,116538,2,0,B|385:172|385:172|362:132|362:132|357:61,1,161.000003070831,2|0,0:0|0:0,0:0:0:0:
394,0,117038,1,10,0:0:0:0:
279,79,117205,1,0,0:0:0:0:
165,13,117371,6,0,L|178:112,1,80.5000015354157,2|0,1:2|0:0,0:0:0:0:
291,0,117705,2,0,L|276:102,1,80.5000015354157,10|0,0:0|0:0,0:0:0:0:
170,189,118038,1,2,0:0:0:0:
329,145,118205,1,0,0:0:0:0:
176,93,118371,1,10,0:0:0:0:
240,225,118538,1,0,0:0:0:0:
101,137,118705,6,0,P|74:191|76:229,1,80.5000015354157,6|0,1:2|0:0,0:0:0:0:
108,330,119038,1,8,0:0:0:0:
240,225,119205,2,0,P|186:198|147:198,1,80.5000015354157,2|0,0:0|0:0,0:0:0:0:
209,334,119538,5,2,0:0:0:0:
331,305,119705,1,8,0:0:0:0:
301,175,119871,2,0,P|257:202|227:254,1,80.5000015354157,2|4,0:0|1:2,0:0:0:0:
397,226,120205,5,2,0:0:0:0:
432,132,120371,1,8,0:0:0:0:
312,97,120538,2,0,P|297:148|312:201,1,80.5000015354157
385,65,120871,5,0,0:0:0:0:
259,33,121038,1,10,0:0:0:0:
259,33,121205,1,2,0:0:0:0:
202,161,121371,5,6,1:2:0:0:
67,103,121538,1,0,0:0:0:0:
170,6,121705,1,8,0:0:0:0:
202,161,121871,2,0,B|195:87|195:87|172:46|172:46|170:6,1,161.000003070831,2|0,0:0|0:0,0:0:0:0:
67,103,122371,1,10,0:0:0:0:
202,161,122538,1,2,0:0:0:0:
174,318,122705,6,0,P|240:327|303:253,1,161.000003070831,6|8,1:2|0:0,0:0:0:0:
202,161,123205,1,2,0:0:0:0:
195,186,123288,1,2,0:0:0:0:
197,208,123371,2,0,L|215:243,1,40.2500007677078,4|0,0:0|0:0,0:0:0:0:
370,307,123538,2,0,L|372:265,2,26.8333338451386,0|0|0,1:0|1:0|0:0,0:0:0:0:
358,321,123705,6,0,B|318:338|318:338|452:383,1,157.500006008148,10|0,3:2|0:0,0:0:0:0:
475,315,124038,6,0,B|468:284|468:284|476:254|476:254|466:205,1,77.0000023498536,6|0,3:2|0:0,0:0:0:0:
354,96,124371,2,0,B|396:71|396:71|475:74|513:135,1,154.000004699707,10|0,0:0|0:0,0:0:0:0:
474,241,124871,1,2,3:2:0:0:
341,169,125038,2,0,P|340:124|364:83,1,77.0000023498536,10|0,0:0|0:0,0:0:0:0:
474,241,125371,6,0,P|428:265|374:263,1,77.0000023498536,2|0,3:2|0:0,0:0:0:0:
269,104,125705,2,0,B|298:135|298:135|297:208|263:236,1,154.000004699707,10|0,0:0|0:0,0:0:0:0:
215,307,126205,1,0,3:0:0:0:
139,199,126371,2,0,P|188:167|233:163,1,77.0000023498536,8|0,0:0|0:0,0:0:0:0:
215,307,126705,6,0,P|173:336|117:341,1,77.0000023498536,2|0,3:2|0:0,0:0:0:0:
48,160,127038,2,0,B|5:195|5:195|-6:262|48:302,1,154.000004699707,8|0,0:0|0:0,0:0:0:0:
139,199,127538,1,2,3:2:0:0:
82,94,127705,2,0,P|50:139|53:190,1,77.0000023498536,10|0,0:0|0:0,0:0:0:0:
185,51,128038,5,2,3:2:0:0:
218,175,128205,1,2,3:2:0:0:
277,91,128371,2,0,L|380:71,1,77.0000023498536,10|0,0:0|0:0,0:0:0:0:
468,196,128705,2,0,L|363:175,1,77.0000023498536,2|0,0:0|3:0,0:0:0:0:
287,299,129038,2,0,L|390:278,1,77.0000023498536,10|0,0:0|0:0,0:0:0:0:
491,369,129371,5,2,3:2:0:0:
387,279,129538,1,0,0:0:0:0:
468,196,129705,2,0,B|490:147|490:147|470:82|427:76,1,154.000004699707,8|0,0:0|0:0,0:0:0:0:
339,159,130205,1,2,3:2:0:0:
218,119,130371,1,8,0:0:0:0:
305,27,130538,1,2,0:0:0:0:
218,119,130705,6,0,P|211:172|227:212,1,77.0000023498536,0|2,3:2|0:0,0:0:0:0:
319,285,131038,2,0,B|292:247|292:247|222:222|177:272,1,154.000004699707,10|0,0:0|0:0,0:0:0:0:
93,367,131538,1,2,3:2:0:0:
204,333,131705,1,8,0:0:0:0:
118,255,131871,1,2,0:0:0:0:
18,308,132038,6,0,P|0:268|3:219,1,77.0000023498536,2|0,3:2|0:0,0:0:0:0:
158,153,132371,2,0,B|108:178|108:178|43:162|27:97,1,154.000004699707,10|0,0:0|0:0,0:0:0:0:
126,46,132871,1,2,3:2:0:0:
158,153,133038,1,8,0:0:0:0:
234,61,133205,1,0,0:0:0:0:
304,155,133371,6,0,L|278:249,1,77.0000023498536,2|0,3:2|0:0,0:0:0:0:
332,306,133705,1,10,0:0:0:0:
397,188,133871,2,0,L|381:92,1,77.0000023498536,0|0,3:0|0:0,0:0:0:0:
415,15,134205,1,2,3:2:0:0:
293,78,134371,2,0,L|305:166,1,77.0000023498536,10|2,0:0|0:0,0:0:0:0:
94,284,134705,6,0,P|136:266|196:273,1,83.9999974365235,6|0,3:2|0:0,0:0:0:0:
289,328,135038,1,10,0:0:0:0:
339,205,135205,2,0,L|243:223,1,83.9999974365235
292,344,135538,1,2,3:2:0:0:
398,260,135705,1,10,0:0:0:0:
270,169,135871,1,0,0:0:0:0:
398,260,136038,6,0,P|407:313|400:352,1,83.9999974365235,2|0,3:2|0:0,0:0:0:0:
270,169,136371,2,0,P|261:116|268:76,1,83.9999974365235,10|0,0:0|0:0,0:0:0:0:
360,0,136705,1,2,0:0:0:0:
360,140,136871,1,0,3:2:0:0:
434,35,137038,2,0,P|391:7|328:0,1,83.9999974365235,10|0,0:0|0:0,0:0:0:0:
270,169,137371,6,0,P|261:116|268:76,1,83.9999974365235,2|0,3:2|0:0,0:0:0:0:
198,1,137705,1,10,0:0:0:0:
105,122,137871,2,0,P|162:139|184:183,1,83.9999974365235,2|0,0:0|0:0,3:2:0:0:
223,279,138205,1,2,3:2:0:0:
270,169,138371,1,8,0:0:0:0:
139,241,138538,1,0,0:0:0:0:
105,122,138705,6,0,P|162:139|184:183,1,83.9999974365235,2|0,3:2|3:2,3:2:0:0:
306,241,139038,2,0,P|341:211|347:158,1,83.9999974365235,10|0,0:0|0:0,0:0:0:0:
223,279,139371,2,0,P|248:319|296:339,1,83.9999974365235,2|0,3:2|3:0,0:0:0:0:
139,241,139705,2,0,P|122:285|136:336,1,83.9999974365235,8|0,0:0|0:0,0:0:0:0:
306,241,140038,5,4,3:2:0:0:
223,279,140205,1,0,0:0:0:0:
179,158,140371,2,0,B|197:131|197:131|284:98|338:183,1,167.999994873047,8|0,0:0|0:0,0:0:0:0:
395,258,140871,1,2,3:2:0:0:
471,101,141038,2,0,P|418:78|385:87,1,83.9999974365235,8|0,0:0|0:0,0:0:0:0:
395,258,141371,5,4,3:2:0:0:
485,192,141538,1,0,0:0:0:0:
320,159,141705,1,8,0:0:0:0:
386,35,141871,1,0,0:0:0:0:
401,174,142038,1,0,3:0:0:0:
312,74,142205,1,2,3:2:0:0:
469,30,142371,2,0,P|479:90|462:125,1,83.9999974365235,10|0,0:0|0:0,0:0:0:0:
401,174,142705,5,6,3:2:0:0:
312,74,142871,1,0,0:0:0:0:
219,208,143038,2,0,P|203:248|208:310,1,83.9999974365235,10|0,0:0|0:0,0:0:0:0:
299,183,143371,1,6,3:2:0:0:
241,22,143538,1,0,3:2:0:0:
159,159,143705,1,10,0:0:0:0:
312,74,143871,1,0,0:0:0:0:
359,271,144038,6,0,P|316:238|261:244,1,83.9999974365235,6|0,3:2|0:0,0:0:0:0:
288,236,144288,1,2,0:0:0:0:
288,236,144371,1,10,0:0:0:0:
151,299,144538,1,2,0:0:0:0:
98,136,144705,5,2,0:0:0:0:
111,131,144788,1,2,0:0:0:0:
129,126,144871,1,2,0:0:0:0:
152,123,144955,1,2,0:0:0:0:
178,129,145038,2,0,B|229:152|229:152|271:94|358:112,1,157.500006008148,10|0,0:0|0:0,0:0:0:0:
389,136,145371,6,0,B|395:189|395:189|379:279,1,140,6|0,1:2|0:0,0:0:0:0:
480,190,145871,2,0,B|474:243|474:243|490:333,1,140,2|0,0:0|0:0,0:0:0:0:
330,361,146371,1,10,0:0:0:0:
360,220,146538,1,0,0:0:0:0:
212,304,146705,6,0,B|103:316|103:316|54:288,1,140,2|0,1:2|0:0,0:0:0:0:
0,173,147205,2,0,B|112:168|112:168|158:189,1,140,2|0,0:0|0:0,0:0:0:0:
207,227,147705,1,10,0:0:0:0:
243,69,147871,1,0,0:0:0:0:
305,218,148038,6,0,P|239:200|209:139,1,140,2|0,1:2|0:0,0:0:0:0:
416,73,148538,2,0,P|429:112|376:206,1,140,2|2,0:0|0:0,0:0:0:0:
296,361,149038,1,8,0:0:0:0:
390,197,149205,1,0,0:0:0:0:
399,365,149371,2,0,P|346:353|305:272,1,140,2|8,0:0|0:0,0:0:0:0:
393,221,149871,5,2,3:2:0:0:
396,233,149955,1,2,3:2:0:0:
397,242,150038,2,0,P|400:262|392:288,1,35,0|0,3:2|1:2,0:0:0:0:
304,282,150205,1,2,1:2:0:0:
403,121,150371,6,0,P|365:105|326:118,1,84,8|0,0:0|0:0,0:0:0:0:
298,194,150705,6,0,L|275:85,1,90.9999958343508,6|0,1:2|0:0,0:0:0:0:
108,28,151038,2,0,P|151:1|206:6,1,90.9999958343508,8|0,0:0|0:0,0:0:0:0:
154,200,151371,2,0,L|177:91,1,90.9999958343508,2|0,1:2|0:0,0:0:0:0:
224,287,151705,2,0,P|177:312|126:309,1,90.9999958343508,8|0,0:0|0:0,0:0:0:0:
9,159,152038,6,0,L|27:248,1,90.9999958343508,2|0,1:2|0:0,0:0:0:0:
96,384,152371,1,10,0:0:0:0:
224,287,152538,1,2,0:0:0:0:
391,346,152705,2,0,P|326:352|295:387,1,90.9999958343508,6|0,1:2|0:0,0:0:0:0:
438,217,153038,2,0,P|377:197|346:155,1,90.9999958343508,8|0,0:0|0:0,0:0:0:0:
293,40,153371,6,0,L|260:31,3,35,6|0|0|0,1:2|0:0|0:0|0:0,0:0:0:0:
375,88,153705,2,0,L|419:100,1,35,10|0,0:0|0:0,0:0:0:0:
324,161,153871,2,0,L|368:173,1,35,2|0,0:0|0:0,0:0:0:0:
232,113,154038,6,0,L|199:104,3,35,6|0|0|0,1:2|0:0|0:0|0:0,0:0:0:0:
268,232,154371,2,0,L|312:244,1,35,12|0,0:0|0:0,0:0:0:0:
177,184,154538,6,0,P|166:237|221:323,1,140,12|2,0:0|0:0,0:0:0:0:
268,232,155038,1,2,0:0:0:0:
291,225,155121,1,2,0:0:0:0:
315,222,155204,1,2,0:0:0:0:
340,222,155288,1,2,0:0:0:0:
364,227,155371,1,8,0:0:0:0:
439,101,155538,1,0,1:0:0:0:
432,87,155621,1,0,1:0:0:0:
423,70,155705,6,0,P|380:88|280:13,1,157.500006008148,8|0,0:0|0:0,0:0:0:0:
295,13,156038,6,0,P|290:55|219:88,1,105.000004005432,6|0,1:2|0:0,0:0:0:0:
66,152,156371,1,10,0:0:0:0:
167,56,156538,1,2,0:0:0:0:
124,226,156705,1,0,1:2:0:0:
232,121,156871,1,2,0:0:0:0:
66,152,157038,1,10,0:0:0:0:
59,126,157121,1,2,0:0:0:0:
57,99,157205,1,2,0:0:0:0:
246,217,157371,6,0,P|192:227|149:259,1,105.000004005432,2|0,1:2|0:0,0:0:0:0:
7,347,157705,2,0,P|49:376|101:385,1,105.000004005432,10|0,0:0|0:0,0:0:0:0:
255,344,158038,1,2,1:2:0:0:
151,255,158205,1,2,0:0:0:0:
318,172,158371,2,0,P|319:224|294:281,1,105.000004005432,10|0,0:0|0:0,0:0:0:0:
162,137,158705,5,2,1:2:0:0:
186,126,158788,1,2,0:0:0:0:
212,126,158871,1,2,0:0:0:0:
318,172,159038,1,8,0:0:0:0:
402,101,159205,2,0,P|414:54|397:-10,1,105.000004005432,2|0,0:0|1:2,0:0:0:0:
327,53,159538,1,2,0:0:0:0:
396,206,159705,1,10,0:0:0:0:
490,99,159871,1,0,0:0:0:0:
481,272,160038,6,0,P|427:276|384:303,1,105.000004005432,2|0,1:2|0:0,0:0:0:0:
274,221,160371,1,8,0:0:0:0:
341,375,160538,1,0,0:0:0:0:
401,245,160705,1,2,1:2:0:0:
382,226,160788,1,2,0:0:0:0:
358,214,160871,1,2,0:0:0:0:
204,291,161038,2,0,P|249:266|273:220,1,105.000004005432,8|0,0:0|0:0,0:0:0:0:
174,7,161371,6,0,B|199:68|199:68|136:137|195:220,1,210.000008010865,6|8,1:2|0:0,0:0:0:0:
331,290,161871,1,2,0:0:0:0:
183,201,162038,2,0,P|123:200|80:216,1,105.000004005432,2|0,1:2|0:0,0:0:0:0:
81,215,162288,1,0,0:0:0:0:
81,215,162371,1,8,0:0:0:0:
0,143,162538,1,0,0:0:0:0:
57,360,162705,6,0,P|110:342|156:300,1,105.000004005432,2|0,1:2|0:0,0:0:0:0:
183,201,163038,1,10,0:0:0:0:
0,143,163205,2,0,P|37:184|93:210,1,105.000004005432,2|0,0:0|1:2,0:0:0:0:
243,293,163538,2,0,P|289:269|323:229,1,105.000004005432,2|8,0:0|0:0,0:0:0:0:
478,167,163871,1,2,0:0:0:0:
466,162,163955,1,0,0:0:0:0:
456,157,164038,6,0,B|434:257|434:257|408:230,1,140,0|2,1:2|0:0,0:0:0:0:
367,150,164538,2,0,B|291:81|291:81|327:72,1,140,2|2,0:0|0:0,0:0:0:0:
421,80,165038,1,2,0:0:0:0:
421,80,165205,2,0,B|518:48|518:48|508:84,1,140,2|2,0:0|0:0,0:0:0:0:
456,158,165705,5,2,0:0:0:0:
346,176,165871,1,0,0:0:0:0:
235,194,166038,1,2,1:2:0:0:
129,117,166205,2,0,L|129:85,2,23.3333333333333,0|0|0,1:0|1:0|0:0,0:0:0:0:
104,135,166371,6,0,B|126:162|126:162|223:168|238:73,1,178.500003404617,8|0,3:2|0:0,0:0:0:0:
235,92,166705,6,0,P|223:146|253:220,1,105.000004005432,6|0,1:2|0:0,0:0:0:0:
268,346,167038,1,10,0:0:0:0:
309,243,167205,1,2,0:0:0:0:
144,308,167371,1,0,1:2:0:0:
192,199,167538,1,2,0:0:0:0:
268,346,167705,1,8,0:0:0:0:
290,348,167788,1,0,0:0:0:0:
312,349,167871,1,0,0:0:0:0:
474,191,168038,6,0,P|419:167|365:169,1,105.000004005432,2|0,1:2|0:0,0:0:0:0:
192,199,168371,2,0,P|247:223|301:221,1,105.000004005432,10|0,0:0|0:0,0:0:0:0:
313,104,168705,1,2,1:2:0:0:
377,255,168871,1,2,0:0:0:0:
444,93,169038,2,0,P|472:152|472:201,1,105.000004005432,10|0,0:0|0:0,0:0:0:0:
313,104,169371,5,2,1:2:0:0:
307,81,169455,1,2,0:0:0:0:
305,58,169538,1,2,0:0:0:0:
410,72,169705,1,10,0:0:0:0:
293,141,169871,2,0,P|273:86|276:37,1,105.000004005432,2|0,0:0|1:2,0:0:0:0:
357,2,170205,1,2,0:0:0:0:
293,141,170371,1,8,0:0:0:0:
180,33,170538,1,0,0:0:0:0:
52,202,170705,6,0,P|66:154|117:116,1,105.000004005432,6|0,1:2|0:0,0:0:0:0:
207,123,171038,1,8,0:0:0:0:
237,340,171205,2,0,P|193:292|184:229,1,105.000004005432,6|0,0:0|1:2,0:0:0:0:
293,141,171538,1,2,0:0:0:0:
450,236,171705,2,0,P|400:274|333:263,1,105.000004005432,12|0,0:0|0:0,0:0:0:0:
373,39,172038,6,0,B|435:121|328:121|391:218,1,167.999994873047,6|0,1:2|0:0,0:0:0:0:
396,297,172538,2,0,P|478:275|413:238,1,167.999994873047,2|0,0:0|0:0,0:0:0:0:
230,215,173038,1,10,0:0:0:0:
284,333,173205,1,2,0:0:0:0:
315,182,173371,6,0,P|275:142|230:215,1,167.999994873047,2|0,1:2|0:0,0:0:0:0:
284,333,173871,2,0,P|244:373|199:300,1,167.999994873047,2|0,0:0|0:0,0:0:0:0:
315,182,174371,1,10,0:0:0:0:
134,249,174538,1,2,0:0:0:0:
181,62,174705,6,0,P|214:103|230:226,1,167.999994873047,2|0,1:2|0:0,0:0:0:0:
110,27,175205,2,0,P|77:68|61:191,1,167.999994873047,2|2,0:0|0:0,0:0:0:0:
134,249,175705,1,10,0:0:0:0:
134,249,175871,1,0,0:0:0:0:
190,103,176038,6,0,L|179:53,5,41.9999987182618,6|2|2|2|0|0,1:2|0:0|0:0|0:0|0:0|0:0,0:0:0:0:
250,160,176538,2,0,L|241:209,1,41.9999987182618,2|2,0:0|0:0,0:0:0:0:
276,76,176705,5,6,1:2:0:0:
299,99,176788,1,2,0:0:0:0:
326,114,176871,1,2,0:0:0:0:
357,121,176955,1,2,0:0:0:0:
396,122,177038,2,0,P|458:88|428:30,1,146.999995513916,6|0,1:2|0:0,0:0:0:0:
359,0,177371,6,0,B|347:50|347:50|400:138|347:220,1,224,6|8,1:2|0:0,0:0:0:0:
310,367,177871,1,0,0:0:0:0:
210,215,178038,1,6,1:2:0:0:
227,382,178205,1,0,0:0:0:0:
273,151,178371,2,0,P|214:124|162:140,1,112,8|0,0:0|0:0,0:0:0:0:
157,351,178705,6,0,L|165:305,3,35,6|0|0|0,1:2|0:0|0:0|0:0,0:0:0:0:
141,338,179038,2,0,L|146:303,1,35,10|0,0:0|0:0,0:0:0:0:
66,223,179205,2,0,L|58:269,1,35,2|0,0:0|0:0,0:0:0:0:
221,258,179371,6,0,L|229:212,3,35,6|0|0|0,1:2|0:0|0:0|0:0,0:0:0:0:
205,245,179704,2,0,L|210:210,1,35,10|0,0:0|0:0,0:0:0:0:
130,130,179871,2,0,L|122:176,1,35,2|0,0:0|0:0,0:0:0:0:
295,177,180038,6,0,L|303:131,3,35,6|0|0|0,1:2|0:0|3:2|0:0,0:0:0:0:
279,164,180371,2,0,L|284:129,1,35,10|0,0:0|0:0,0:0:0:0:
204,49,180538,2,0,L|196:95,1,35,2|0,3:2|0:0,0:0:0:0:
176,251,180705,5,6,1:2:0:0:
191,282,180788,1,0,0:0:0:0:
220,302,180871,1,0,3:2:0:0:
254,307,180955,1,0,3:2:0:0:
286,293,181038,1,14,1:2:0:0:
320,276,181121,1,0,0:0:0:0:
358,276,181204,1,0,3:2:0:0:
394,288,181288,1,0,3:2:0:0:
425,326,181371,6,0,B|401:360|401:360|318:391|265:311,1,181.999991668702,6|8,1:2|0:0,0:0:0:0:
278,114,181871,2,0,B|304:126|304:126|329:165|319:210,1,90.9999958343508,2|0,0:0|0:0,0:0:0:0:
117,283,182205,2,0,L|107:254,3,30.3333319447836,2|0|0|6,1:2|0:0|1:0|3:2,3:0:0:0:
399,206,182705,6,0,B|419:155|496:160|541:109|471:10|415:52|415:52|375:-12|283:68|353:136,1,448,6|0,0:0|0:0,0:0:0:0:
159,63,192871,5,2,1:2:0:0:
101,124,193038,1,2,3:2:0:0:
99,151,193121,1,2,3:2:0:0:
97,179,193204,1,2,3:2:0:0:
74,87,193371,6,0,L|63:199,1,112,2|2,1:2|0:0,0:0:0:0:
4,269,193871,1,2,0:0:0:0:
63,199,194038,1,2,3:2:0:0:
147,238,194205,1,2,0:0:0:0:
218,176,194371,1,2,0:0:0:0:
147,238,194538,6,0,P|137:283|140:309,1,56,2|0,0:0|1:2,0:0:0:0:
220,308,194871,1,2,0:0:0:0:
293,244,195038,2,0,P|303:289|300:315,1,56,2|2,0:0|1:2,0:0:0:0:
371,363,195371,2,0,P|381:321|374:239,1,112,0|2,3:2|0:0,0:0:0:0:
332,170,195871,1,2,0:0:0:0:
377,252,196038,6,0,P|411:254|439:250,1,56,2|0,1:2|0:0,0:0:0:0:
499,199,196371,1,2,0:0:0:0:
460,124,196538,2,0,P|426:122|398:126,1,56,2|0,0:0|3:2,0:0:0:0:
332,170,196871,1,0,0:0:0:0:
290,91,197038,1,2,0:0:0:0:
240,165,197205,1,2,0:0:0:0:
151,87,197371,6,0,P|188:81|216:89,1,56,2|0,1:2|0:0,0:0:0:0:
240,165,197705,1,2,0:0:0:0:
240,165,197871,1,2,1:2:0:0:
175,276,198038,2,0,P|157:240|164:160,1,112,2|0,3:2|0:0,0:0:0:0:
240,165,198538,1,2,0:0:0:0:
277,242,198705,5,2,1:2:0:0:
345,189,198871,1,0,0:0:0:0:
277,242,199038,2,0,P|248:247|222:243,1,56,2|2,0:0|0:0,0:0:0:0:
240,165,199371,1,0,3:2:0:0:
311,107,199538,1,2,0:0:0:0:
345,189,199705,1,2,0:0:0:0:
379,271,199871,6,0,P|414:284|441:277,1,56,2|0,0:0|1:0,0:0:0:0:
430,198,200205,1,2,0:0:0:0:
379,271,200371,1,2,0:0:0:0:
328,344,200538,1,0,1:2:0:0:
236,347,200705,2,0,P|260:277|297:256,1,112,0|2,3:2|0:0,0:0:0:0:
379,271,201205,1,0,0:0:0:0:
290,259,201371,6,0,P|257:252|230:258,1,56,2|0,1:2|0:0,0:0:0:0:
156,320,201705,1,2,0:0:0:0:
81,268,201871,1,2,0:0:0:0:
128,112,202038,2,0,P|149:149|156:236,1,112,2|2,3:2|0:0,0:0:0:0:
81,268,202538,1,0,0:0:0:0:
158,216,202705,6,0,P|158:181|152:158,1,56,2|0,1:2|0:0,0:0:0:0:
212,94,203038,1,2,0:0:0:0:
212,94,203205,1,2,1:2:0:0:
280,149,203371,1,2,3:2:0:0:
350,90,203538,1,2,1:2:0:0:
360,92,203621,1,2,1:2:0:0:
370,96,203705,1,2,0:0:0:0:
404,182,203871,1,2,1:2:0:0:
512,120,204038,6,0,P|493:156|481:235,1,112,6|2,1:2|0:0,0:0:0:0:
510,307,204538,1,2,0:0:0:0:
440,364,204705,2,0,P|398:357|381:347,1,56,2|0,3:2|0:0,0:0:0:0:
320,277,205038,1,2,0:0:0:0:
407,269,205205,6,0,P|414:236|408:208,1,56,2|0,0:0|1:2,0:0:0:0:
336,165,205538,2,0,P|329:132|335:104,1,56,2|2,0:0|0:0,0:0:0:0:
351,25,205871,1,2,1:2:0:0:
428,68,206038,2,0,P|400:98|309:101,1,112,0|2,3:2|0:0,0:0:0:0:
258,58,206538,1,2,0:0:0:0:
182,116,206705,6,0,P|175:146|185:178,1,56,2|0,1:2|0:0,0:0:0:0:
102,200,207038,1,2,0:0:0:0:
180,170,207205,2,0,P|187:200|177:232,1,56,2|0,0:0|3:2,0:0:0:0:
112,283,207538,1,2,0:0:0:0:
197,307,207705,1,2,0:0:0:0:
270,262,207872,1,2,0:0:0:0:
298,184,208038,6,0,P|305:149|302:123,1,56,2|0,1:2|0:0,0:0:0:0:
318,42,208371,1,2,0:0:0:0:
318,42,208538,1,0,1:2:0:0:
381,97,208705,2,0,P|389:144|375:217,1,112,2|0,3:2|0:0,0:0:0:0:
324,274,209205,1,2,0:0:0:0:
212,207,209371,6,0,P|174:224|157:241,1,56,2|0,1:2|0:0,0:0:0:0:
119,304,209705,1,2,0:0:0:0:
194,356,209871,2,0,P|211:318|212:299,1,56,2|2,0:0|3:2,0:0:0:0:
163,233,210205,1,0,0:0:0:0:
128,158,210372,1,2,0:0:0:0:
156,81,210538,6,0,P|176:56|211:40,1,56,2|0,0:0|1:2,0:0:0:0:
284,47,210871,1,2,0:0:0:0:
339,115,211038,1,2,0:0:0:0:
413,68,211205,1,2,1:2:0:0:
339,115,211371,2,0,P|369:146|444:152,1,112,0|0,3:2|0:0,0:0:0:0:
434,155,211788,1,2,1:2:0:0:
434,155,211871,1,2,1:2:0:0:
507,245,212038,6,0,P|466:273|449:317,1,90.9999958343508,4|0,0:0|0:0,0:0:0:0:
313,218,212371,2,0,P|333:266|339:328,1,90.9999958343508,8|0,0:0|0:0,0:0:0:0:
184,240,212705,2,0,P|175:291|183:353,1,90.9999958343508,2|0,0:0|0:0,0:0:0:0:
6,225,213038,2,0,P|42:259|52:305,1,90.9999958343508,8|0,0:0|0:0,0:0:0:0:
62,96,213371,6,0,P|37:62|31:7,1,90.9999958343508,4|0,0:0|0:0,0:0:0:0:
188,145,213705,2,0,L|206:45,1,90.9999958343508,8|0,0:0|0:0,0:0:0:0:
360,112,214038,2,0,L|342:12,1,90.9999958343508,2|0,0:0|0:0,0:0:0:0:
468,139,214371,2,0,P|498:109|512:55,1,90.9999958343508,8|0,0:0|0:0,0:0:0:0:
328,193,214705,5,12,0:0:0:0:
468,225,214871,1,0,0:0:0:0:
360,112,215038,1,8,0:0:0:0:
339,270,215205,1,0,0:0:0:0:
419,160,215371,5,12,0:0:0:0:
249,241,215538,1,0,0:0:0:0:
364,346,215705,1,8,0:0:0:0:
265,152,215871,1,0,0:0:0:0:
213,360,216038,6,0,L|205:316,3,45.4999979171754,14|0|0|0,0:0|0:0|0:0|0:0,0:0:0:0:
129,311,216371,2,0,L|137:267,3,45.4999979171754,14|0|0|0,0:0|0:0|0:0|0:0,0:0:0:0:
66,233,216705,2,0,L|93:197,3,45.4999979171754,14|0|0|0,0:0|0:0|0:0|0:0,0:0:0:0:
173,194,217038,6,0,L|163:144,5,30.3333319447836,14|0|0|0|0|0,0:0|0:0|0:0|0:0|0:0|0:0,0:0:0:0:
211,100,218038,5,0,3:2:0:0:
211,100,218205,2,0,L|266:89,1,35,0|0,1:0|1:0,0:0:0:0:
315,138,218371,2,0,P|317:76|246:94,1,157.500006008148,8|0,0:0|0:0,0:0:0:0:
315,138,218705,6,0,P|354:115|415:118,1,105.000004005432,6|0,1:2|0:0,0:0:0:0:
449,247,219038,1,10,0:0:0:0:
486,145,219205,1,0,0:0:0:0:
352,206,219371,1,2,1:2:0:0:
489,333,219538,1,2,0:0:0:0:
315,275,219705,1,10,0:0:0:0:
335,281,219788,1,2,0:0:0:0:
349,296,219871,1,2,0:0:0:0:
148,351,220038,6,0,P|160:297|209:259,1,105.000004005432,2|0,1:2|0:0,0:0:0:0:
233,106,220371,2,0,P|265:162|244:222,1,105.000004005432,8|0,0:0|0:0,0:0:0:0:
195,264,220705,1,2,1:2:0:0:
353,176,220871,1,2,0:0:0:0:
188,43,221038,2,0,P|156:99|177:159,1,105.000004005432,8|0,0:0|0:0,0:0:0:0:
353,176,221371,5,2,1:2:0:0:
354,154,221455,1,2,0:0:0:0:
356,133,221538,1,2,0:0:0:0:
299,242,221705,1,8,0:0:0:0:
467,148,221871,2,0,P|434:110|363:122,1,105.000004005432,2|0,0:0|1:2,0:0:0:0:
214,280,222205,2,0,P|247:241|298:241,1,105.000004005432,2|8,0:0|0:0,0:0:0:0:
353,363,222538,1,2,0:0:0:0:
460,250,222705,6,0,P|472:199|465:143,1,105.000004005432,2|0,1:2|0:0,0:0:0:0:
412,26,223038,1,8,0:0:0:0:
373,194,223205,1,0,0:0:0:0:
312,65,223371,1,2,1:2:0:0:
459,126,223538,1,2,0:0:0:0:
248,138,223705,2,0,P|272:97|281:31,1,105.000004005432,10|0,0:0|0:0,0:0:0:0:
73,128,224038,6,0,B|129:162|129:162|207:110|280:182,1,210.000008010865,6|8,1:2|0:0,0:0:0:0:
293,298,224538,1,2,0:0:0:0:
360,146,224705,2,0,P|306:143|258:171,1,105.000004005432,2|0,1:2|0:0,0:0:0:0:
262,166,224955,1,0,0:0:0:0:
262,166,225038,1,8,0:0:0:0:
293,298,225205,1,0,0:0:0:0:
125,184,225371,6,0,P|158:193|200:256,1,105.000004005432,2|0,1:2|0:0,0:0:0:0:
245,357,225705,1,10,0:0:0:0:
72,384,225871,2,0,P|88:331|143:305,1,105.000004005432,2|0,0:0|1:2,0:0:0:0:
245,357,226205,1,2,0:0:0:0:
407,212,226371,2,0,P|348:226|324:280,1,105.000004005432,8|0,0:0|0:0,0:0:0:0:
467,274,226705,6,0,B|504:293|504:293|486:194,1,140,0|2,1:2|0:0,0:0:0:0:
349,156,227205,2,0,B|314:178|314:178|408:212,1,140,2|0,0:0|0:0,0:0:0:0:
435,132,227705,1,2,0:0:0:0:
512,109,227871,2,0,B|509:67|509:67|433:132,1,140,2|0,0:0|0:0,0:0:0:0:
398,211,228371,5,2,0:0:0:0:
368,96,228538,1,0,0:0:0:0:
281,174,228705,1,2,1:2:0:0:
159,116,228871,2,0,L|136:117,2,23.3333333333333,0|0|0,1:0|1:0|0:0,0:0:0:0:
121,101,229038,6,0,P|129:22|206:39,1,178.500003404617,8|0,3:2|0:0,0:0:0:0:
206,39,229371,6,0,B|218:89|218:89|169:173|215:246,1,210.000008010865,6|8,1:2|0:0,0:0:0:0:
290,384,229871,1,2,0:0:0:0:
342,256,230038,1,0,1:2:0:0:
162,301,230205,1,2,0:0:0:0:
353,308,230371,1,10,0:0:0:0:
351,281,230455,1,2,0:0:0:0:
342,256,230538,1,2,0:0:0:0:
166,179,230705,6,0,P|142:240|143:305,1,105.000004005432,2|0,1:2|0:0,0:0:0:0:
196,373,231038,1,8,0:0:0:0:
58,220,231205,1,0,0:0:0:0:
296,187,231371,1,2,1:2:0:0:
186,266,231538,1,2,0:0:0:0:
149,77,231705,2,0,P|205:75|257:124,1,105.000004005432,10|0,0:0|0:0,0:0:0:0:
403,222,232038,5,2,1:2:0:0:
409,191,232121,1,2,0:0:0:0:
405,159,232205,1,2,0:0:0:0:
299,185,232371,1,10,0:0:0:0:
438,247,232538,2,0,P|446:188|436:120,1,105.000004005432,2|0,0:0|1:2,0:0:0:0:
283,89,232871,1,2,0:0:0:0:
317,281,233038,1,10,0:0:0:0:
153,194,233205,1,2,0:0:0:0:
349,140,233371,6,0,P|365:95|364:27,1,105.000004005432,6|0,1:2|0:0,0:0:0:0:
235,164,233705,1,10,0:0:0:0:
119,119,233871,2,0,P|103:76|101:13,1,105.000004005432,6|0,0:0|1:2,0:0:0:0:
235,164,234205,1,2,0:0:0:0:
66,289,234371,2,0,P|115:271|167:269,1,105.000004005432,12|0,0:0|0:0,0:0:0:0:
427,342,234705,6,0,B|433:276|433:276|455:239|455:239|461:169,1,167.999994873047,6|0,1:2|0:0,0:0:0:0:
300,109,235205,2,0,B|306:175|306:175|328:212|328:212|333:270,1,167.999994873047,2|0,0:0|0:0,0:0:0:0:
291,340,235705,1,10,0:0:0:0:
382,153,235871,1,2,0:0:0:0:
239,152,236038,6,0,P|240:79|297:133,1,167.999994873047,2|0,1:2|0:0,0:0:0:0:
199,232,236538,2,0,P|209:303|275:273,1,167.999994873047,2|0,0:0|0:0,0:0:0:0:
239,152,237038,1,10,0:0:0:0:
35,190,237205,1,2,0:0:0:0:
107,31,237371,6,0,P|132:85|115:201,1,167.999994873047,2|0,1:2|0:0,0:0:0:0:
49,350,237871,2,0,P|24:296|41:180,1,167.999994873047,2|2,0:0|0:0,0:0:0:0:
268,181,238371,1,10,0:0:0:0:
234,373,238538,1,2,0:0:0:0:
171,305,238705,5,6,1:2:0:0:
202,289,238788,1,2,0:0:0:0:
236,284,238871,1,2,0:0:0:0:
270,289,238955,1,2,0:0:0:0:
301,305,239038,1,2,0:0:0:0:
329,326,239121,1,2,0:0:0:0:
363,336,239204,1,2,0:0:0:0:
397,334,239288,1,2,0:0:0:0:
429,320,239371,5,6,1:2:0:0:
455,296,239454,1,2,0:0:0:0:
469,265,239537,1,2,0:0:0:0:
471,230,239621,1,2,0:0:0:0:
458,201,239705,2,0,P|401:174|320:242,1,146.999995513916,6|0,1:2|0:0,0:0:0:0:
331,210,240038,6,0,P|361:168|363:116,1,105.000004005432,6|0,1:2|0:0,0:0:0:0:
161,10,240371,2,0,P|176:86|200:108,1,105.000004005432,8|0,0:0|0:0,0:0:0:0:
258,31,240705,1,6,1:2:0:0:
206,218,240871,1,0,0:0:0:0:
40,127,241038,2,0,P|81:89|169:103,1,105.000004005432,8|0,0:0|0:0,0:0:0:0:
68,282,241371,6,0,L|24:292,3,45.4999979171754,6|0|0|0,1:2|0:0|0:0|0:0,0:0:0:0:
200,260,241705,2,0,L|210:305,1,45.4999979171754,10|0,0:0|0:0,0:0:0:0:
186,277,241871,2,0,L|196:322,1,45.4999979171754,2|0,0:0|0:0,0:0:0:0:
124,203,242038,6,0,L|74:184,3,45.4999979171754,6|0|0|0,1:2|0:0|0:0|0:0,0:0:0:0:
260,209,242371,2,0,L|270:164,1,45.4999979171754,10|0,0:0|0:0,0:0:0:0:
278,219,242538,2,0,L|288:174,1,45.4999979171754,2|0,0:0|0:0,0:0:0:0:
184,109,242705,6,0,L|139:118,3,45.4999979171754,6|0|0|0,1:2|0:0|3:2|0:0,0:0:0:0:
293,30,243038,2,0,L|283:75,1,45.4999979171754,10|0,1:2|0:0,0:0:0:0:
307,47,243204,2,0,L|297:92,1,45.4999979171754,2|0,3:2|0:0,0:0:0:0:
260,209,243371,5,6,1:2:0:0:
292,220,243454,1,0,0:0:0:0:
326,214,243537,1,0,3:2:0:0:
354,193,243621,1,0,3:2:0:0:
368,162,243705,1,14,1:2:0:0:
381,122,243788,1,0,0:0:0:0:
411,93,243871,1,0,3:2:0:0:
451,80,243955,1,0,3:2:0:0:
481,83,244038,6,0,P|492:157|449:259,1,181.999991668702,6|8,1:2|0:0,0:0:0:0:
194,163,244538,2,0,P|220:138|282:136,1,90.9999958343508,2|0,0:0|0:0,0:0:0:0:
340,286,244871,2,0,L|298:269,3,30.3333319447836,2|0|0|4,1:2|0:0|1:0|3:2,3:0:0:0:
340,286,245371,6,0,L|355:181,1,90.9999958343508,6|0,3:2|0:0,0:0:0:0:
414,80,245705,1,10,0:0:0:0:
247,38,245871,2,0,B|262:155,1,90.9999958343508,2|0,0:0|3:2,0:0:0:0:
179,0,246205,1,2,0:0:0:0:
334,96,246371,1,8,0:0:0:0:
179,180,246538,1,0,0:0:0:0:
248,299,246705,6,0,P|270:260|264:201,1,90.9999958343508,2|0,3:2|0:0,0:0:0:0:
120,55,247038,2,0,P|97:94|98:139,1,90.9999958343508,10|0,0:0|0:0,0:0:0:0:
179,180,247371,1,2,3:2:0:0:
120,55,247538,1,2,0:0:0:0:
0,243,247705,2,0,P|55:222|95:225,1,90.9999958343508,8|0,0:0|0:0,0:0:0:0:
179,180,248038,5,2,3:2:0:0:
216,354,248205,1,2,0:0:0:0:
350,186,248371,1,8,0:0:0:0:
322,355,248538,2,8,B|331:251,1,90.9999958343508,2|0,0:0|3:2,0:0:0:0:
297,135,248871,1,0,0:0:0:0:
248,278,249038,1,10,0:0:0:0:
410,238,249205,1,2,0:0:0:0:
242,83,249371,6,0,P|247:141|258:192,1,90.9999958343508,2|0,3:2|0:0,0:0:0:0:
438,39,249705,2,0,P|438:93|431:148,1,90.9999958343508,10|0,0:0|0:0,0:0:0:0:
279,16,250038,1,2,3:2:0:0:
422,143,250205,1,2,0:0:0:0:
362,33,250371,1,8,0:0:0:0:
261,167,250538,1,2,0:0:0:0:
115,57,250705,5,2,3:2:0:0:
170,214,250871,1,0,0:0:0:0:
208,34,251038,1,10,0:0:0:0:
170,214,251205,2,0,P|119:219|82:201,1,90.9999958343508,2|0,0:0|3:2,0:0:0:0:
138,130,251538,5,2,0:0:0:0:
200,297,251705,1,10,0:0:0:0:
285,170,251871,2,0,P|329:163|370:181,1,90.9999958343508,2|0,0:0|3:2,0:0:0:0:
320,248,252205,5,2,0:0:0:0:
468,219,252371,1,10,0:0:0:0:
446,339,252538,2,0,P|402:362|347:351,1,90.9999958343508,2|0,0:0|3:2,0:0:0:0:
320,248,252871,5,0,0:0:0:0:
472,223,253038,1,10,0:0:0:0:
472,223,253205,1,2,0:0:0:0:
331,127,253371,5,6,3:2:0:0:
373,327,253538,1,0,0:0:0:0:
480,144,253705,1,10,0:0:0:0:
310,124,253871,2,0,B|300:228,1,90.9999958343508,2|0,0:0|3:2,0:0:0:0:
209,331,254205,1,2,0:0:0:0:
301,214,254371,1,10,0:0:0:0:
301,214,254538,1,2,0:0:0:0:
111,141,254705,6,0,P|172:68|262:96,1,181.999991668702,4|8,3:2|0:0,0:0:0:0:
411,104,255205,1,2,0:0:0:0:
392,95,255288,1,2,0:0:0:0:
368,94,255371,2,0,L|374:142,1,45.4999979171754,4|0,0:0|0:0,0:0:0:0:
501,229,255538,2,0,L|507:191,2,30.3333319447836,0|0|0,3:2|3:0|0:0,3:2:0:0:
510,177,255705,6,0,P|459:183|365:273,1,178.500003404617,8|0,0:0|0:0,0:0:0:0:
367,265,256038,6,0,P|405:231|416:179,1,90.9999958343508,6|0,3:2|0:0,0:0:0:0:
282,148,256371,1,10,0:0:0:0:
218,304,256538,2,0,B|260:323|260:323|343:314,1,90.9999958343508,2|0,0:0|3:2,0:0:0:0:
443,240,256871,1,2,0:0:0:0:
381,362,257038,1,10,0:0:0:0:
381,362,257205,1,2,0:0:0:0:
282,148,257371,6,0,P|288:214|330:248,1,90.9999958343508,2|0,3:2|0:0,0:0:0:0:
187,73,257705,2,0,P|181:139|139:173,1,90.9999958343508,10|0,0:0|0:0,0:0:0:0:
108,90,258038,1,2,3:2:0:0:
197,261,258205,1,2,0:0:0:0:
282,148,258371,1,8,0:0:0:0:
166,156,258538,1,2,0:0:0:0:
355,39,258705,6,0,L|370:145,1,90.9999958343508,2|0,3:2|0:0,0:0:0:0:
411,261,259038,1,8,0:0:0:0:
367,129,259205,2,0,P|315:130|243:141,1,90.9999958343508,2|0,0:0|3:2,0:0:0:0:
166,156,259538,1,2,0:0:0:0:
293,244,259705,1,10,0:0:0:0:
293,244,259871,1,2,0:0:0:0:
166,156,260038,6,0,P|142:127|140:56,1,90.9999958343508,2|0,3:2|0:0,0:0:0:0:
293,244,260371,2,0,P|317:273|319:344,1,90.9999958343508,8|0,0:0|0:0,0:0:0:0:
239,314,260705,1,2,3:2:0:0:
423,276,260871,1,2,0:0:0:0:
246,178,261038,1,8,0:0:0:0:
423,133,261205,1,2,0:0:0:0:
319,37,261371,5,6,3:2:0:0:
376,218,261538,1,0,0:0:0:0:
424,53,261705,1,8,0:0:0:0:
512,115,261871,2,0,P|466:128|408:134,1,90.9999958343508,0|0,0:0|3:2,0:0:0:0:
312,171,262205,5,2,0:0:0:0:
458,226,262371,1,10,0:0:0:0:
238,209,262538,2,0,P|243:256|253:314,1,90.9999958343508,2|4,0:0|3:2,0:0:0:0:
186,355,262871,5,2,0:0:0:0:
353,313,263037,1,8,0:0:0:0:
142,265,263205,2,0,P|146:212|154:174,1,90.9999958343508,2|0,0:0|3:2,0:0:0:0:
213,12,263538,5,2,0:0:0:0:
116,104,263705,1,10,0:0:0:0:
116,104,263871,1,2,0:0:0:0:
234,107,264038,5,4,3:2:0:0:
92,0,264205,1,2,0:0:0:0:
119,184,264371,1,10,0:0:0:0:
281,44,264538,2,0,P|313:105|298:148,1,90.9999958343508,0|0,0:0|3:2,0:0:0:0:
119,184,264871,1,2,0:0:0:0:
186,292,265038,1,10,0:0:0:0:
228,129,265205,1,2,0:0:0:0:
186,292,265371,6,0,P|230:338|353:300,1,181.999991668702,6|8,3:2|0:0,0:0:0:0:
484,246,265871,1,2,0:0:0:0:
456,247,265955,1,2,0:0:0:0:
429,250,266038,2,0,L|432:317,1,45.4999979171754,4|0,0:0|0:0,0:0:0:0:
317,190,266205,2,0,L|315:160,2,30.3333319447836,0|0|0,3:0|3:0|0:0,0:0:0:0:
287,135,266371,6,0,B|313:107|313:107|396:93|452:191,1,178.500003404617,8|0,0:0|0:0,0:0:0:0:
434,163,266705,6,0,B|422:191|422:191|433:222|428:278,1,90.9999958343508,4|0,1:2|0:0,0:0:0:0:
376,344,267038,1,8,0:0:0:0:
317,262,267205,2,0,L|227:287,1,90.9999958343508,2|0,0:0|0:0,0:0:0:0:
122,169,267538,5,2,0:0:0:0:
213,213,267705,1,8,0:0:0:0:
274,122,267871,2,0,L|369:146,1,90.9999958343508,2|0,0:0|1:2,0:0:0:0:
503,113,268205,5,2,0:0:0:0:
420,62,268371,1,8,0:0:0:0:
459,179,268538,2,0,L|444:274,1,90.9999958343508,2|0,0:0|0:0,0:0:0:0:
364,335,268871,5,2,0:0:0:0:
285,249,269038,1,10,0:0:0:0:
285,249,269205,1,0,0:0:0:0:
222,328,269371,1,2,1:2:0:0:
127,272,269538,1,2,0:0:0:0:
34,321,269705,1,8,0:0:0:0:
137,362,269871,2,0,L|125:256,1,90.9999958343508,2|0,0:0|0:0,0:0:0:0:
149,66,270205,5,2,0:0:0:0:
121,194,270371,1,10,0:0:0:0:
121,194,270538,1,0,0:0:0:0:
4,86,270705,6,0,B|15:49|15:49|102:13|155:73,1,181.999991668702,2|10,1:2|0:0,0:0:0:0:
265,173,271205,2,0,B|254:210|254:210|167:246|114:186,1,181.999991668702,2|2,0:0|0:0,0:0:0:0:
226,85,271705,1,10,0:0:0:0:
337,138,271871,1,2,0:0:0:0:
417,0,272038,6,0,L|407:109,1,90.9999958343508,2|0,1:2|0:0,0:0:0:0:
386,229,272371,1,10,0:0:0:0:
483,136,272538,2,0,P|445:101|391:90,1,90.9999958343508,2|0,0:0|0:0,0:0:0:0:
310,189,272871,5,2,0:0:0:0:
375,339,273038,1,10,0:0:0:0:
470,208,273205,2,0,P|410:232|362:217,1,90.9999958343508,2|0,0:0|1:2,0:0:0:0:
203,185,273538,5,2,0:0:0:0:
259,51,273705,1,10,0:0:0:0:
308,189,273871,2,0,P|305:247|281:285,1,90.9999958343508,2|0,0:0|0:0,0:0:0:0:
349,372,274205,5,2,0:0:0:0:
289,275,274371,1,8,0:0:0:0:
289,275,274538,1,2,0:0:0:0:
170,314,274705,1,2,1:2:0:0:
58,269,274871,1,2,0:0:0:0:
165,222,275038,1,8,0:0:0:0:
50,265,275205,2,0,B|13:238|13:238|-5:155|52:115,1,181.999991668702,2|0,0:0|0:0,0:0:0:0:
153,139,275705,5,10,0:0:0:0:
209,47,275871,1,2,0:0:0:0:
248,185,276038,2,0,P|279:160|269:250,1,210,6|0,1:2|0:0,0:0:0:0:
182,261,276705,5,2,0:0:0:0:
182,261,276788,1,2,0:0:0:0:
182,261,276871,2,0,L|130:250,1,35,2|0,1:2|1:2,0:0:0:0:
243,341,277038,2,0,P|284:305|356:311,1,105,10|0,3:2|3:2,0:0:0:0:
332,301,277371,6,0,L|320:207,1,70,6|0,1:2|0:0,0:0:0:0:
409,174,277705,1,2,0:0:0:0:
409,174,277871,2,0,L|422:77,1,70,2|0,0:0|0:0,0:0:0:0:
296,10,278205,5,2,0:0:0:0:
331,91,278371,1,2,0:0:0:0:
391,30,278538,2,0,P|356:9|302:12,1,70,2|0,0:0|1:2,0:0:0:0:
253,135,278871,5,2,0:0:0:0:
331,91,279038,1,2,0:0:0:0:
247,65,279205,2,0,L|255:162,1,70,2|0,0:0|0:0,0:0:0:0:
320,218,279538,5,2,0:0:0:0:
320,218,279705,2,0,P|280:237|236:235,1,70,2|0,0:0|0:0,0:0:0:0:
167,192,280038,5,2,1:2:0:0:
167,192,280205,1,0,0:0:0:0:
66,225,280371,1,2,0:0:0:0:
66,225,280538,2,0,L|78:308,1,70,2|0,0:0|0:0,0:0:0:0:
169,351,280871,5,2,0:0:0:0:
224,271,281038,1,2,0:0:0:0:
167,192,281205,1,2,0:0:0:0:
242,61,281371,6,0,P|254:104|246:200,1,140,2|0,1:2|0:0,0:0:0:0:
167,192,281871,2,0,P|152:260|162:329,1,140,2|2,0:0|0:0,0:0:0:0:
248,371,282371,1,2,0:0:0:0:
344,314,282538,1,2,0:0:0:0:
344,314,282621,1,2,0:0:0:0:
344,314,282705,6,0,L|349:230,1,70,6|0,1:2|0:0,0:0:0:0:
280,161,283038,1,2,0:0:0:0:
387,82,283205,1,0,0:0:0:0:
316,19,283371,5,2,0:0:0:0:
359,166,283538,1,2,0:0:0:0:
320,22,283705,1,0,0:0:0:0:
363,169,283871,1,2,0:0:0:0:
182,144,284038,6,0,L|191:226,1,70,4|0,1:2|0:0,0:0:0:0:
134,285,284371,1,2,0:0:0:0:
248,365,284538,1,0,0:0:0:0:
100,355,284705,5,2,0:0:0:0:
253,287,284871,1,2,0:0:0:0:
104,358,285038,1,0,0:0:0:0:
257,290,285204,1,2,0:0:0:0:
423,315,285371,6,0,L|457:291,3,35,6|2|2|2,1:2|0:0|3:2|0:0,0:0:0:0:
421,225,285705,2,0,L|433:184,3,35,2|2|2|2,1:2|0:0|3:2|0:0,0:0:0:0:
362,160,286038,2,0,L|354:118,3,35,2|2|2|2,1:2|0:0|3:2|3:2,0:0:0:0:
276,76,286371,5,0,1:2:0:0:
248,96,286454,1,0,0:0:0:0:
233,127,286537,1,0,3:2:0:0:
236,162,286620,1,0,3:2:0:0:
255,191,286704,1,6,1:2:0:0:
256,192,286788,12,0,287871,0:0:0:0:
