osu file format v14

[General]
AudioFilename: audio.mp3
AudioLeadIn: 0
PreviewTime: 155660
Countdown: 0
SampleSet: Normal
StackLeniency: 0.7
Mode: 1
LetterboxInBreaks: 0
WidescreenStoryboard: 0

[Editor]
DistanceSpacing: 0.8
BeatDivisor: 4
GridSize: 4
TimelineZoom: 2.2

[Metadata]
Title:Gateau au chocolat
TitleUnicode:Gâteau au chocolat
Artist:nenpulse
ArtistUnicode:nenpulse
Creator:KTYN
Version:Sweet Monopoly
Source:あなたに恋する恋愛ルセット
Tags:bootleg remix Meis Clauson ゆいこんぬ petit bonheur yuiko eroge opening renai visual novel anata ni koisuru ren'ai recette japanese video game Drum & and bass 180 GBC-01Girlish Collection K@keru Records Kakeru
BeatmapID:2029066
BeatmapSetID:969906

[Difficulty]
HPDrainRate:5.2
CircleSize:5
OverallDifficulty:5.7
ApproachRate:5
SliderMultiplier:1.4
SliderTickRate:1

[Events]
//Background and Video events
0,0,"gateau.jpg",0,80
//Break Periods
//Storyboard Layer 0 (Background)
//Storyboard Layer 1 (Fail)
//Storyboard Layer 2 (Pass)
//Storyboard Layer 3 (Foreground)
//Storyboard Layer 4 (Overlay)
//Storyboard Sound Samples

[TimingPoints]
1356,333.333333333333,4,1,0,100,1,0
1356,-100,4,1,0,70,0,0
10689,-100,4,1,0,90,0,0
12022,-100,4,1,0,100,0,0
76022,-100,4,1,0,100,0,1
102689,-100,4,1,0,100,0,0
124021,-111.111111111111,4,1,0,100,0,0
134689,-100,4,1,0,100,0,0
156022,-100,4,1,0,100,0,1
182689,-100,4,1,0,100,0,0
184022,-111.111111111111,4,1,0,90,0,0
185355,-125,4,1,0,80,0,0
186689,-142.857142857143,4,1,0,70,0,0
188022,-166.666666666667,4,1,0,60,0,0
189355,-200,4,1,0,50,0,0
192855,-125,4,1,0,100,0,0
193939,-125,4,1,0,70,0,0
204022,-125,4,1,0,80,0,0
211605,-111.111111111111,4,1,0,100,0,0
214689,-105.263157894737,4,1,0,100,0,0
216022,-100,4,1,0,100,0,0
218689,-100,4,1,0,100,0,1
245355,-100,4,1,0,100,0,0
266689,-100,4,1,0,80,0,0
277355,-100,4,1,0,70,0,0
277689,-111.111111111111,4,1,0,70,0,0
282272,-100,4,1,0,80,0,0
284022,-100,4,1,0,90,0,0
285355,-100,4,1,0,100,0,0
286772,-100,4,1,0,60,0,0

[HitObjects]
188,140,1356,5,4,0:0:0:0:
178,84,1689,1,2,0:0:0:0:
178,84,1855,1,0,0:0:0:0:
179,87,2189,1,0,0:0:0:0:
179,87,2355,1,2,0:0:0:0:
175,106,2689,5,0,0:0:0:0:
191,98,2855,1,0,0:0:0:0:
181,93,3022,1,2,0:0:0:0:
181,93,3189,1,0,0:0:0:0:
193,100,3522,1,0,0:0:0:0:
177,21,3689,1,2,0:0:0:0:
231,107,3855,1,2,0:0:0:0:
231,107,4022,1,0,0:0:0:0:
157,53,4355,1,2,0:0:0:0:
157,53,4522,1,0,0:0:0:0:
224,48,4855,1,2,0:0:0:0:
157,52,5022,1,2,0:0:0:0:
171,42,5189,1,2,0:0:0:0:
232,110,5355,1,0,0:0:0:0:
141,87,5689,1,0,0:0:0:0:
141,87,5855,1,2,0:0:0:0:
135,202,6189,1,2,0:0:0:0:
132,123,6522,1,0,0:0:0:0:
132,123,6689,1,2,0:0:0:0:
178,84,7022,1,2,0:0:0:0:
178,84,7189,1,0,0:0:0:0:
179,87,7522,1,0,0:0:0:0:
179,87,7689,1,2,0:0:0:0:
175,106,8022,5,0,0:0:0:0:
191,98,8189,1,0,0:0:0:0:
181,93,8355,1,2,0:0:0:0:
181,93,8522,1,0,0:0:0:0:
193,100,8855,1,0,0:0:0:0:
177,21,9022,1,2,0:0:0:0:
231,107,9189,1,2,0:0:0:0:
231,107,9355,1,0,0:0:0:0:
166,108,9522,1,0,0:0:0:0:
157,53,9689,1,2,0:0:0:0:
157,53,9855,1,0,0:0:0:0:
147,49,10189,1,0,0:0:0:0:
157,52,10355,1,2,0:0:0:0:
176,116,10522,1,2,0:0:0:0:
164,66,10689,1,4,0:0:0:0:
169,83,11355,1,2,0:0:0:0:
169,83,11439,1,2,0:0:0:0:
169,83,11522,1,0,0:0:0:0:
169,83,11605,1,0,0:0:0:0:
169,83,11689,1,2,0:0:0:0:
180,120,11855,1,0,0:0:0:0:
183,73,12022,1,14,0:0:0:0:
181,124,12272,1,0,0:0:0:0:
176,77,12355,1,2,0:0:0:0:
176,77,12522,1,2,0:0:0:0:
176,77,12689,1,0,0:0:0:0:
163,76,12855,1,2,0:0:0:0:
163,76,12939,1,0,0:0:0:0:
163,76,13022,1,0,0:0:0:0:
166,79,13189,1,0,0:0:0:0:
166,79,13355,1,2,0:0:0:0:
166,79,13522,1,0,0:0:0:0:
166,79,13605,1,0,0:0:0:0:
173,92,13689,1,2,0:0:0:0:
173,58,13855,1,0,0:0:0:0:
181,124,14022,1,0,0:0:0:0:
166,80,14189,1,2,0:0:0:0:
174,60,14272,1,2,0:0:0:0:
174,60,14355,1,0,0:0:0:0:
181,124,14522,1,0,0:0:0:0:
167,83,14689,1,2,0:0:0:0:
246,63,14855,1,0,0:0:0:0:
166,59,14939,1,0,0:0:0:0:
166,59,15022,1,2,0:0:0:0:
166,59,15189,1,2,0:0:0:0:
167,83,15355,1,0,0:0:0:0:
168,57,15522,1,2,0:0:0:0:
168,57,15605,1,0,0:0:0:0:
168,57,15689,1,0,0:0:0:0:
168,57,15855,1,0,0:0:0:0:
170,62,16022,1,2,0:0:0:0:
185,92,16272,1,0,0:0:0:0:
186,97,16355,1,2,0:0:0:0:
183,65,16522,1,2,0:0:0:0:
129,70,16689,1,0,0:0:0:0:
182,27,16855,1,2,0:0:0:0:
179,77,16939,1,2,0:0:0:0:
179,77,17022,1,0,0:0:0:0:
179,77,17105,1,0,0:0:0:0:
179,77,17189,1,2,0:0:0:0:
166,59,17355,1,12,0:0:0:0:
136,78,17689,1,2,0:0:0:0:
180,78,17855,1,2,0:0:0:0:
177,97,18022,1,0,0:0:0:0:
177,97,18189,1,0,0:0:0:0:
177,97,18272,1,0,0:0:0:0:
177,97,18355,1,2,0:0:0:0:
177,97,18522,1,0,0:0:0:0:
166,57,18689,1,4,0:0:0:0:
177,101,19022,1,2,0:0:0:0:
177,101,19189,1,0,0:0:0:0:
177,101,19272,1,0,0:0:0:0:
177,101,19355,1,0,0:0:0:0:
177,101,19522,1,2,0:0:0:0:
177,101,19689,1,0,0:0:0:0:
177,101,19855,1,0,0:0:0:0:
183,70,20022,1,12,0:0:0:0:
176,82,20189,1,0,0:0:0:0:
176,82,20355,1,2,0:0:0:0:
176,82,20522,1,2,0:0:0:0:
176,82,20689,1,0,0:0:0:0:
176,82,20772,1,0,0:0:0:0:
176,82,20855,1,2,0:0:0:0:
176,82,20939,1,2,0:0:0:0:
176,82,21022,1,0,0:0:0:0:
176,82,21105,1,0,0:0:0:0:
176,82,21189,1,2,0:0:0:0:
176,82,21272,1,2,0:0:0:0:
176,87,21355,1,0,0:0:0:0:
176,87,21689,1,0,0:0:0:0:
173,125,21772,1,2,0:0:0:0:
176,87,21855,1,0,0:0:0:0:
176,87,21939,1,0,0:0:0:0:
176,87,22022,1,2,0:0:0:0:
176,87,22105,1,2,0:0:0:0:
214,95,22189,1,0,0:0:0:0:
214,95,22244,1,0,0:0:0:0:
214,95,22300,1,0,0:0:0:0:
176,87,22355,1,2,0:0:0:0:
176,89,22689,1,4,0:0:0:0:
216,92,22855,1,2,0:0:0:0:
216,92,23022,1,0,0:0:0:0:
157,77,23105,1,0,0:0:0:0:
216,92,23189,1,2,0:0:0:0:
216,92,23355,1,0,0:0:0:0:
201,129,23522,1,0,0:0:0:0:
139,87,23605,1,0,0:0:0:0:
201,129,23689,1,2,0:0:0:0:
155,134,23772,1,2,0:0:0:0:
241,164,23855,1,0,0:0:0:0:
166,117,24022,1,0,0:0:0:0:
168,79,24189,1,2,0:0:0:0:
166,102,24355,1,0,0:0:0:0:
166,102,24439,1,0,0:0:0:0:
166,102,24522,1,2,0:0:0:0:
241,164,24605,1,0,0:0:0:0:
241,164,24689,1,2,0:0:0:0:
171,124,24855,1,0,0:0:0:0:
171,124,25022,1,2,0:0:0:0:
171,124,25105,1,2,0:0:0:0:
171,124,25189,1,0,0:0:0:0:
168,106,25355,1,0,0:0:0:0:
166,115,25522,1,2,0:0:0:0:
166,115,25689,1,0,0:0:0:0:
166,115,25772,1,0,0:0:0:0:
166,115,25855,1,2,0:0:0:0:
166,115,26022,1,0,0:0:0:0:
168,124,26189,1,2,0:0:0:0:
172,134,26272,1,0,0:0:0:0:
173,136,26355,1,2,0:0:0:0:
172,134,26439,1,2,0:0:0:0:
162,131,26522,1,0,0:0:0:0:
236,149,26689,1,0,0:0:0:0:
236,149,26855,1,2,0:0:0:0:
161,143,27022,1,0,0:0:0:0:
161,143,27105,1,0,0:0:0:0:
161,143,27189,1,2,0:0:0:0:
161,143,27355,1,2,0:0:0:0:
151,111,27439,1,0,0:0:0:0:
161,148,27522,1,0,0:0:0:0:
161,148,27605,1,0,0:0:0:0:
161,148,27689,1,2,0:0:0:0:
151,111,27772,1,0,0:0:0:0:
161,148,27855,1,2,0:0:0:0:
161,148,28022,1,0,0:0:0:0:
122,119,28189,1,2,0:0:0:0:
122,119,28272,1,0,0:0:0:0:
122,119,28355,1,2,0:0:0:0:
122,119,28439,1,2,0:0:0:0:
122,119,28522,1,0,0:0:0:0:
174,112,28689,1,0,0:0:0:0:
187,87,28855,1,2,0:0:0:0:
175,119,29022,1,0,0:0:0:0:
122,119,29105,1,0,0:0:0:0:
175,119,29189,1,2,0:0:0:0:
175,119,29355,1,0,0:0:0:0:
176,127,29522,1,2,0:0:0:0:
123,120,29605,1,2,0:0:0:0:
176,127,29689,1,0,0:0:0:0:
176,127,29855,1,2,0:0:0:0:
176,127,30022,1,0,0:0:0:0:
97,145,30189,1,0,0:0:0:0:
193,108,30272,1,0,0:0:0:0:
193,108,30355,1,2,0:0:0:0:
176,127,30439,1,0,0:0:0:0:
176,127,30522,1,2,0:0:0:0:
159,114,30689,1,0,0:0:0:0:
157,104,30772,1,0,0:0:0:0:
159,114,30855,1,2,0:0:0:0:
157,104,30939,1,0,0:0:0:0:
157,104,31022,1,2,0:0:0:0:
159,114,31105,1,2,0:0:0:0:
159,114,31189,1,0,0:0:0:0:
159,114,31355,1,0,0:0:0:0:
159,114,31439,1,0,0:0:0:0:
159,114,31522,1,2,0:0:0:0:
159,114,31605,1,2,0:0:0:0:
159,114,31689,1,0,0:0:0:0:
159,114,31772,1,0,0:0:0:0:
159,114,31855,1,2,0:0:0:0:
159,114,31939,1,0,0:0:0:0:
144,106,32022,1,2,0:0:0:0:
144,107,32355,1,0,0:0:0:0:
140,82,32439,1,2,0:0:0:0:
151,94,32522,1,0,0:0:0:0:
151,99,32605,1,0,0:0:0:0:
151,99,32689,1,2,0:0:0:0:
140,82,32772,1,2,0:0:0:0:
170,128,32855,1,0,0:0:0:0:
170,128,32911,1,0,0:0:0:0:
170,128,32967,1,0,0:0:0:0:
170,128,33022,1,2,0:0:0:0:
176,89,33355,1,4,0:0:0:0:
216,92,33522,1,2,0:0:0:0:
216,92,33689,1,0,0:0:0:0:
157,77,33772,1,0,0:0:0:0:
216,92,33855,1,2,0:0:0:0:
216,92,34022,1,0,0:0:0:0:
201,129,34189,1,0,0:0:0:0:
139,87,34272,1,0,0:0:0:0:
201,129,34355,1,2,0:0:0:0:
155,134,34439,1,2,0:0:0:0:
241,164,34522,1,0,0:0:0:0:
166,117,34689,1,0,0:0:0:0:
168,79,34855,1,2,0:0:0:0:
166,102,35022,1,0,0:0:0:0:
166,102,35105,1,0,0:0:0:0:
166,102,35189,1,2,0:0:0:0:
241,164,35272,1,0,0:0:0:0:
192,122,35355,1,2,0:0:0:0:
171,124,35522,1,0,0:0:0:0:
192,122,35605,1,0,0:0:0:0:
171,124,35689,1,2,0:0:0:0:
171,124,35772,1,2,0:0:0:0:
171,124,35855,1,0,0:0:0:0:
168,106,36022,1,0,0:0:0:0:
166,115,36189,1,2,0:0:0:0:
166,115,36355,1,0,0:0:0:0:
166,115,36439,1,0,0:0:0:0:
166,115,36522,1,2,0:0:0:0:
166,115,36689,1,0,0:0:0:0:
168,124,36855,1,2,0:0:0:0:
172,134,36939,1,0,0:0:0:0:
173,136,37022,1,2,0:0:0:0:
172,134,37105,1,2,0:0:0:0:
162,131,37189,1,0,0:0:0:0:
236,149,37355,1,0,0:0:0:0:
236,149,37522,1,2,0:0:0:0:
161,143,37689,1,0,0:0:0:0:
161,143,37772,1,0,0:0:0:0:
161,143,37855,1,2,0:0:0:0:
161,143,38022,1,2,0:0:0:0:
151,111,38105,1,0,0:0:0:0:
161,148,38189,1,0,0:0:0:0:
161,148,38272,1,0,0:0:0:0:
161,148,38355,1,2,0:0:0:0:
151,111,38439,1,0,0:0:0:0:
161,148,38522,1,2,0:0:0:0:
155,118,38689,1,4,0:0:0:0:
180,166,38855,5,2,0:0:0:0:
180,166,38939,1,0,0:0:0:0:
122,119,39022,1,2,0:0:0:0:
187,75,39105,1,2,0:0:0:0:
122,119,39189,1,0,0:0:0:0:
174,112,39355,1,0,0:0:0:0:
187,87,39522,1,2,0:0:0:0:
175,119,39689,1,0,0:0:0:0:
122,119,39772,1,0,0:0:0:0:
175,119,39855,1,2,0:0:0:0:
175,119,40022,1,0,0:0:0:0:
190,96,40105,1,0,0:0:0:0:
176,127,40189,1,2,0:0:0:0:
165,101,40272,1,2,0:0:0:0:
176,127,40355,1,0,0:0:0:0:
165,101,40439,1,0,0:0:0:0:
176,127,40522,1,2,0:0:0:0:
169,16,40689,1,0,0:0:0:0:
176,127,40772,1,0,0:0:0:0:
176,127,40855,1,2,0:0:0:0:
176,94,40939,1,0,0:0:0:0:
176,94,41022,1,2,0:0:0:0:
176,94,41105,1,2,0:0:0:0:
177,99,41189,1,0,0:0:0:0:
177,99,41355,1,2,0:0:0:0:
157,104,41439,1,0,0:0:0:0:
159,114,41522,1,2,0:0:0:0:
176,96,41605,1,2,0:0:0:0:
183,113,41689,1,0,0:0:0:0:
183,117,41772,1,0,0:0:0:0:
151,88,41855,1,2,0:0:0:0:
151,88,41939,1,2,0:0:0:0:
159,114,42022,1,0,0:0:0:0:
159,114,42105,1,0,0:0:0:0:
159,114,42189,1,2,0:0:0:0:
190,102,42272,1,0,0:0:0:0:
190,108,42355,1,2,0:0:0:0:
189,111,42439,1,2,0:0:0:0:
189,112,42522,1,0,0:0:0:0:
189,111,42605,1,2,0:0:0:0:
164,102,42689,1,0,0:0:0:0:
144,107,43022,1,0,0:0:0:0:
140,82,43105,1,2,0:0:0:0:
151,94,43189,1,0,0:0:0:0:
151,99,43272,1,0,0:0:0:0:
151,99,43355,1,2,0:0:0:0:
140,82,43439,1,2,0:0:0:0:
170,128,43522,1,0,0:0:0:0:
170,128,43578,1,0,0:0:0:0:
170,128,43633,1,0,0:0:0:0:
170,128,43689,1,2,0:0:0:0:
166,94,44022,1,4,0:0:0:0:
102,114,44355,1,0,0:0:0:0:
152,109,44522,1,2,0:0:0:0:
152,109,44855,1,0,0:0:0:0:
164,102,45022,1,2,0:0:0:0:
164,102,45189,1,2,0:0:0:0:
166,94,45355,1,0,0:0:0:0:
166,94,45689,1,0,0:0:0:0:
132,117,46022,1,0,0:0:0:0:
166,94,46355,1,2,0:0:0:0:
166,94,46689,1,0,0:0:0:0:
152,109,47022,1,2,0:0:0:0:
152,109,47189,1,0,0:0:0:0:
152,109,47522,1,0,0:0:0:0:
171,133,47689,1,2,0:0:0:0:
102,114,47855,1,0,0:0:0:0:
171,133,48022,1,0,0:0:0:0:
170,132,48355,1,2,0:0:0:0:
170,132,48689,1,2,0:0:0:0:
102,111,48855,1,0,0:0:0:0:
170,132,49022,1,2,0:0:0:0:
170,132,49355,1,0,0:0:0:0:
170,132,49689,1,0,0:0:0:0:
170,132,50022,1,0,0:0:0:0:
170,132,50355,1,2,0:0:0:0:
170,132,50522,1,2,0:0:0:0:
140,113,50689,1,0,0:0:0:0:
137,121,50855,1,0,0:0:0:0:
175,165,51022,5,2,0:0:0:0:
170,131,51189,1,0,0:0:0:0:
160,142,51522,1,0,0:0:0:0:
170,131,51689,1,2,0:0:0:0:
152,145,51855,1,2,0:0:0:0:
178,141,52022,1,4,0:0:0:0:
172,109,52189,1,0,0:0:0:0:
172,109,52272,1,0,0:0:0:0:
172,109,52355,1,2,0:0:0:0:
170,127,52522,1,0,0:0:0:0:
162,155,52689,1,12,0:0:0:0:
166,147,52855,1,2,0:0:0:0:
173,114,52939,1,2,0:0:0:0:
173,114,53022,1,0,0:0:0:0:
176,103,53189,1,2,0:0:0:0:
149,130,53355,1,4,0:0:0:0:
177,108,53689,1,2,0:0:0:0:
177,108,53855,1,0,0:0:0:0:
177,108,54189,1,0,0:0:0:0:
177,108,54244,1,0,0:0:0:0:
177,108,54300,1,0,0:0:0:0:
177,108,54355,1,2,0:0:0:0:
180,108,54689,1,4,0:0:0:0:
144,113,54855,1,0,0:0:0:0:
144,113,54939,1,0,0:0:0:0:
144,113,55022,1,2,0:0:0:0:
147,122,55189,1,2,0:0:0:0:
147,122,55355,1,0,0:0:0:0:
147,122,55522,1,2,0:0:0:0:
151,123,55605,1,2,0:0:0:0:
151,125,55689,1,0,0:0:0:0:
154,133,55855,1,2,0:0:0:0:
154,133,56022,1,0,0:0:0:0:
177,140,56189,5,2,0:0:0:0:
177,140,56272,1,0,0:0:0:0:
177,140,56355,1,0,0:0:0:0:
107,169,56522,1,2,0:0:0:0:
169,160,56689,1,0,0:0:0:0:
166,157,56855,1,0,0:0:0:0:
166,157,56939,1,0,0:0:0:0:
166,157,57022,1,2,0:0:0:0:
166,157,57189,1,2,0:0:0:0:
166,157,57355,1,0,0:0:0:0:
166,157,57522,1,2,0:0:0:0:
166,157,57605,1,2,0:0:0:0:
166,157,57689,1,0,0:0:0:0:
166,157,57855,1,2,0:0:0:0:
166,157,58022,1,0,0:0:0:0:
166,157,58105,1,0,0:0:0:0:
166,157,58189,1,2,0:0:0:0:
166,157,58272,1,0,0:0:0:0:
166,157,58355,1,2,0:0:0:0:
166,157,58522,1,2,0:0:0:0:
166,157,58689,1,0,0:0:0:0:
162,151,58855,1,2,0:0:0:0:
162,151,58939,1,0,0:0:0:0:
162,151,59022,1,0,0:0:0:0:
163,133,59189,1,0,0:0:0:0:
163,133,59355,1,2,0:0:0:0:
163,133,59522,1,0,0:0:0:0:
139,104,59605,1,2,0:0:0:0:
139,104,59689,1,0,0:0:0:0:
166,117,59855,1,2,0:0:0:0:
174,145,60022,1,4,0:0:0:0:
166,117,60189,1,0,0:0:0:0:
166,117,60272,1,0,0:0:0:0:
166,117,60355,1,2,0:0:0:0:
166,117,60522,1,2,0:0:0:0:
166,117,60689,1,0,0:0:0:0:
166,117,60772,1,0,0:0:0:0:
166,117,60855,1,2,0:0:0:0:
166,117,60939,1,2,0:0:0:0:
166,117,61022,1,0,0:0:0:0:
166,117,61189,1,0,0:0:0:0:
193,149,61355,1,12,0:0:0:0:
166,117,61522,1,0,0:0:0:0:
166,117,61605,1,0,0:0:0:0:
166,117,61689,1,2,0:0:0:0:
166,117,61855,1,2,0:0:0:0:
166,117,62022,1,0,0:0:0:0:
166,117,62105,1,0,0:0:0:0:
166,117,62189,1,2,0:0:0:0:
166,117,62272,1,0,0:0:0:0:
166,117,62355,1,2,0:0:0:0:
166,117,62439,1,2,0:0:0:0:
166,117,62522,1,0,0:0:0:0:
163,133,62689,1,2,0:0:0:0:
163,133,62772,1,2,0:0:0:0:
166,117,62855,1,0,0:0:0:0:
166,117,62939,1,0,0:0:0:0:
166,117,63022,1,2,0:0:0:0:
166,117,63105,1,0,0:0:0:0:
166,117,63189,1,2,0:0:0:0:
166,117,63272,1,2,0:0:0:0:
166,117,63355,1,0,0:0:0:0:
166,117,63439,1,0,0:0:0:0:
166,117,63522,1,2,0:0:0:0:
157,112,63605,1,0,0:0:0:0:
157,112,63689,1,2,0:0:0:0:
157,112,63772,1,2,0:0:0:0:
166,117,63855,1,0,0:0:0:0:
158,161,64022,1,4,0:0:0:0:
168,117,64355,1,2,0:0:0:0:
168,117,64522,1,0,0:0:0:0:
168,118,65022,1,2,0:0:0:0:
168,118,65355,1,4,0:0:0:0:
167,111,65689,1,2,0:0:0:0:
171,97,65855,1,0,0:0:0:0:
171,111,66189,1,0,0:0:0:0:
156,122,66355,1,2,0:0:0:0:
150,162,66522,1,0,0:0:0:0:
156,122,66689,1,0,0:0:0:0:
195,141,67022,1,2,0:0:0:0:
156,122,67189,1,0,0:0:0:0:
145,135,67522,1,2,0:0:0:0:
155,119,67689,1,2,0:0:0:0:
168,115,67855,1,0,0:0:0:0:
155,119,68022,1,0,0:0:0:0:
168,115,68355,1,2,0:0:0:0:
155,119,68522,1,0,0:0:0:0:
177,90,68855,1,0,0:0:0:0:
177,90,69022,1,2,0:0:0:0:
179,168,69189,1,2,0:0:0:0:
199,134,69355,1,0,0:0:0:0:
199,139,69689,1,0,0:0:0:0:
199,139,69772,1,2,0:0:0:0:
199,144,69855,1,0,0:0:0:0:
199,145,69939,1,0,0:0:0:0:
199,144,70022,1,2,0:0:0:0:
199,145,70105,1,2,0:0:0:0:
199,149,70189,1,0,0:0:0:0:
227,92,70355,1,2,0:0:0:0:
137,169,70689,1,4,0:0:0:0:
158,109,71022,1,0,0:0:0:0:
167,112,71189,1,2,0:0:0:0:
185,82,71355,1,0,0:0:0:0:
185,82,71522,1,2,0:0:0:0:
185,82,71605,1,0,0:0:0:0:
155,87,71689,1,0,0:0:0:0:
185,82,71855,1,0,0:0:0:0:
185,82,72022,1,2,0:0:0:0:
185,82,72189,1,0,0:0:0:0:
185,82,72272,1,0,0:0:0:0:
185,82,72355,1,2,0:0:0:0:
146,122,72522,1,2,0:0:0:0:
156,97,72689,1,0,0:0:0:0:
189,146,72772,1,0,0:0:0:0:
166,95,72855,1,0,0:0:0:0:
155,102,72939,1,0,0:0:0:0:
173,142,73022,1,2,0:0:0:0:
173,142,73189,1,0,0:0:0:0:
182,169,73355,1,12,0:0:0:0:
173,142,73522,1,0,0:0:0:0:
173,130,73605,1,0,0:0:0:0:
168,98,73689,1,2,0:0:0:0:
169,116,73855,1,0,0:0:0:0:
169,116,73939,1,0,0:0:0:0:
173,110,74022,1,2,0:0:0:0:
173,110,74105,1,2,0:0:0:0:
173,110,74189,1,0,0:0:0:0:
173,133,74272,1,0,0:0:0:0:
173,133,74355,1,2,0:0:0:0:
154,168,74522,1,4,0:0:0:0:
150,144,74855,1,12,0:0:0:0:
150,144,75022,1,12,0:0:0:0:
174,104,75522,1,0,0:0:0:0:
174,104,75605,1,0,0:0:0:0:
174,104,75689,1,2,0:0:0:0:
176,89,76022,1,4,0:0:0:0:
133,86,76272,1,0,0:0:0:0:
133,86,76355,1,2,0:0:0:0:
216,92,76522,1,2,0:0:0:0:
216,92,76689,1,0,0:0:0:0:
171,65,76772,1,0,0:0:0:0:
171,65,76855,1,2,0:0:0:0:
163,96,77022,1,0,0:0:0:0:
166,113,77189,1,0,0:0:0:0:
166,117,77272,1,0,0:0:0:0:
166,113,77355,1,2,0:0:0:0:
161,113,77439,1,0,0:0:0:0:
194,97,77522,1,2,0:0:0:0:
161,113,77605,1,2,0:0:0:0:
161,118,77689,1,0,0:0:0:0:
196,56,77855,1,0,0:0:0:0:
178,94,78022,1,2,0:0:0:0:
158,87,78189,1,0,0:0:0:0:
158,86,78272,1,2,0:0:0:0:
209,59,78355,1,0,0:0:0:0:
158,86,78439,1,0,0:0:0:0:
209,59,78522,1,2,0:0:0:0:
168,106,78689,1,0,0:0:0:0:
177,55,78855,1,2,0:0:0:0:
191,87,79022,1,0,0:0:0:0:
161,105,79105,1,0,0:0:0:0:
168,87,79189,1,2,0:0:0:0:
168,87,79272,1,2,0:0:0:0:
166,115,79355,1,0,0:0:0:0:
154,83,79522,1,0,0:0:0:0:
154,83,79689,1,2,0:0:0:0:
154,83,79855,1,0,0:0:0:0:
154,83,79939,1,0,0:0:0:0:
181,71,80022,1,2,0:0:0:0:
179,75,80272,1,2,0:0:0:0:
157,92,80355,1,0,0:0:0:0:
166,97,80522,1,0,0:0:0:0:
166,97,80689,1,2,0:0:0:0:
166,97,80855,1,0,0:0:0:0:
166,97,80939,1,2,0:0:0:0:
156,115,81022,1,0,0:0:0:0:
156,115,81105,1,0,0:0:0:0:
156,115,81189,1,2,0:0:0:0:
179,75,81355,1,0,0:0:0:0:
163,142,81439,1,0,0:0:0:0:
163,142,81522,1,2,0:0:0:0:
163,142,81689,1,0,0:0:0:0:
171,113,81855,1,2,0:0:0:0:
171,113,81939,1,2,0:0:0:0:
171,117,82022,1,0,0:0:0:0:
171,117,82189,1,0,0:0:0:0:
171,117,82355,1,2,0:0:0:0:
171,117,82439,1,0,0:0:0:0:
171,117,82522,1,2,0:0:0:0:
171,117,82605,1,2,0:0:0:0:
171,117,82689,1,0,0:0:0:0:
171,117,82772,1,0,0:0:0:0:
171,117,82855,1,2,0:0:0:0:
171,117,83022,1,0,0:0:0:0:
171,117,83189,1,2,0:0:0:0:
171,117,83272,1,2,0:0:0:0:
171,117,83355,1,0,0:0:0:0:
153,159,83522,1,2,0:0:0:0:
153,159,83605,1,0,0:0:0:0:
153,159,83772,1,0,0:0:0:0:
163,96,83855,1,2,0:0:0:0:
166,104,84022,1,4,0:0:0:0:
166,104,84355,1,0,0:0:0:0:
166,104,84522,1,0,0:0:0:0:
166,107,84855,1,0,0:0:0:0:
166,107,85022,1,2,0:0:0:0:
166,107,85189,1,0,0:0:0:0:
146,71,85355,1,2,0:0:0:0:
156,117,85689,1,2,0:0:0:0:
156,117,86022,1,0,0:0:0:0:
260,103,86189,1,0,0:0:0:0:
260,103,86244,1,0,0:0:0:0:
260,103,86300,1,0,0:0:0:0:
260,103,86355,1,2,0:0:0:0:
163,77,86522,1,2,0:0:0:0:
176,89,86689,1,4,0:0:0:0:
133,86,86939,1,0,0:0:0:0:
133,86,87022,1,2,0:0:0:0:
216,92,87189,1,2,0:0:0:0:
216,92,87355,1,0,0:0:0:0:
171,65,87439,1,0,0:0:0:0:
171,65,87522,1,2,0:0:0:0:
163,96,87689,1,0,0:0:0:0:
166,113,87855,1,0,0:0:0:0:
166,117,87939,1,0,0:0:0:0:
166,113,88022,1,2,0:0:0:0:
161,113,88105,1,0,0:0:0:0:
194,97,88189,1,2,0:0:0:0:
161,118,88355,1,0,0:0:0:0:
191,261,88522,1,2,0:0:0:0:
161,39,88605,1,0,0:0:0:0:
178,94,88689,1,2,0:0:0:0:
191,261,88772,1,2,0:0:0:0:
191,266,88855,1,0,0:0:0:0:
158,86,88939,1,2,0:0:0:0:
209,59,89022,1,0,0:0:0:0:
209,59,89189,1,2,0:0:0:0:
160,72,89272,1,0,0:0:0:0:
168,106,89355,1,0,0:0:0:0:
177,55,89522,1,2,0:0:0:0:
191,87,89689,1,0,0:0:0:0:
161,105,89772,1,0,0:0:0:0:
168,87,89855,1,2,0:0:0:0:
168,87,89939,1,2,0:0:0:0:
166,115,90022,1,0,0:0:0:0:
154,83,90189,1,0,0:0:0:0:
154,83,90355,1,2,0:0:0:0:
157,102,90522,1,0,0:0:0:0:
157,102,90605,1,0,0:0:0:0:
157,107,90689,1,2,0:0:0:0:
163,110,90855,1,2,0:0:0:0:
151,102,91022,1,0,0:0:0:0:
180,97,91189,1,0,0:0:0:0:
180,97,91272,1,0,0:0:0:0:
151,102,91355,1,2,0:0:0:0:
151,102,91522,1,2,0:0:0:0:
151,102,91689,1,0,0:0:0:0:
156,115,91855,1,2,0:0:0:0:
180,97,91939,1,2,0:0:0:0:
179,75,92022,1,0,0:0:0:0:
180,101,92355,1,2,0:0:0:0:
180,101,92522,1,0,0:0:0:0:
180,105,92855,1,0,0:0:0:0:
180,105,93022,1,2,0:0:0:0:
180,105,93355,1,0,0:0:0:0:
180,105,93689,1,2,0:0:0:0:
180,105,93855,1,0,0:0:0:0:
180,105,94189,1,0,0:0:0:0:
180,105,94355,1,2,0:0:0:0:
180,105,94522,1,0,0:0:0:0:
180,105,94689,1,0,0:0:0:0:
174,105,95022,1,2,0:0:0:0:
176,113,95189,1,0,0:0:0:0:
176,108,95522,1,0,0:0:0:0:
176,108,95689,1,2,0:0:0:0:
177,109,96022,1,0,0:0:0:0:
177,111,96355,1,0,0:0:0:0:
177,111,96439,1,2,0:0:0:0:
177,111,96522,1,0,0:0:0:0:
177,111,96605,1,0,0:0:0:0:
177,111,96689,1,2,0:0:0:0:
249,127,96772,1,2,0:0:0:0:
262,127,96855,1,0,0:0:0:0:
262,127,96911,1,0,0:0:0:0:
262,128,96967,1,0,0:0:0:0:
262,127,97022,1,2,0:0:0:0:
156,62,97189,1,2,0:0:0:0:
207,129,97355,1,4,0:0:0:0:
156,72,97522,1,0,0:0:0:0:
156,72,97689,1,2,0:0:0:0:
185,52,97855,1,0,0:0:0:0:
185,53,97939,1,0,0:0:0:0:
149,82,98022,1,2,0:0:0:0:
149,82,98189,1,2,0:0:0:0:
149,82,98355,1,0,0:0:0:0:
189,67,98522,1,2,0:0:0:0:
189,67,98605,1,2,0:0:0:0:
158,141,98689,1,0,0:0:0:0:
158,141,98855,1,0,0:0:0:0:
158,141,99022,1,2,0:0:0:0:
152,69,99189,1,0,0:0:0:0:
189,68,99272,1,0,0:0:0:0:
189,68,99355,1,2,0:0:0:0:
168,70,99522,1,0,0:0:0:0:
168,70,99605,1,2,0:0:0:0:
189,68,99689,1,0,0:0:0:0:
190,72,99772,1,0,0:0:0:0:
190,72,99855,1,2,0:0:0:0:
190,72,100022,1,2,0:0:0:0:
154,88,100105,1,2,0:0:0:0:
168,69,100189,1,0,0:0:0:0:
168,68,100272,1,0,0:0:0:0:
168,69,100355,1,2,0:0:0:0:
168,68,100439,1,0,0:0:0:0:
169,73,100522,1,2,0:0:0:0:
158,99,100605,1,2,0:0:0:0:
154,87,100689,1,0,0:0:0:0:
160,125,100772,1,2,0:0:0:0:
160,125,100855,1,2,0:0:0:0:
161,105,100939,1,0,0:0:0:0:
159,108,101022,1,2,0:0:0:0:
160,126,101105,1,0,0:0:0:0:
160,127,101189,1,2,0:0:0:0:
186,118,101272,1,2,0:0:0:0:
186,119,101355,1,0,0:0:0:0:
156,178,101522,1,0,0:0:0:0:
196,75,101689,1,2,0:0:0:0:
196,75,101855,1,0,0:0:0:0:
196,75,102189,1,0,0:0:0:0:
199,100,102244,1,0,0:0:0:0:
199,100,102300,1,0,0:0:0:0:
199,100,102355,1,2,0:0:0:0:
226,223,102689,1,4,0:0:0:0:
223,222,103022,1,2,0:0:0:0:
223,222,103189,1,0,0:0:0:0:
223,215,103522,1,0,0:0:0:0:
223,215,103689,1,2,0:0:0:0:
160,98,104022,1,0,0:0:0:0:
175,90,104189,1,0,0:0:0:0:
178,103,104355,1,2,0:0:0:0:
161,68,104522,1,0,0:0:0:0:
164,78,104689,1,2,0:0:0:0:
164,78,104772,1,2,0:0:0:0:
164,78,104855,1,0,0:0:0:0:
166,85,105022,1,2,0:0:0:0:
145,97,105189,1,0,0:0:0:0:
166,84,105355,1,0,0:0:0:0:
168,110,105689,1,2,0:0:0:0:
168,110,105855,1,0,0:0:0:0:
174,83,106189,1,0,0:0:0:0:
174,83,106355,1,2,0:0:0:0:
174,83,106689,1,0,0:0:0:0:
174,83,106855,1,0,0:0:0:0:
174,83,107022,1,2,0:0:0:0:
174,83,107189,1,0,0:0:0:0:
174,83,107355,1,2,0:0:0:0:
175,87,107439,1,0,0:0:0:0:
175,87,107522,1,0,0:0:0:0:
175,87,107689,1,2,0:0:0:0:
134,129,107855,1,2,0:0:0:0:
175,87,108022,1,0,0:0:0:0:
175,92,108355,1,2,0:0:0:0:
175,92,108522,1,0,0:0:0:0:
175,92,108855,1,0,0:0:0:0:
175,92,109022,1,2,0:0:0:0:
175,92,109189,1,0,0:0:0:0:
175,92,109355,1,0,0:0:0:0:
175,92,109522,1,0,0:0:0:0:
175,92,109605,1,0,0:0:0:0:
175,92,109689,1,2,0:0:0:0:
143,82,109855,1,0,0:0:0:0:
166,78,110189,1,0,0:0:0:0:
168,83,110355,1,2,0:0:0:0:
168,83,110522,1,2,0:0:0:0:
170,87,110689,1,0,0:0:0:0:
159,90,110772,1,0,0:0:0:0:
159,89,110855,1,0,0:0:0:0:
160,95,110939,1,0,0:0:0:0:
161,97,111022,1,2,0:0:0:0:
165,97,111189,1,2,0:0:0:0:
162,92,111355,1,0,0:0:0:0:
162,92,111439,1,0,0:0:0:0:
165,98,111522,1,0,0:0:0:0:
165,98,111689,1,2,0:0:0:0:
165,98,111855,1,2,0:0:0:0:
165,98,112022,1,0,0:0:0:0:
165,98,112355,1,0,0:0:0:0:
165,98,112439,1,2,0:0:0:0:
165,98,112522,1,0,0:0:0:0:
165,98,112605,1,0,0:0:0:0:
167,106,112689,1,2,0:0:0:0:
167,106,112772,1,2,0:0:0:0:
239,86,112855,1,0,0:0:0:0:
239,86,112911,1,0,0:0:0:0:
239,91,112967,1,0,0:0:0:0:
239,92,113022,1,2,0:0:0:0:
226,223,113355,1,4,0:0:0:0:
170,109,113522,1,0,0:0:0:0:
160,41,113605,1,0,0:0:0:0:
223,222,113689,1,2,0:0:0:0:
166,74,113855,1,2,0:0:0:0:
162,59,114022,1,0,0:0:0:0:
166,77,114105,1,0,0:0:0:0:
223,215,114189,1,0,0:0:0:0:
223,215,114355,1,2,0:0:0:0:
160,98,114689,1,0,0:0:0:0:
175,90,114855,1,0,0:0:0:0:
178,103,115022,1,2,0:0:0:0:
161,68,115189,1,0,0:0:0:0:
164,78,115355,1,2,0:0:0:0:
164,78,115439,1,2,0:0:0:0:
164,78,115522,1,0,0:0:0:0:
166,85,115689,1,2,0:0:0:0:
167,94,115855,1,0,0:0:0:0:
166,84,116022,1,0,0:0:0:0:
168,110,116355,1,2,0:0:0:0:
169,32,116522,1,2,0:0:0:0:
171,97,116689,1,0,0:0:0:0:
170,87,116772,1,2,0:0:0:0:
174,83,116855,1,0,0:0:0:0:
174,83,117022,1,2,0:0:0:0:
174,83,117355,1,0,0:0:0:0:
174,83,117522,1,0,0:0:0:0:
174,83,117689,1,2,0:0:0:0:
136,146,117855,1,0,0:0:0:0:
136,146,117939,1,0,0:0:0:0:
174,83,118022,1,2,0:0:0:0:
175,87,118105,1,0,0:0:0:0:
175,87,118189,1,0,0:0:0:0:
175,87,118355,1,2,0:0:0:0:
167,179,118522,1,2,0:0:0:0:
175,87,118689,1,0,0:0:0:0:
175,87,118855,1,0,0:0:0:0:
175,87,118939,1,0,0:0:0:0:
175,92,119022,1,2,0:0:0:0:
175,92,119189,1,0,0:0:0:0:
175,92,119522,1,0,0:0:0:0:
175,92,119689,1,2,0:0:0:0:
175,92,119855,1,0,0:0:0:0:
175,92,120022,1,0,0:0:0:0:
175,92,120189,1,0,0:0:0:0:
175,92,120272,1,0,0:0:0:0:
175,92,120355,1,2,0:0:0:0:
175,92,120522,1,0,0:0:0:0:
175,92,120689,1,0,0:0:0:0:
166,74,120772,1,2,0:0:0:0:
166,78,120855,1,0,0:0:0:0:
168,83,121022,1,2,0:0:0:0:
168,83,121189,1,2,0:0:0:0:
170,87,121355,1,0,0:0:0:0:
159,90,121439,1,0,0:0:0:0:
159,89,121522,1,0,0:0:0:0:
160,95,121605,1,0,0:0:0:0:
161,97,121689,1,2,0:0:0:0:
165,97,121855,1,2,0:0:0:0:
162,92,122022,1,0,0:0:0:0:
162,92,122105,1,0,0:0:0:0:
183,4,122189,1,2,0:0:0:0:
171,63,122272,1,0,0:0:0:0:
165,98,122355,1,2,0:0:0:0:
191,78,122439,1,2,0:0:0:0:
191,78,122522,1,0,0:0:0:0:
165,98,122689,1,0,0:0:0:0:
165,98,123022,1,0,0:0:0:0:
165,98,123105,1,2,0:0:0:0:
165,98,123189,1,0,0:0:0:0:
165,98,123272,1,0,0:0:0:0:
167,106,123355,1,2,0:0:0:0:
167,106,123439,1,2,0:0:0:0:
239,86,123522,1,0,0:0:0:0:
239,86,123578,1,0,0:0:0:0:
239,91,123633,1,0,0:0:0:0:
239,92,123689,1,2,0:0:0:0:
196,100,124022,1,4,0:0:0:0:
176,68,124355,1,2,0:0:0:0:
179,108,124522,1,0,0:0:0:0:
176,68,124855,1,0,0:0:0:0:
176,68,125022,1,2,0:0:0:0:
176,68,125189,1,0,0:0:0:0:
176,68,125355,1,0,0:0:0:0:
176,67,125689,1,2,0:0:0:0:
163,92,126022,1,2,0:0:0:0:
176,68,126189,1,0,0:0:0:0:
176,68,126355,1,2,0:0:0:0:
182,79,126689,1,0,0:0:0:0:
176,68,127022,1,2,0:0:0:0:
163,92,127189,1,0,0:0:0:0:
176,68,127522,1,0,0:0:0:0:
163,92,127689,1,2,0:0:0:0:
163,92,127855,1,2,0:0:0:0:
163,92,128022,1,0,0:0:0:0:
163,92,128355,1,2,0:0:0:0:
172,102,128689,5,2,0:0:0:0:
163,92,128855,1,0,0:0:0:0:
171,81,129022,1,2,0:0:0:0:
171,87,129189,1,0,0:0:0:0:
173,82,129355,1,0,0:0:0:0:
176,68,129689,1,2,0:0:0:0:
179,108,129855,1,0,0:0:0:0:
176,68,130189,1,0,0:0:0:0:
176,68,130355,1,2,0:0:0:0:
176,68,130522,1,0,0:0:0:0:
171,96,130689,1,0,0:0:0:0:
176,67,130855,1,0,0:0:0:0:
176,67,131022,1,2,0:0:0:0:
171,92,131189,1,2,0:0:0:0:
176,68,131522,1,0,0:0:0:0:
176,68,131689,1,2,0:0:0:0:
168,76,131855,1,0,0:0:0:0:
195,92,132022,1,0,0:0:0:0:
176,68,132355,1,2,0:0:0:0:
163,92,132522,1,0,0:0:0:0:
176,68,132855,1,0,0:0:0:0:
163,92,133022,1,2,0:0:0:0:
163,92,133189,1,2,0:0:0:0:
163,92,133355,1,0,0:0:0:0:
222,122,133689,1,2,0:0:0:0:
167,87,134022,1,0,0:0:0:0:
167,87,134189,1,0,0:0:0:0:
167,92,134355,1,2,0:0:0:0:
174,75,134522,1,2,0:0:0:0:
168,92,134689,1,4,0:0:0:0:
196,113,135022,1,2,0:0:0:0:
196,117,135189,1,2,0:0:0:0:
166,109,135522,1,0,0:0:0:0:
169,125,135689,1,2,0:0:0:0:
203,169,135855,1,0,0:0:0:0:
206,176,135939,1,2,0:0:0:0:
181,120,136022,1,0,0:0:0:0:
207,175,136189,1,0,0:0:0:0:
207,175,136355,1,2,0:0:0:0:
188,133,136522,1,0,0:0:0:0:
190,142,136689,1,0,0:0:0:0:
188,133,136855,1,0,0:0:0:0:
188,133,136939,1,0,0:0:0:0:
188,133,137022,1,2,0:0:0:0:
188,133,137189,1,0,0:0:0:0:
188,133,137355,1,0,0:0:0:0:
188,136,137689,1,2,0:0:0:0:
188,136,137855,1,0,0:0:0:0:
161,117,138189,1,0,0:0:0:0:
161,117,138355,1,2,0:0:0:0:
225,145,138522,1,2,0:0:0:0:
169,153,138605,1,2,0:0:0:0:
170,158,138689,1,0,0:0:0:0:
166,146,138855,1,0,0:0:0:0:
231,183,139022,1,2,0:0:0:0:
162,130,139189,1,0,0:0:0:0:
231,185,139355,1,2,0:0:0:0:
231,185,139439,1,0,0:0:0:0:
162,130,139522,1,0,0:0:0:0:
162,130,139689,1,2,0:0:0:0:
173,92,139855,1,2,0:0:0:0:
171,73,140022,1,4,0:0:0:0:
181,102,140355,1,2,0:0:0:0:
173,122,140522,1,0,0:0:0:0:
208,139,140605,1,0,0:0:0:0:
208,139,140689,1,0,0:0:0:0:
200,112,140855,1,0,0:0:0:0:
175,83,141022,1,2,0:0:0:0:
173,119,141189,1,2,0:0:0:0:
176,91,141355,1,0,0:0:0:0:
186,119,141522,1,0,0:0:0:0:
186,117,141605,1,0,0:0:0:0:
187,126,141689,1,2,0:0:0:0:
187,126,141855,1,2,0:0:0:0:
176,114,142189,1,0,0:0:0:0:
179,120,142355,1,2,0:0:0:0:
192,139,142522,1,0,0:0:0:0:
180,126,142689,1,0,0:0:0:0:
151,112,143022,1,2,0:0:0:0:
198,96,143189,1,2,0:0:0:0:
151,112,143355,1,0,0:0:0:0:
151,112,143522,1,0,0:0:0:0:
151,112,143605,1,0,0:0:0:0:
151,112,143689,1,2,0:0:0:0:
198,96,143855,1,0,0:0:0:0:
176,91,144022,1,0,0:0:0:0:
198,96,144355,1,0,0:0:0:0:
174,81,144439,1,0,0:0:0:0:
174,81,144522,1,2,0:0:0:0:
198,96,144605,1,0,0:0:0:0:
198,96,144689,1,2,0:0:0:0:
219,92,144772,1,2,0:0:0:0:
296,71,144855,1,0,0:0:0:0:
168,118,145022,1,12,0:0:0:0:
168,118,145355,1,4,0:0:0:0:
167,111,145689,1,2,0:0:0:0:
171,97,145855,1,0,0:0:0:0:
171,111,146189,1,0,0:0:0:0:
156,122,146355,1,2,0:0:0:0:
150,162,146522,1,0,0:0:0:0:
156,122,146689,1,0,0:0:0:0:
156,122,147022,1,0,0:0:0:0:
156,122,147189,1,0,0:0:0:0:
145,135,147522,1,2,0:0:0:0:
155,119,147689,1,2,0:0:0:0:
168,115,147855,1,0,0:0:0:0:
155,119,148022,1,0,0:0:0:0:
168,115,148355,1,2,0:0:0:0:
155,119,148522,1,0,0:0:0:0:
177,90,148855,1,0,0:0:0:0:
177,90,149022,1,2,0:0:0:0:
162,200,149189,1,2,0:0:0:0:
199,134,149355,1,0,0:0:0:0:
199,139,149689,1,0,0:0:0:0:
166,141,149772,1,0,0:0:0:0:
166,141,149855,1,2,0:0:0:0:
199,145,149939,1,0,0:0:0:0:
199,144,150022,1,2,0:0:0:0:
199,145,150105,1,2,0:0:0:0:
199,149,150189,1,0,0:0:0:0:
227,92,150355,1,2,0:0:0:0:
244,126,150522,1,2,0:0:0:0:
244,126,150605,1,2,0:0:0:0:
244,126,150689,1,0,0:0:0:0:
158,109,151022,1,0,0:0:0:0:
167,112,151189,1,2,0:0:0:0:
185,82,151355,1,0,0:0:0:0:
185,82,151522,1,2,0:0:0:0:
185,82,151605,1,0,0:0:0:0:
155,87,151689,1,0,0:0:0:0:
185,82,151855,1,0,0:0:0:0:
185,82,152022,1,2,0:0:0:0:
185,82,152189,1,0,0:0:0:0:
185,82,152272,1,0,0:0:0:0:
185,82,152355,1,2,0:0:0:0:
163,154,152522,1,0,0:0:0:0:
172,155,152689,1,2,0:0:0:0:
172,155,152772,1,2,0:0:0:0:
172,155,152855,1,0,0:0:0:0:
171,161,152939,1,0,0:0:0:0:
173,142,153022,1,2,0:0:0:0:
173,142,153189,1,0,0:0:0:0:
169,155,153355,1,12,0:0:0:0:
173,142,153522,1,0,0:0:0:0:
179,106,153605,1,0,0:0:0:0:
168,98,153689,1,2,0:0:0:0:
169,116,153855,1,0,0:0:0:0:
169,116,153939,1,0,0:0:0:0:
173,110,154022,1,2,0:0:0:0:
173,110,154105,1,2,0:0:0:0:
173,110,154189,1,0,0:0:0:0:
179,106,154272,1,0,0:0:0:0:
179,106,154355,1,2,0:0:0:0:
213,160,154522,1,4,0:0:0:0:
173,117,154855,1,0,0:0:0:0:
128,164,155022,1,2,0:0:0:0:
173,117,155105,1,0,0:0:0:0:
173,117,155189,1,0,0:0:0:0:
173,117,155272,1,0,0:0:0:0:
173,117,155355,1,2,0:0:0:0:
174,104,155522,1,0,0:0:0:0:
174,104,155605,1,0,0:0:0:0:
174,104,155689,1,2,0:0:0:0:
176,89,156022,1,4,0:0:0:0:
133,86,156272,1,0,0:0:0:0:
133,86,156355,1,2,0:0:0:0:
216,92,156522,1,2,0:0:0:0:
216,92,156689,1,0,0:0:0:0:
171,65,156772,1,0,0:0:0:0:
171,65,156855,1,2,0:0:0:0:
163,96,157022,1,0,0:0:0:0:
166,113,157189,1,0,0:0:0:0:
166,117,157272,1,0,0:0:0:0:
166,113,157355,1,2,0:0:0:0:
161,113,157439,1,0,0:0:0:0:
194,97,157522,1,2,0:0:0:0:
161,113,157605,1,2,0:0:0:0:
161,118,157689,1,0,0:0:0:0:
196,56,157855,1,0,0:0:0:0:
178,94,158022,1,2,0:0:0:0:
158,87,158189,1,0,0:0:0:0:
158,86,158272,1,2,0:0:0:0:
209,59,158355,1,0,0:0:0:0:
158,86,158439,1,0,0:0:0:0:
209,59,158522,1,2,0:0:0:0:
159,57,158689,1,0,0:0:0:0:
177,55,158855,1,2,0:0:0:0:
191,87,159022,1,0,0:0:0:0:
161,105,159105,1,0,0:0:0:0:
168,87,159189,1,2,0:0:0:0:
168,87,159272,1,2,0:0:0:0:
166,115,159355,1,0,0:0:0:0:
154,83,159522,1,0,0:0:0:0:
154,83,159689,1,2,0:0:0:0:
154,83,159855,1,0,0:0:0:0:
154,83,159939,1,0,0:0:0:0:
181,71,160022,1,2,0:0:0:0:
179,75,160272,1,2,0:0:0:0:
157,92,160355,1,0,0:0:0:0:
166,97,160522,1,0,0:0:0:0:
166,97,160689,1,2,0:0:0:0:
166,97,160855,1,0,0:0:0:0:
166,97,160939,1,2,0:0:0:0:
156,115,161022,1,0,0:0:0:0:
156,115,161105,1,0,0:0:0:0:
156,115,161189,1,2,0:0:0:0:
179,75,161355,1,0,0:0:0:0:
163,142,161439,1,0,0:0:0:0:
163,142,161522,1,2,0:0:0:0:
163,142,161689,1,0,0:0:0:0:
171,113,161855,1,2,0:0:0:0:
171,113,161939,1,2,0:0:0:0:
171,117,162022,1,0,0:0:0:0:
171,117,162189,1,0,0:0:0:0:
171,117,162355,1,2,0:0:0:0:
171,117,162439,1,0,0:0:0:0:
171,117,162522,1,2,0:0:0:0:
171,117,162605,1,2,0:0:0:0:
171,117,162689,1,0,0:0:0:0:
171,117,162772,1,0,0:0:0:0:
171,117,162855,1,2,0:0:0:0:
171,117,163022,1,0,0:0:0:0:
171,117,163189,1,2,0:0:0:0:
171,117,163272,1,2,0:0:0:0:
171,117,163355,1,0,0:0:0:0:
185,149,163522,1,2,0:0:0:0:
185,149,163605,1,0,0:0:0:0:
185,149,163772,1,0,0:0:0:0:
185,149,163855,1,2,0:0:0:0:
166,104,164022,1,4,0:0:0:0:
166,104,164355,1,0,0:0:0:0:
166,104,164522,1,0,0:0:0:0:
166,107,164855,1,0,0:0:0:0:
166,107,165022,1,2,0:0:0:0:
166,107,165189,1,0,0:0:0:0:
177,131,165355,1,2,0:0:0:0:
183,97,165689,1,2,0:0:0:0:
183,100,166022,1,0,0:0:0:0:
260,103,166189,1,0,0:0:0:0:
260,103,166244,1,0,0:0:0:0:
260,103,166300,1,0,0:0:0:0:
260,103,166355,1,2,0:0:0:0:
191,153,166522,1,2,0:0:0:0:
176,89,166689,1,4,0:0:0:0:
133,86,166939,1,0,0:0:0:0:
133,86,167022,1,2,0:0:0:0:
216,92,167189,1,2,0:0:0:0:
216,92,167355,1,0,0:0:0:0:
171,65,167439,1,0,0:0:0:0:
171,65,167522,1,2,0:0:0:0:
163,96,167689,1,0,0:0:0:0:
166,113,167855,1,0,0:0:0:0:
166,117,167939,1,0,0:0:0:0:
166,113,168022,1,2,0:0:0:0:
161,113,168105,1,0,0:0:0:0:
194,97,168189,1,2,0:0:0:0:
161,118,168355,1,0,0:0:0:0:
191,261,168522,1,2,0:0:0:0:
161,39,168605,1,0,0:0:0:0:
178,94,168689,1,2,0:0:0:0:
191,261,168772,1,2,0:0:0:0:
191,266,168855,1,0,0:0:0:0:
158,86,168939,1,2,0:0:0:0:
209,59,169022,1,0,0:0:0:0:
158,86,169105,1,0,0:0:0:0:
209,59,169189,1,2,0:0:0:0:
194,153,169272,1,0,0:0:0:0:
194,153,169355,1,2,0:0:0:0:
177,55,169522,1,2,0:0:0:0:
191,87,169689,1,0,0:0:0:0:
161,105,169772,1,0,0:0:0:0:
168,87,169855,1,2,0:0:0:0:
168,87,169939,1,2,0:0:0:0:
166,115,170022,1,0,0:0:0:0:
154,83,170189,1,0,0:0:0:0:
154,83,170355,1,2,0:0:0:0:
157,102,170522,1,0,0:0:0:0:
157,102,170605,1,0,0:0:0:0:
157,107,170689,1,2,0:0:0:0:
163,110,170855,1,2,0:0:0:0:
151,102,171022,1,0,0:0:0:0:
180,97,171189,1,0,0:0:0:0:
180,97,171272,1,0,0:0:0:0:
151,102,171355,1,2,0:0:0:0:
151,102,171522,1,2,0:0:0:0:
151,102,171689,1,0,0:0:0:0:
156,115,171855,1,2,0:0:0:0:
180,97,171939,1,2,0:0:0:0:
179,75,172022,1,0,0:0:0:0:
180,101,172355,1,2,0:0:0:0:
180,101,172522,1,0,0:0:0:0:
180,105,172855,1,0,0:0:0:0:
180,105,173022,1,2,0:0:0:0:
180,105,173355,1,0,0:0:0:0:
180,105,173689,1,2,0:0:0:0:
180,105,173855,1,0,0:0:0:0:
180,105,174189,1,0,0:0:0:0:
180,105,174355,1,2,0:0:0:0:
180,105,174522,1,0,0:0:0:0:
180,105,174689,1,0,0:0:0:0:
174,105,175022,1,2,0:0:0:0:
176,113,175189,1,0,0:0:0:0:
176,108,175522,1,0,0:0:0:0:
176,108,175689,1,2,0:0:0:0:
177,109,176022,1,0,0:0:0:0:
177,111,176355,1,0,0:0:0:0:
177,111,176439,1,2,0:0:0:0:
177,111,176522,1,0,0:0:0:0:
177,111,176605,1,0,0:0:0:0:
177,111,176689,1,2,0:0:0:0:
249,127,176772,1,2,0:0:0:0:
262,127,176855,1,0,0:0:0:0:
262,127,176911,1,0,0:0:0:0:
262,128,176967,1,0,0:0:0:0:
262,127,177022,1,2,0:0:0:0:
168,159,177189,1,2,0:0:0:0:
207,129,177355,1,4,0:0:0:0:
170,116,177522,1,0,0:0:0:0:
170,116,177689,1,2,0:0:0:0:
185,52,177855,1,0,0:0:0:0:
185,53,177939,1,0,0:0:0:0:
149,82,178022,1,2,0:0:0:0:
149,82,178189,1,2,0:0:0:0:
149,82,178355,1,0,0:0:0:0:
189,67,178522,1,2,0:0:0:0:
189,67,178605,1,2,0:0:0:0:
164,129,178689,1,0,0:0:0:0:
164,129,178855,1,0,0:0:0:0:
164,129,179022,1,2,0:0:0:0:
152,69,179189,1,0,0:0:0:0:
189,68,179272,1,0,0:0:0:0:
189,68,179355,1,2,0:0:0:0:
195,155,179439,1,2,0:0:0:0:
168,70,179522,1,0,0:0:0:0:
168,70,179605,1,2,0:0:0:0:
189,68,179689,1,0,0:0:0:0:
190,72,179772,1,0,0:0:0:0:
190,72,179855,1,2,0:0:0:0:
190,72,180022,1,2,0:0:0:0:
154,88,180105,1,2,0:0:0:0:
168,69,180189,1,0,0:0:0:0:
168,68,180272,1,0,0:0:0:0:
168,69,180355,1,2,0:0:0:0:
168,68,180439,1,0,0:0:0:0:
169,73,180522,1,2,0:0:0:0:
158,99,180605,1,2,0:0:0:0:
154,87,180689,1,0,0:0:0:0:
206,176,180772,1,2,0:0:0:0:
162,102,180855,1,2,0:0:0:0:
161,105,180939,1,0,0:0:0:0:
160,103,181022,1,2,0:0:0:0:
206,178,181105,1,0,0:0:0:0:
206,178,181189,1,2,0:0:0:0:
186,118,181272,1,2,0:0:0:0:
186,119,181355,1,0,0:0:0:0:
156,178,181522,1,0,0:0:0:0:
196,75,181689,1,2,0:0:0:0:
196,75,181855,1,0,0:0:0:0:
196,75,182189,1,0,0:0:0:0:
199,100,182244,1,0,0:0:0:0:
199,100,182300,1,0,0:0:0:0:
199,100,182355,1,2,0:0:0:0:
202,187,182689,1,12,0:0:0:0:
217,167,184022,1,2,0:0:0:0:
217,167,185355,1,2,0:0:0:0:
217,167,186689,1,2,0:0:0:0:
217,167,188022,1,2,0:0:0:0:
217,167,189355,1,2,0:0:0:0:
217,167,190689,5,2,0:0:0:0:
217,167,192022,1,2,0:0:0:0:
243,199,192855,5,0,0:0:0:0:
243,199,193022,1,2,0:0:0:0:
206,120,193105,1,2,0:0:0:0:
207,124,193189,1,0,0:0:0:0:
239,157,193355,1,4,0:0:0:0:
203,166,194022,1,2,0:0:0:0:
203,166,194689,1,0,0:0:0:0:
203,166,195189,1,0,0:0:0:0:
203,166,195355,1,2,0:0:0:0:
192,126,196022,1,0,0:0:0:0:
192,126,196689,1,2,0:0:0:0:
192,126,197355,1,0,0:0:0:0:
192,126,197855,1,0,0:0:0:0:
192,126,198022,1,2,0:0:0:0:
192,127,198689,1,0,0:0:0:0:
220,146,199355,1,2,0:0:0:0:
130,118,199689,1,0,0:0:0:0:
176,51,199855,1,2,0:0:0:0:
220,146,200022,1,0,0:0:0:0:
220,146,200522,1,0,0:0:0:0:
220,146,200689,1,2,0:0:0:0:
172,78,201022,1,2,0:0:0:0:
220,146,201355,1,0,0:0:0:0:
173,138,202022,1,2,0:0:0:0:
141,108,202355,1,2,0:0:0:0:
172,79,202522,1,2,0:0:0:0:
173,138,202689,1,0,0:0:0:0:
173,138,203189,1,0,0:0:0:0:
256,162,203355,5,2,0:0:0:0:
256,162,203522,1,2,0:0:0:0:
256,162,203605,1,2,0:0:0:0:
256,162,203689,1,2,0:0:0:0:
246,95,203855,1,2,0:0:0:0:
246,95,203939,1,2,0:0:0:0:
246,95,204022,1,0,0:0:0:0:
183,115,204689,1,2,0:0:0:0:
173,138,205022,1,0,0:0:0:0:
241,158,205355,1,0,0:0:0:0:
241,158,205855,1,0,0:0:0:0:
241,158,206022,1,2,0:0:0:0:
180,149,206355,1,0,0:0:0:0:
241,158,206689,1,0,0:0:0:0:
181,87,207355,1,2,0:0:0:0:
168,149,207689,1,2,0:0:0:0:
181,89,208022,1,0,0:0:0:0:
181,89,208522,1,0,0:0:0:0:
173,71,208689,1,2,0:0:0:0:
160,119,209022,1,0,0:0:0:0:
174,77,209355,1,0,0:0:0:0:
161,113,210022,1,2,0:0:0:0:
140,110,210355,1,0,0:0:0:0:
140,110,210522,1,2,0:0:0:0:
172,98,210689,1,0,0:0:0:0:
195,99,210855,1,0,0:0:0:0:
161,113,211189,1,0,0:0:0:0:
161,113,211355,1,2,0:0:0:0:
159,87,211689,1,2,0:0:0:0:
159,87,211855,1,2,0:0:0:0:
159,87,211939,1,2,0:0:0:0:
159,87,212022,1,0,0:0:0:0:
158,85,212355,1,0,0:0:0:0:
158,85,212689,1,0,0:0:0:0:
158,85,213022,1,0,0:0:0:0:
208,147,213355,1,12,0:0:0:0:
181,118,213689,1,0,0:0:0:0:
172,92,214022,1,0,0:0:0:0:
172,92,214355,1,0,0:0:0:0:
208,147,214689,1,12,0:0:0:0:
172,92,214855,1,0,0:0:0:0:
172,92,215022,1,0,0:0:0:0:
172,92,215189,1,0,0:0:0:0:
174,98,215355,1,2,0:0:0:0:
174,98,215522,1,0,0:0:0:0:
174,98,215689,1,0,0:0:0:0:
174,98,215855,1,0,0:0:0:0:
174,98,216022,1,2,0:0:0:0:
174,98,216105,1,2,0:0:0:0:
174,98,216189,1,0,0:0:0:0:
220,136,216272,1,0,0:0:0:0:
220,136,216355,1,0,0:0:0:0:
174,98,216439,1,0,0:0:0:0:
220,136,216522,1,2,0:0:0:0:
156,89,216605,1,2,0:0:0:0:
174,103,216689,1,0,0:0:0:0:
174,103,216772,1,0,0:0:0:0:
174,103,216855,1,2,0:0:0:0:
155,95,216939,1,0,0:0:0:0:
155,101,217022,1,2,0:0:0:0:
131,85,217078,1,2,0:0:0:0:
189,157,217133,1,0,0:0:0:0:
172,67,217189,1,0,0:0:0:0:
189,157,217244,1,2,0:0:0:0:
189,157,217300,1,2,0:0:0:0:
151,51,218022,1,2,0:0:0:0:
151,51,218189,1,0,0:0:0:0:
151,51,218272,1,0,0:0:0:0:
151,51,218355,1,2,0:0:0:0:
176,89,218689,1,4,0:0:0:0:
133,86,218939,1,0,0:0:0:0:
133,86,219022,1,2,0:0:0:0:
216,92,219189,1,2,0:0:0:0:
216,92,219355,1,0,0:0:0:0:
171,65,219439,1,0,0:0:0:0:
171,65,219522,1,2,0:0:0:0:
163,96,219689,1,0,0:0:0:0:
166,113,219855,1,0,0:0:0:0:
166,117,219939,1,0,0:0:0:0:
166,113,220022,1,2,0:0:0:0:
161,113,220105,1,0,0:0:0:0:
194,97,220189,1,2,0:0:0:0:
161,113,220272,1,2,0:0:0:0:
161,118,220355,1,0,0:0:0:0:
214,128,220522,1,0,0:0:0:0:
214,128,220605,1,2,0:0:0:0:
178,94,220689,1,2,0:0:0:0:
158,87,220855,1,0,0:0:0:0:
158,86,220939,1,2,0:0:0:0:
209,59,221022,1,0,0:0:0:0:
158,86,221105,1,0,0:0:0:0:
209,59,221189,1,2,0:0:0:0:
159,57,221355,1,0,0:0:0:0:
177,55,221522,1,2,0:0:0:0:
191,87,221689,1,0,0:0:0:0:
161,105,221772,1,0,0:0:0:0:
168,87,221855,1,2,0:0:0:0:
168,87,221939,1,2,0:0:0:0:
166,115,222022,1,0,0:0:0:0:
154,83,222189,1,0,0:0:0:0:
154,83,222355,1,2,0:0:0:0:
154,83,222522,1,0,0:0:0:0:
154,83,222605,1,0,0:0:0:0:
181,71,222689,1,2,0:0:0:0:
223,149,222772,1,2,0:0:0:0:
223,149,222855,1,0,0:0:0:0:
179,75,222939,1,2,0:0:0:0:
157,92,223022,1,0,0:0:0:0:
166,97,223189,1,0,0:0:0:0:
166,97,223355,1,2,0:0:0:0:
166,97,223522,1,0,0:0:0:0:
166,97,223605,1,2,0:0:0:0:
156,115,223689,1,0,0:0:0:0:
156,115,223772,1,0,0:0:0:0:
156,115,223855,1,2,0:0:0:0:
179,75,224022,1,0,0:0:0:0:
163,142,224105,1,0,0:0:0:0:
163,142,224189,1,2,0:0:0:0:
163,142,224355,1,0,0:0:0:0:
171,113,224522,1,2,0:0:0:0:
171,113,224605,1,2,0:0:0:0:
171,117,224689,1,0,0:0:0:0:
171,117,224855,1,0,0:0:0:0:
171,117,225022,1,2,0:0:0:0:
171,117,225105,1,0,0:0:0:0:
171,117,225189,1,2,0:0:0:0:
171,117,225272,1,2,0:0:0:0:
171,117,225355,1,0,0:0:0:0:
171,117,225439,1,0,0:0:0:0:
171,117,225522,1,2,0:0:0:0:
171,117,225689,1,0,0:0:0:0:
171,117,225855,1,2,0:0:0:0:
171,117,225939,1,2,0:0:0:0:
171,117,226022,1,0,0:0:0:0:
131,136,226189,1,2,0:0:0:0:
171,117,226272,1,0,0:0:0:0:
171,122,226439,1,0,0:0:0:0:
133,139,226522,1,2,0:0:0:0:
166,104,226689,1,4,0:0:0:0:
166,104,227022,1,0,0:0:0:0:
166,104,227189,1,0,0:0:0:0:
166,107,227522,1,0,0:0:0:0:
166,107,227689,1,2,0:0:0:0:
166,107,227855,1,0,0:0:0:0:
177,131,228022,1,2,0:0:0:0:
177,136,228355,1,2,0:0:0:0:
187,157,228689,1,0,0:0:0:0:
260,103,228855,1,0,0:0:0:0:
260,103,228911,1,0,0:0:0:0:
260,103,228967,1,0,0:0:0:0:
260,103,229022,1,2,0:0:0:0:
127,137,229189,1,2,0:0:0:0:
176,89,229355,1,4,0:0:0:0:
133,86,229605,1,0,0:0:0:0:
133,86,229689,1,2,0:0:0:0:
216,92,229855,1,2,0:0:0:0:
216,92,230022,1,0,0:0:0:0:
171,65,230105,1,0,0:0:0:0:
171,65,230189,1,2,0:0:0:0:
163,96,230355,1,0,0:0:0:0:
166,113,230522,1,0,0:0:0:0:
166,117,230605,1,0,0:0:0:0:
166,113,230689,1,2,0:0:0:0:
161,113,230772,1,0,0:0:0:0:
194,97,230855,1,2,0:0:0:0:
161,118,231022,1,0,0:0:0:0:
191,261,231189,1,2,0:0:0:0:
161,39,231272,1,0,0:0:0:0:
178,94,231355,1,2,0:0:0:0:
191,261,231439,1,2,0:0:0:0:
191,266,231522,1,0,0:0:0:0:
158,86,231605,1,2,0:0:0:0:
209,59,231689,1,0,0:0:0:0:
158,86,231772,1,0,0:0:0:0:
209,59,231855,1,2,0:0:0:0:
385,254,231939,1,0,0:0:0:0:
194,153,232022,1,2,0:0:0:0:
177,55,232189,1,2,0:0:0:0:
191,87,232355,1,0,0:0:0:0:
161,105,232439,1,0,0:0:0:0:
168,87,232522,1,2,0:0:0:0:
168,87,232605,1,2,0:0:0:0:
166,115,232689,1,0,0:0:0:0:
154,83,232855,1,0,0:0:0:0:
154,83,233022,1,2,0:0:0:0:
157,102,233189,1,0,0:0:0:0:
157,102,233272,1,0,0:0:0:0:
157,107,233355,1,2,0:0:0:0:
163,110,233522,1,2,0:0:0:0:
151,102,233689,1,0,0:0:0:0:
180,97,233855,1,0,0:0:0:0:
180,97,233939,1,0,0:0:0:0:
151,102,234022,1,2,0:0:0:0:
201,77,234105,1,2,0:0:0:0:
151,102,234189,1,2,0:0:0:0:
151,102,234355,1,0,0:0:0:0:
156,115,234522,1,2,0:0:0:0:
180,97,234605,1,2,0:0:0:0:
179,75,234689,1,0,0:0:0:0:
180,101,235022,1,2,0:0:0:0:
180,101,235189,1,0,0:0:0:0:
180,105,235522,1,0,0:0:0:0:
180,105,235689,1,2,0:0:0:0:
180,105,236022,1,0,0:0:0:0:
180,105,236355,1,2,0:0:0:0:
180,105,236522,1,0,0:0:0:0:
180,105,236855,1,0,0:0:0:0:
180,105,237022,1,2,0:0:0:0:
180,105,237189,1,0,0:0:0:0:
180,105,237355,1,0,0:0:0:0:
174,105,237689,1,2,0:0:0:0:
176,113,237855,1,0,0:0:0:0:
176,108,238189,1,0,0:0:0:0:
176,108,238355,1,2,0:0:0:0:
177,109,238689,1,0,0:0:0:0:
177,111,239022,1,0,0:0:0:0:
177,111,239105,1,2,0:0:0:0:
177,111,239189,1,0,0:0:0:0:
177,111,239272,1,0,0:0:0:0:
177,111,239355,1,2,0:0:0:0:
249,127,239439,1,2,0:0:0:0:
262,127,239522,1,0,0:0:0:0:
262,127,239578,1,0,0:0:0:0:
262,128,239633,1,0,0:0:0:0:
262,127,239689,1,2,0:0:0:0:
168,159,239855,1,2,0:0:0:0:
207,129,240022,1,4,0:0:0:0:
181,182,240189,1,0,0:0:0:0:
179,135,240355,1,2,0:0:0:0:
185,52,240522,1,0,0:0:0:0:
185,53,240605,1,0,0:0:0:0:
149,82,240689,1,2,0:0:0:0:
149,82,240855,1,2,0:0:0:0:
149,82,241022,1,0,0:0:0:0:
189,67,241189,1,2,0:0:0:0:
189,67,241272,1,2,0:0:0:0:
189,60,241355,1,0,0:0:0:0:
112,152,241522,1,0,0:0:0:0:
154,161,241689,1,2,0:0:0:0:
152,69,241855,1,0,0:0:0:0:
189,68,241939,1,0,0:0:0:0:
189,68,242022,1,2,0:0:0:0:
195,155,242105,1,2,0:0:0:0:
168,70,242189,1,0,0:0:0:0:
168,70,242272,1,2,0:0:0:0:
189,68,242355,1,0,0:0:0:0:
190,72,242439,1,0,0:0:0:0:
190,72,242522,1,2,0:0:0:0:
190,72,242689,1,2,0:0:0:0:
154,88,242772,1,2,0:0:0:0:
168,69,242855,1,0,0:0:0:0:
168,68,242939,1,0,0:0:0:0:
168,69,243022,1,2,0:0:0:0:
168,68,243105,1,0,0:0:0:0:
169,73,243189,1,2,0:0:0:0:
158,99,243272,1,2,0:0:0:0:
154,87,243355,1,0,0:0:0:0:
166,47,243439,1,2,0:0:0:0:
162,102,243522,1,2,0:0:0:0:
161,105,243605,1,0,0:0:0:0:
160,103,243689,1,2,0:0:0:0:
166,47,243772,1,0,0:0:0:0:
180,27,243855,1,2,0:0:0:0:
186,118,243939,1,2,0:0:0:0:
186,119,244022,1,0,0:0:0:0:
156,178,244189,1,0,0:0:0:0:
196,75,244355,1,2,0:0:0:0:
196,75,244522,1,0,0:0:0:0:
196,75,244855,1,0,0:0:0:0:
199,100,244911,1,0,0:0:0:0:
199,100,244967,1,0,0:0:0:0:
199,100,245022,1,2,0:0:0:0:
176,89,245355,1,4,0:0:0:0:
216,92,245522,1,2,0:0:0:0:
216,92,245689,1,0,0:0:0:0:
157,77,245772,1,0,0:0:0:0:
216,92,245855,1,2,0:0:0:0:
216,92,246022,1,0,0:0:0:0:
201,129,246189,1,0,0:0:0:0:
139,87,246272,1,0,0:0:0:0:
201,129,246355,1,2,0:0:0:0:
155,134,246439,1,2,0:0:0:0:
241,164,246522,1,0,0:0:0:0:
166,117,246689,1,0,0:0:0:0:
168,79,246855,1,2,0:0:0:0:
166,102,247022,1,0,0:0:0:0:
166,102,247105,1,0,0:0:0:0:
166,102,247189,1,2,0:0:0:0:
241,164,247272,1,0,0:0:0:0:
241,164,247355,1,2,0:0:0:0:
171,124,247522,1,0,0:0:0:0:
171,124,247689,1,2,0:0:0:0:
171,124,247772,1,2,0:0:0:0:
171,124,247855,1,0,0:0:0:0:
168,106,248022,1,0,0:0:0:0:
166,115,248189,1,2,0:0:0:0:
166,115,248355,1,0,0:0:0:0:
166,115,248439,1,0,0:0:0:0:
166,115,248522,1,2,0:0:0:0:
166,115,248689,1,0,0:0:0:0:
168,124,248855,1,2,0:0:0:0:
172,134,248939,1,0,0:0:0:0:
173,136,249022,1,2,0:0:0:0:
172,134,249105,1,2,0:0:0:0:
162,131,249189,1,0,0:0:0:0:
236,149,249355,1,0,0:0:0:0:
236,149,249522,1,2,0:0:0:0:
161,143,249689,1,0,0:0:0:0:
161,143,249772,1,0,0:0:0:0:
161,143,249855,1,2,0:0:0:0:
161,143,250022,1,2,0:0:0:0:
150,62,250105,1,0,0:0:0:0:
150,62,250189,1,0,0:0:0:0:
155,81,250272,1,0,0:0:0:0:
161,148,250355,1,2,0:0:0:0:
151,111,250439,1,0,0:0:0:0:
161,148,250522,1,2,0:0:0:0:
161,148,250689,1,0,0:0:0:0:
122,119,250855,1,2,0:0:0:0:
122,119,250939,1,0,0:0:0:0:
122,119,251022,1,2,0:0:0:0:
122,119,251105,1,2,0:0:0:0:
122,119,251189,1,0,0:0:0:0:
174,112,251355,1,0,0:0:0:0:
187,87,251522,1,2,0:0:0:0:
175,119,251689,1,0,0:0:0:0:
122,119,251772,1,0,0:0:0:0:
175,119,251855,1,2,0:0:0:0:
175,119,252022,1,0,0:0:0:0:
176,127,252189,1,2,0:0:0:0:
123,120,252272,1,2,0:0:0:0:
176,127,252355,1,0,0:0:0:0:
176,127,252522,1,2,0:0:0:0:
176,127,252689,1,0,0:0:0:0:
56,102,252855,1,0,0:0:0:0:
105,117,252939,1,0,0:0:0:0:
105,117,253022,1,2,0:0:0:0:
176,127,253105,1,0,0:0:0:0:
176,127,253189,1,2,0:0:0:0:
159,114,253355,1,0,0:0:0:0:
157,104,253439,1,0,0:0:0:0:
159,114,253522,1,2,0:0:0:0:
157,104,253605,1,0,0:0:0:0:
157,104,253689,1,2,0:0:0:0:
159,114,253772,1,2,0:0:0:0:
159,114,253855,1,0,0:0:0:0:
159,114,254022,1,0,0:0:0:0:
159,114,254105,1,0,0:0:0:0:
159,114,254189,1,2,0:0:0:0:
159,114,254272,1,2,0:0:0:0:
159,114,254355,1,0,0:0:0:0:
159,114,254439,1,0,0:0:0:0:
159,114,254522,1,2,0:0:0:0:
159,114,254605,1,0,0:0:0:0:
144,106,254689,1,2,0:0:0:0:
144,107,255022,1,0,0:0:0:0:
140,82,255105,1,2,0:0:0:0:
151,94,255189,1,0,0:0:0:0:
151,99,255272,1,0,0:0:0:0:
151,99,255355,1,2,0:0:0:0:
140,82,255439,1,2,0:0:0:0:
170,128,255522,1,0,0:0:0:0:
170,128,255578,1,0,0:0:0:0:
170,128,255633,1,0,0:0:0:0:
170,128,255689,1,2,0:0:0:0:
176,89,256022,1,4,0:0:0:0:
216,92,256189,1,2,0:0:0:0:
216,92,256355,1,0,0:0:0:0:
157,77,256439,1,0,0:0:0:0:
216,92,256522,1,2,0:0:0:0:
216,92,256689,1,0,0:0:0:0:
201,129,256855,1,0,0:0:0:0:
139,87,256939,1,0,0:0:0:0:
201,129,257022,1,2,0:0:0:0:
155,134,257105,1,2,0:0:0:0:
241,164,257189,1,0,0:0:0:0:
166,117,257355,1,0,0:0:0:0:
168,79,257522,1,2,0:0:0:0:
166,102,257689,1,0,0:0:0:0:
166,102,257772,1,0,0:0:0:0:
166,102,257855,1,2,0:0:0:0:
241,164,257939,1,0,0:0:0:0:
192,122,258022,1,2,0:0:0:0:
171,124,258189,1,0,0:0:0:0:
192,122,258272,1,0,0:0:0:0:
171,124,258355,1,2,0:0:0:0:
171,124,258439,1,2,0:0:0:0:
171,124,258522,1,0,0:0:0:0:
168,106,258689,1,0,0:0:0:0:
166,115,258855,1,2,0:0:0:0:
166,115,259022,1,0,0:0:0:0:
166,115,259105,1,0,0:0:0:0:
166,115,259189,1,2,0:0:0:0:
166,115,259355,1,0,0:0:0:0:
168,124,259522,1,2,0:0:0:0:
172,134,259605,1,0,0:0:0:0:
173,136,259689,1,2,0:0:0:0:
172,134,259772,1,2,0:0:0:0:
162,131,259855,1,0,0:0:0:0:
236,149,260022,1,0,0:0:0:0:
236,149,260189,1,2,0:0:0:0:
161,143,260355,1,0,0:0:0:0:
161,143,260439,1,0,0:0:0:0:
161,143,260522,1,2,0:0:0:0:
161,143,260689,1,2,0:0:0:0:
151,111,260772,1,0,0:0:0:0:
161,148,260855,1,0,0:0:0:0:
161,148,260939,1,0,0:0:0:0:
161,148,261022,1,2,0:0:0:0:
151,111,261105,1,0,0:0:0:0:
161,148,261189,1,2,0:0:0:0:
177,139,261355,1,4,0:0:0:0:
180,166,261522,5,2,0:0:0:0:
180,166,261605,1,0,0:0:0:0:
122,119,261689,1,2,0:0:0:0:
187,75,261772,1,2,0:0:0:0:
122,119,261855,1,0,0:0:0:0:
174,112,262022,1,0,0:0:0:0:
187,87,262189,1,2,0:0:0:0:
175,119,262355,1,0,0:0:0:0:
122,119,262439,1,0,0:0:0:0:
175,119,262522,1,2,0:0:0:0:
175,119,262689,1,0,0:0:0:0:
190,96,262772,1,0,0:0:0:0:
176,127,262855,1,2,0:0:0:0:
165,101,262939,1,2,0:0:0:0:
176,127,263022,1,0,0:0:0:0:
165,101,263105,1,0,0:0:0:0:
176,127,263189,1,2,0:0:0:0:
169,16,263355,1,0,0:0:0:0:
176,127,263439,1,0,0:0:0:0:
176,127,263522,1,2,0:0:0:0:
176,94,263605,1,0,0:0:0:0:
176,94,263689,1,2,0:0:0:0:
176,94,263772,1,2,0:0:0:0:
177,99,263855,1,0,0:0:0:0:
177,99,264022,1,2,0:0:0:0:
157,104,264105,1,0,0:0:0:0:
159,114,264189,1,2,0:0:0:0:
176,96,264272,1,2,0:0:0:0:
183,113,264355,1,0,0:0:0:0:
183,117,264439,1,0,0:0:0:0:
151,88,264522,1,2,0:0:0:0:
151,88,264605,1,2,0:0:0:0:
159,114,264689,1,0,0:0:0:0:
159,114,264772,1,0,0:0:0:0:
159,114,264855,1,2,0:0:0:0:
190,102,264939,1,0,0:0:0:0:
190,108,265022,1,2,0:0:0:0:
189,111,265105,1,2,0:0:0:0:
189,112,265189,1,0,0:0:0:0:
189,111,265272,1,2,0:0:0:0:
164,102,265355,1,0,0:0:0:0:
144,107,265689,1,0,0:0:0:0:
140,82,265772,1,2,0:0:0:0:
151,94,265855,1,0,0:0:0:0:
151,99,265939,1,0,0:0:0:0:
151,99,266022,1,2,0:0:0:0:
140,82,266105,1,2,0:0:0:0:
170,128,266189,1,0,0:0:0:0:
170,128,266244,1,0,0:0:0:0:
170,128,266300,1,0,0:0:0:0:
170,128,266355,1,2,0:0:0:0:
188,140,266689,5,4,0:0:0:0:
178,84,267022,1,2,0:0:0:0:
178,84,267189,1,0,0:0:0:0:
179,87,267522,1,0,0:0:0:0:
179,87,267689,1,2,0:0:0:0:
171,62,267855,1,2,0:0:0:0:
191,98,268189,1,0,0:0:0:0:
181,93,268355,1,2,0:0:0:0:
181,93,268522,1,0,0:0:0:0:
193,100,268855,1,0,0:0:0:0:
177,21,269022,1,2,0:0:0:0:
231,107,269189,1,2,0:0:0:0:
231,107,269355,1,0,0:0:0:0:
204,57,269522,1,0,0:0:0:0:
157,53,269689,1,2,0:0:0:0:
157,53,269855,1,0,0:0:0:0:
224,48,270189,1,2,0:0:0:0:
157,52,270355,1,2,0:0:0:0:
171,42,270522,1,2,0:0:0:0:
232,110,270689,1,0,0:0:0:0:
141,87,271022,1,0,0:0:0:0:
141,87,271189,1,2,0:0:0:0:
166,82,271522,1,2,0:0:0:0:
169,96,271855,1,0,0:0:0:0:
201,78,272022,1,2,0:0:0:0:
178,84,272355,1,2,0:0:0:0:
163,78,272522,1,0,0:0:0:0:
179,87,272855,1,0,0:0:0:0:
179,87,273022,1,2,0:0:0:0:
141,112,273189,1,2,0:0:0:0:
191,98,273522,1,0,0:0:0:0:
181,93,273689,1,2,0:0:0:0:
181,93,273855,1,0,0:0:0:0:
193,100,274189,1,0,0:0:0:0:
177,21,274355,1,2,0:0:0:0:
231,107,274522,1,2,0:0:0:0:
231,107,274689,1,0,0:0:0:0:
166,108,274855,1,0,0:0:0:0:
157,53,275022,1,2,0:0:0:0:
157,53,275189,1,0,0:0:0:0:
147,49,275522,1,0,0:0:0:0:
157,52,275689,1,2,0:0:0:0:
176,116,275855,1,2,0:0:0:0:
164,66,276022,1,4,0:0:0:0:
169,83,276689,1,2,0:0:0:0:
169,83,276772,1,2,0:0:0:0:
169,83,276855,1,0,0:0:0:0:
169,83,276939,1,0,0:0:0:0:
169,83,277022,1,2,0:0:0:0:
180,120,277189,1,0,0:0:0:0:
169,125,277355,1,4,0:0:0:0:
143,154,277689,1,0,0:0:0:0:
143,154,278022,1,0,0:0:0:0:
143,154,278355,1,0,0:0:0:0:
143,154,278689,1,0,0:0:0:0:
143,154,279022,1,0,0:0:0:0:
143,154,279355,1,0,0:0:0:0:
154,101,279689,1,0,0:0:0:0:
143,154,279855,1,2,0:0:0:0:
143,154,280022,1,0,0:0:0:0:
143,154,280355,1,0,0:0:0:0:
143,154,280689,1,0,0:0:0:0:
161,100,281022,1,0,0:0:0:0:
143,154,281355,1,0,0:0:0:0:
161,100,281689,1,0,0:0:0:0:
161,100,282022,1,0,0:0:0:0:
161,100,282355,1,2,0:0:0:0:
161,100,282522,1,2,0:0:0:0:
161,100,282605,1,2,0:0:0:0:
161,100,282689,1,0,0:0:0:0:
159,109,283022,1,2,0:0:0:0:
159,106,283355,1,2,0:0:0:0:
188,148,283689,1,2,0:0:0:0:
129,154,284022,1,4,0:0:0:0:
159,106,284355,1,2,0:0:0:0:
159,106,284689,1,2,0:0:0:0:
127,143,285022,1,2,0:0:0:0:
175,145,285355,1,12,0:0:0:0:
156,114,285522,1,0,0:0:0:0:
127,143,285689,1,0,0:0:0:0:
185,88,285855,1,0,0:0:0:0:
185,114,286022,1,2,0:0:0:0:
185,114,286105,1,0,0:0:0:0:
185,114,286189,1,2,0:0:0:0:
185,114,286272,1,2,0:0:0:0:
185,114,286355,1,0,0:0:0:0:
185,114,286439,1,0,0:0:0:0:
185,114,286522,1,2,0:0:0:0:
185,114,286605,1,2,0:0:0:0:
185,114,286689,1,0,0:0:0:0:
183,117,287022,1,0,0:0:0:0:
183,117,287189,1,2,0:0:0:0:
183,117,287522,1,2,0:0:0:0:
183,117,287855,1,0,0:0:0:0:
