osu file format v14

[General]
AudioFilename: audio.mp3
AudioLeadIn: 0
PreviewTime: 155660
Countdown: 0
SampleSet: Normal
StackLeniency: 0.7
Mode: 1
LetterboxInBreaks: 0
WidescreenStoryboard: 0

[Editor]
DistanceSpacing: 0.8
BeatDivisor: 4
GridSize: 4
TimelineZoom: 1.6

[Metadata]
Title:Gateau au chocolat
TitleUnicode:Gâteau au chocolat
Artist:nenpulse
ArtistUnicode:nenpulse
Creator:KTYN
Version:Oni
Source:あなたに恋する恋愛ルセット
Tags:bootleg remix Meis Clauson ゆいこんぬ petit bonheur yuiko eroge opening renai visual novel anata ni koisuru ren'ai recette japanese video game Drum & and bass 180 GBC-01Girlish Collection K@keru Records Kakeru
BeatmapID:2129574
BeatmapSetID:969906

[Difficulty]
HPDrainRate:5.7
CircleSize:5
OverallDifficulty:5.2
ApproachRate:5
SliderMultiplier:1.4
SliderTickRate:1

[Events]
//Background and Video events
0,0,"gateau.jpg",0,80
//Break Periods
//Storyboard Layer 0 (Background)
//Storyboard Layer 1 (Fail)
//Storyboard Layer 2 (Pass)
//Storyboard Layer 3 (Foreground)
//Storyboard Layer 4 (Overlay)
//Storyboard Sound Samples

[TimingPoints]
1356,333.333333333333,4,1,0,100,1,0
1356,-100,4,1,0,70,0,0
10689,-100,4,1,0,90,0,0
12022,-100,4,1,0,100,0,0
76022,-100,4,1,0,100,0,1
102689,-100,4,1,0,100,0,0
124021,-111.111111111111,4,1,0,100,0,0
134689,-100,4,1,0,100,0,0
156022,-100,4,1,0,100,0,1
182689,-100,4,1,0,100,0,0
184022,-111.111111111111,4,1,0,90,0,0
185355,-125,4,1,0,80,0,0
186689,-142.857142857143,4,1,0,70,0,0
188022,-166.666666666667,4,1,0,60,0,0
189355,-200,4,1,0,50,0,0
192855,-125,4,1,0,100,0,0
193939,-125,4,1,0,70,0,0
204022,-125,4,1,0,80,0,0
211605,-111.111111111111,4,1,0,100,0,0
214689,-105.263157894737,4,1,0,100,0,0
216022,-100,4,1,0,100,0,0
218689,-100,4,1,0,100,0,1
245355,-100,4,1,0,100,0,0
266689,-100,4,1,0,80,0,0
277355,-100,4,1,0,70,0,0
277689,-111.111111111111,4,1,0,70,0,0
282272,-100,4,1,0,80,0,0
284022,-100,4,1,0,90,0,0
285355,-100,4,1,0,100,0,0
286772,-100,4,1,0,60,0,0

[HitObjects]
188,140,1356,5,4,0:0:0:0:
178,84,1689,1,2,0:0:0:0:
179,87,2189,1,0,0:0:0:0:
179,87,2355,1,2,0:0:0:0:
182,96,2689,1,0,0:0:0:0:
191,98,2855,1,0,0:0:0:0:
181,93,3022,1,2,0:0:0:0:
181,93,3189,1,0,0:0:0:0:
193,100,3522,1,0,0:0:0:0:
177,21,3689,1,2,0:0:0:0:
231,107,4022,1,0,0:0:0:0:
157,53,4355,1,2,0:0:0:0:
166,94,4855,1,0,0:0:0:0:
157,52,5022,1,2,0:0:0:0:
171,42,5189,1,2,0:0:0:0:
232,110,5355,1,0,0:0:0:0:
141,87,5689,1,0,0:0:0:0:
141,87,5855,1,2,0:0:0:0:
166,82,6189,1,2,0:0:0:0:
169,96,6522,1,0,0:0:0:0:
201,78,6689,1,2,0:0:0:0:
178,84,7022,1,2,0:0:0:0:
179,87,7522,1,0,0:0:0:0:
179,87,7689,1,2,0:0:0:0:
211,28,8022,1,0,0:0:0:0:
191,98,8189,1,0,0:0:0:0:
181,93,8355,1,2,0:0:0:0:
181,93,8522,1,0,0:0:0:0:
193,100,8855,1,0,0:0:0:0:
177,21,9022,1,2,0:0:0:0:
231,107,9355,1,0,0:0:0:0:
166,108,9522,1,0,0:0:0:0:
157,53,9689,1,2,0:0:0:0:
157,53,9855,1,0,0:0:0:0:
147,49,10189,1,0,0:0:0:0:
157,52,10355,1,2,0:0:0:0:
176,116,10522,1,2,0:0:0:0:
164,66,10689,1,4,0:0:0:0:
169,83,11355,1,2,0:0:0:0:
191,100,11439,1,2,0:0:0:0:
191,100,11522,1,0,0:0:0:0:
191,100,11605,1,0,0:0:0:0:
191,100,11689,1,2,0:0:0:0:
188,63,11855,1,0,0:0:0:0:
191,181,12022,1,12,0:0:0:0:
176,77,12355,1,2,0:0:0:0:
176,77,12522,1,2,0:0:0:0:
163,76,12855,1,2,0:0:0:0:
163,76,12939,1,0,0:0:0:0:
163,76,13022,1,0,0:0:0:0:
166,79,13189,1,0,0:0:0:0:
166,79,13355,1,2,0:0:0:0:
173,92,13689,1,2,0:0:0:0:
173,58,13855,1,0,0:0:0:0:
181,124,14022,1,0,0:0:0:0:
166,80,14189,1,2,0:0:0:0:
174,60,14272,1,2,0:0:0:0:
174,60,14355,1,0,0:0:0:0:
181,124,14522,1,0,0:0:0:0:
167,83,14689,1,2,0:0:0:0:
166,59,15022,1,2,0:0:0:0:
166,59,15189,1,2,0:0:0:0:
168,57,15522,1,2,0:0:0:0:
168,57,15605,1,0,0:0:0:0:
168,57,15689,1,0,0:0:0:0:
168,57,15855,1,0,0:0:0:0:
170,62,16022,1,2,0:0:0:0:
186,97,16355,1,2,0:0:0:0:
189,159,16522,1,0,0:0:0:0:
129,70,16689,1,0,0:0:0:0:
182,27,16855,1,2,0:0:0:0:
179,77,16939,1,2,0:0:0:0:
179,77,17022,1,0,0:0:0:0:
179,77,17105,1,0,0:0:0:0:
179,77,17189,1,2,0:0:0:0:
166,59,17355,1,12,0:0:0:0:
136,78,17689,1,2,0:0:0:0:
180,78,17855,1,2,0:0:0:0:
177,97,18189,1,0,0:0:0:0:
177,97,18272,1,0,0:0:0:0:
177,97,18355,1,2,0:0:0:0:
177,97,18522,1,0,0:0:0:0:
166,57,18689,1,4,0:0:0:0:
177,101,19022,1,2,0:0:0:0:
177,101,19189,1,0,0:0:0:0:
177,101,19272,1,0,0:0:0:0:
177,101,19355,1,0,0:0:0:0:
177,101,19522,1,2,0:0:0:0:
177,101,19689,1,0,0:0:0:0:
177,101,19855,1,0,0:0:0:0:
183,70,20022,1,12,0:0:0:0:
176,82,20355,1,2,0:0:0:0:
176,82,20522,1,2,0:0:0:0:
176,82,20689,1,0,0:0:0:0:
176,82,20772,1,0,0:0:0:0:
176,82,20855,1,2,0:0:0:0:
176,82,20939,1,2,0:0:0:0:
176,82,21022,1,0,0:0:0:0:
176,82,21189,1,2,0:0:0:0:
176,87,21355,1,0,0:0:0:0:
176,87,21689,1,0,0:0:0:0:
171,54,21772,1,0,0:0:0:0:
176,87,21855,1,0,0:0:0:0:
176,87,22022,1,2,0:0:0:0:
214,95,22189,1,0,0:0:0:0:
171,54,22272,1,0,0:0:0:0:
176,87,22355,1,2,0:0:0:0:
176,89,22689,1,4,0:0:0:0:
216,92,22855,1,2,0:0:0:0:
215,116,22939,1,2,0:0:0:0:
216,92,23022,1,0,0:0:0:0:
216,92,23189,1,2,0:0:0:0:
216,92,23355,1,0,0:0:0:0:
201,129,23522,1,0,0:0:0:0:
201,129,23689,1,2,0:0:0:0:
166,117,24022,1,0,0:0:0:0:
168,79,24189,1,2,0:0:0:0:
166,102,24355,1,0,0:0:0:0:
166,102,24439,1,0,0:0:0:0:
166,102,24522,1,2,0:0:0:0:
241,164,24689,1,2,0:0:0:0:
171,124,25022,1,2,0:0:0:0:
89,121,25189,1,2,0:0:0:0:
168,106,25355,1,0,0:0:0:0:
166,115,25522,1,2,0:0:0:0:
176,120,25605,1,2,0:0:0:0:
166,115,25689,1,0,0:0:0:0:
166,115,25855,1,2,0:0:0:0:
166,115,26022,1,0,0:0:0:0:
158,131,26189,1,0,0:0:0:0:
173,136,26355,1,2,0:0:0:0:
236,149,26689,1,0,0:0:0:0:
236,149,26855,1,2,0:0:0:0:
161,143,27022,1,0,0:0:0:0:
161,143,27105,1,0,0:0:0:0:
172,59,27189,1,0,0:0:0:0:
161,143,27355,1,2,0:0:0:0:
161,148,27689,1,2,0:0:0:0:
161,148,27855,1,2,0:0:0:0:
161,148,28022,1,0,0:0:0:0:
122,119,28189,1,2,0:0:0:0:
122,119,28272,1,0,0:0:0:0:
122,119,28355,1,2,0:0:0:0:
122,119,28522,1,0,0:0:0:0:
187,87,28855,1,2,0:0:0:0:
175,119,29022,1,0,0:0:0:0:
122,119,29105,1,0,0:0:0:0:
175,119,29189,1,2,0:0:0:0:
175,119,29355,1,0,0:0:0:0:
176,127,29522,1,2,0:0:0:0:
123,120,29605,1,2,0:0:0:0:
176,127,29689,1,0,0:0:0:0:
176,127,29855,1,2,0:0:0:0:
176,127,30022,1,0,0:0:0:0:
176,127,30105,1,0,0:0:0:0:
176,127,30189,1,2,0:0:0:0:
176,127,30355,1,0,0:0:0:0:
181,59,30689,1,2,0:0:0:0:
159,114,30855,1,2,0:0:0:0:
157,104,30939,1,0,0:0:0:0:
157,104,31022,1,2,0:0:0:0:
159,114,31189,1,0,0:0:0:0:
159,114,31355,1,0,0:0:0:0:
159,114,31439,1,0,0:0:0:0:
159,114,31522,1,2,0:0:0:0:
159,114,31605,1,2,0:0:0:0:
159,114,31689,1,0,0:0:0:0:
159,114,31855,1,2,0:0:0:0:
168,97,32022,1,0,0:0:0:0:
144,107,32355,1,0,0:0:0:0:
176,42,32439,1,0,0:0:0:0:
151,94,32522,1,0,0:0:0:0:
151,99,32689,1,2,0:0:0:0:
170,128,32855,1,0,0:0:0:0:
160,65,32939,5,0,0:0:0:0:
163,88,33022,1,2,0:0:0:0:
176,89,33355,1,4,0:0:0:0:
216,92,33522,1,2,0:0:0:0:
216,92,33689,1,0,0:0:0:0:
165,53,33772,1,0,0:0:0:0:
216,92,33855,1,2,0:0:0:0:
216,92,34022,1,0,0:0:0:0:
201,129,34189,1,0,0:0:0:0:
201,129,34355,1,2,0:0:0:0:
166,117,34689,1,0,0:0:0:0:
168,79,34855,1,2,0:0:0:0:
141,111,34939,1,2,0:0:0:0:
141,111,35022,1,0,0:0:0:0:
141,111,35189,1,0,0:0:0:0:
241,164,35355,1,2,0:0:0:0:
167,71,35522,1,0,0:0:0:0:
185,109,35689,1,2,0:0:0:0:
89,121,35855,1,2,0:0:0:0:
168,106,36022,1,0,0:0:0:0:
166,115,36189,1,2,0:0:0:0:
166,115,36355,1,0,0:0:0:0:
167,71,36439,1,0,0:0:0:0:
166,115,36522,1,2,0:0:0:0:
166,115,36689,1,0,0:0:0:0:
158,131,36855,1,0,0:0:0:0:
173,136,37022,1,2,0:0:0:0:
236,149,37355,1,0,0:0:0:0:
236,149,37522,1,2,0:0:0:0:
159,84,37605,1,0,0:0:0:0:
159,84,37689,5,0,0:0:0:0:
159,84,37855,1,0,0:0:0:0:
161,143,38022,1,2,0:0:0:0:
172,59,38189,1,0,0:0:0:0:
161,148,38355,1,2,0:0:0:0:
161,148,38522,1,2,0:0:0:0:
175,61,38689,1,4,0:0:0:0:
122,119,38855,1,2,0:0:0:0:
122,119,38939,1,0,0:0:0:0:
122,119,39022,1,2,0:0:0:0:
122,119,39189,1,0,0:0:0:0:
187,87,39522,1,2,0:0:0:0:
175,119,39689,1,0,0:0:0:0:
122,119,39772,1,0,0:0:0:0:
175,119,39855,1,2,0:0:0:0:
175,119,40022,1,0,0:0:0:0:
176,127,40189,1,2,0:0:0:0:
123,120,40272,1,2,0:0:0:0:
176,127,40355,1,0,0:0:0:0:
176,127,40522,1,2,0:0:0:0:
176,127,40689,1,0,0:0:0:0:
176,127,40772,1,0,0:0:0:0:
179,94,40855,5,2,0:0:0:0:
179,94,41022,1,0,0:0:0:0:
181,59,41355,1,2,0:0:0:0:
159,114,41522,1,2,0:0:0:0:
157,104,41605,1,0,0:0:0:0:
157,104,41689,1,2,0:0:0:0:
159,114,41855,1,0,0:0:0:0:
159,114,42022,1,0,0:0:0:0:
159,114,42105,1,0,0:0:0:0:
159,114,42189,1,2,0:0:0:0:
159,114,42272,1,2,0:0:0:0:
159,114,42355,1,0,0:0:0:0:
159,114,42522,1,2,0:0:0:0:
168,97,42689,1,0,0:0:0:0:
144,107,43022,5,0,0:0:0:0:
176,42,43105,1,0,0:0:0:0:
151,94,43189,1,0,0:0:0:0:
151,99,43355,1,2,0:0:0:0:
170,128,43522,1,0,0:0:0:0:
160,65,43605,5,0,0:0:0:0:
163,88,43689,1,2,0:0:0:0:
166,94,44022,1,4,0:0:0:0:
102,114,44355,1,0,0:0:0:0:
142,128,44689,1,0,0:0:0:0:
164,102,45022,1,2,0:0:0:0:
154,137,45189,1,2,0:0:0:0:
166,94,45355,1,0,0:0:0:0:
166,94,45689,1,0,0:0:0:0:
115,169,46022,1,2,0:0:0:0:
166,94,46355,1,2,0:0:0:0:
166,94,46689,1,0,0:0:0:0:
142,121,47022,1,0,0:0:0:0:
164,115,47355,1,0,0:0:0:0:
152,109,47522,1,0,0:0:0:0:
171,133,47689,1,2,0:0:0:0:
164,115,47855,1,2,0:0:0:0:
171,133,48022,1,0,0:0:0:0:
170,132,48355,1,2,0:0:0:0:
170,132,48689,1,2,0:0:0:0:
102,111,48855,1,0,0:0:0:0:
170,132,49022,1,2,0:0:0:0:
170,132,49355,1,0,0:0:0:0:
170,132,49689,1,0,0:0:0:0:
170,132,50022,1,0,0:0:0:0:
170,132,50355,1,2,0:0:0:0:
170,132,50522,1,2,0:0:0:0:
140,113,50689,1,0,0:0:0:0:
137,121,50855,1,0,0:0:0:0:
175,165,51022,5,2,0:0:0:0:
170,131,51189,1,0,0:0:0:0:
160,142,51522,1,0,0:0:0:0:
170,131,51689,1,2,0:0:0:0:
152,145,51855,1,2,0:0:0:0:
157,124,52022,1,4,0:0:0:0:
172,109,52189,5,0,0:0:0:0:
172,109,52272,1,0,0:0:0:0:
172,109,52355,1,2,0:0:0:0:
173,114,52522,1,0,0:0:0:0:
173,114,52689,1,2,0:0:0:0:
173,114,52772,1,0,0:0:0:0:
164,47,52855,1,0,0:0:0:0:
176,59,53022,1,2,0:0:0:0:
176,59,53189,1,0,0:0:0:0:
151,116,53355,1,4,0:0:0:0:
177,108,53689,1,2,0:0:0:0:
177,108,53855,1,0,0:0:0:0:
177,108,54189,1,0,0:0:0:0:
184,35,54272,1,0,0:0:0:0:
177,108,54355,1,2,0:0:0:0:
180,108,54689,1,4,0:0:0:0:
144,113,54855,1,0,0:0:0:0:
144,113,54939,1,0,0:0:0:0:
144,113,55022,1,2,0:0:0:0:
135,120,55189,1,0,0:0:0:0:
147,122,55522,1,2,0:0:0:0:
151,123,55605,1,2,0:0:0:0:
151,125,55689,1,0,0:0:0:0:
154,133,55855,1,2,0:0:0:0:
154,133,56022,1,0,0:0:0:0:
191,123,56189,1,0,0:0:0:0:
171,83,56355,1,2,0:0:0:0:
177,140,56522,1,0,0:0:0:0:
166,61,56689,1,2,0:0:0:0:
166,157,57022,1,2,0:0:0:0:
166,157,57189,1,2,0:0:0:0:
166,157,57355,1,0,0:0:0:0:
166,157,57522,1,2,0:0:0:0:
166,157,57605,1,2,0:0:0:0:
166,157,57689,1,0,0:0:0:0:
166,157,57855,1,2,0:0:0:0:
166,157,58189,1,2,0:0:0:0:
166,157,58272,1,0,0:0:0:0:
166,157,58355,1,2,0:0:0:0:
166,157,58522,1,2,0:0:0:0:
166,157,58689,1,0,0:0:0:0:
191,123,58855,1,2,0:0:0:0:
162,151,59022,1,0,0:0:0:0:
163,133,59189,1,0,0:0:0:0:
163,133,59355,1,2,0:0:0:0:
163,128,59522,1,2,0:0:0:0:
163,128,59605,1,2,0:0:0:0:
139,104,59689,1,0,0:0:0:0:
166,117,59855,1,2,0:0:0:0:
202,149,60022,1,4,0:0:0:0:
166,117,60355,1,2,0:0:0:0:
166,117,60522,1,2,0:0:0:0:
166,117,60689,1,0,0:0:0:0:
166,117,60772,1,0,0:0:0:0:
166,117,60855,1,2,0:0:0:0:
166,117,61022,1,0,0:0:0:0:
156,147,61355,1,12,0:0:0:0:
166,117,61522,1,0,0:0:0:0:
166,117,61605,1,0,0:0:0:0:
166,117,61689,1,2,0:0:0:0:
166,117,61855,1,2,0:0:0:0:
166,117,62022,1,0,0:0:0:0:
166,117,62105,1,0,0:0:0:0:
166,117,62189,1,2,0:0:0:0:
166,117,62355,1,2,0:0:0:0:
140,183,62689,1,4,0:0:0:0:
170,77,62855,1,0,0:0:0:0:
169,70,62939,1,0,0:0:0:0:
166,117,63022,1,2,0:0:0:0:
174,98,63189,1,2,0:0:0:0:
166,117,63355,1,0,0:0:0:0:
166,117,63439,1,0,0:0:0:0:
166,117,63522,1,2,0:0:0:0:
157,112,63605,1,0,0:0:0:0:
157,112,63689,1,2,0:0:0:0:
170,82,63855,1,2,0:0:0:0:
139,183,64022,1,4,0:0:0:0:
168,117,64355,1,2,0:0:0:0:
168,117,64522,1,0,0:0:0:0:
168,118,65022,1,2,0:0:0:0:
168,118,65355,1,4,0:0:0:0:
167,111,65689,1,2,0:0:0:0:
171,97,65855,1,0,0:0:0:0:
156,62,66189,1,0,0:0:0:0:
156,122,66355,1,2,0:0:0:0:
156,122,66689,1,0,0:0:0:0:
173,149,67022,1,2,0:0:0:0:
156,122,67189,1,0,0:0:0:0:
145,135,67522,1,2,0:0:0:0:
155,119,67689,1,2,0:0:0:0:
155,119,68022,1,0,0:0:0:0:
168,115,68355,1,2,0:0:0:0:
155,119,68522,1,0,0:0:0:0:
177,90,68855,1,0,0:0:0:0:
177,90,69022,1,2,0:0:0:0:
199,134,69355,1,0,0:0:0:0:
199,139,69689,1,0,0:0:0:0:
152,57,69772,1,0,0:0:0:0:
165,71,69855,1,0,0:0:0:0:
165,76,70022,1,2,0:0:0:0:
199,149,70189,1,0,0:0:0:0:
165,76,70272,1,0,0:0:0:0:
227,92,70355,1,2,0:0:0:0:
156,63,70689,1,4,0:0:0:0:
158,109,71022,1,0,0:0:0:0:
167,112,71189,1,2,0:0:0:0:
185,82,71355,1,0,0:0:0:0:
185,82,71522,1,2,0:0:0:0:
185,82,71605,1,0,0:0:0:0:
155,87,71689,1,0,0:0:0:0:
185,82,71855,1,0,0:0:0:0:
185,82,72022,1,2,0:0:0:0:
185,82,72355,1,2,0:0:0:0:
181,49,72522,1,2,0:0:0:0:
156,97,72689,1,0,0:0:0:0:
166,95,72855,1,0,0:0:0:0:
213,182,72939,1,0,0:0:0:0:
173,142,73022,1,2,0:0:0:0:
173,142,73189,1,0,0:0:0:0:
209,148,73355,1,12,0:0:0:0:
168,98,73689,1,2,0:0:0:0:
169,116,73855,1,0,0:0:0:0:
191,158,74022,1,2,0:0:0:0:
191,158,74105,1,2,0:0:0:0:
192,163,74189,1,0,0:0:0:0:
173,133,74355,1,2,0:0:0:0:
206,104,74522,1,4,0:0:0:0:
206,104,74855,1,12,0:0:0:0:
206,104,75022,1,12,0:0:0:0:
174,104,75522,1,0,0:0:0:0:
174,104,75605,1,0,0:0:0:0:
174,104,75689,1,2,0:0:0:0:
176,89,76022,1,4,0:0:0:0:
133,86,76355,1,2,0:0:0:0:
216,92,76522,1,2,0:0:0:0:
216,92,76689,1,0,0:0:0:0:
171,65,76772,1,0,0:0:0:0:
171,65,76855,1,2,0:0:0:0:
163,96,77022,1,0,0:0:0:0:
238,176,77355,1,2,0:0:0:0:
156,137,77439,1,0,0:0:0:0:
238,176,77522,1,2,0:0:0:0:
161,118,77689,1,0,0:0:0:0:
196,56,77855,1,0,0:0:0:0:
178,94,78022,1,2,0:0:0:0:
158,87,78189,1,0,0:0:0:0:
158,86,78272,1,2,0:0:0:0:
209,59,78355,1,0,0:0:0:0:
162,71,78522,1,2,0:0:0:0:
168,106,78689,1,0,0:0:0:0:
182,45,79022,1,2,0:0:0:0:
168,87,79189,1,2,0:0:0:0:
168,87,79272,1,2,0:0:0:0:
166,115,79355,1,0,0:0:0:0:
154,83,79522,1,0,0:0:0:0:
154,83,79689,1,2,0:0:0:0:
181,71,80022,1,2,0:0:0:0:
141,122,80105,1,2,0:0:0:0:
141,122,80189,1,0,0:0:0:0:
141,122,80355,1,2,0:0:0:0:
166,97,80522,1,0,0:0:0:0:
166,102,80689,1,2,0:0:0:0:
166,87,80939,1,2,0:0:0:0:
166,87,81022,1,0,0:0:0:0:
156,115,81189,1,2,0:0:0:0:
179,75,81355,1,0,0:0:0:0:
189,32,81689,1,2,0:0:0:0:
171,113,81855,1,2,0:0:0:0:
171,113,81939,1,2,0:0:0:0:
171,117,82022,1,0,0:0:0:0:
171,117,82189,1,0,0:0:0:0:
171,117,82355,1,2,0:0:0:0:
171,117,82689,1,0,0:0:0:0:
131,52,82855,1,2,0:0:0:0:
131,52,83022,1,0,0:0:0:0:
131,52,83189,1,0,0:0:0:0:
131,52,83355,1,2,0:0:0:0:
178,56,83522,1,0,0:0:0:0:
154,172,83605,1,2,0:0:0:0:
168,41,83772,1,2,0:0:0:0:
168,41,83855,1,0,0:0:0:0:
166,104,84022,1,4,0:0:0:0:
166,104,84355,1,0,0:0:0:0:
166,104,84522,1,0,0:0:0:0:
166,107,84855,1,0,0:0:0:0:
166,107,85022,1,2,0:0:0:0:
166,107,85189,1,0,0:0:0:0:
146,71,85355,1,2,0:0:0:0:
156,117,85689,1,2,0:0:0:0:
156,117,86022,1,0,0:0:0:0:
260,103,86189,1,0,0:0:0:0:
163,77,86272,1,0,0:0:0:0:
163,77,86355,1,2,0:0:0:0:
163,77,86522,1,2,0:0:0:0:
176,89,86689,1,4,0:0:0:0:
133,86,87022,1,2,0:0:0:0:
216,92,87189,1,2,0:0:0:0:
216,92,87355,1,0,0:0:0:0:
171,65,87439,1,0,0:0:0:0:
171,65,87522,1,2,0:0:0:0:
163,96,87689,1,0,0:0:0:0:
238,176,88022,1,2,0:0:0:0:
238,176,88105,1,2,0:0:0:0:
238,176,88189,1,2,0:0:0:0:
161,118,88355,1,0,0:0:0:0:
196,56,88522,1,0,0:0:0:0:
178,94,88689,1,2,0:0:0:0:
158,87,88855,1,0,0:0:0:0:
158,86,88939,1,2,0:0:0:0:
209,59,89022,1,0,0:0:0:0:
170,65,89105,1,0,0:0:0:0:
162,71,89189,1,2,0:0:0:0:
168,106,89355,1,0,0:0:0:0:
182,45,89689,1,2,0:0:0:0:
168,87,89855,1,2,0:0:0:0:
168,87,89939,1,2,0:0:0:0:
166,115,90022,1,0,0:0:0:0:
154,83,90189,1,0,0:0:0:0:
154,83,90355,1,2,0:0:0:0:
154,83,90522,1,0,0:0:0:0:
161,132,90605,1,0,0:0:0:0:
161,132,90689,1,2,0:0:0:0:
148,107,90855,1,2,0:0:0:0:
166,60,91022,1,0,0:0:0:0:
164,83,91189,1,0,0:0:0:0:
166,60,91272,1,0,0:0:0:0:
166,62,91355,1,2,0:0:0:0:
235,110,91522,1,2,0:0:0:0:
168,130,91689,1,0,0:0:0:0:
173,129,91855,1,2,0:0:0:0:
173,129,91939,1,2,0:0:0:0:
179,75,92022,1,0,0:0:0:0:
233,67,92355,1,2,0:0:0:0:
233,67,92522,1,0,0:0:0:0:
228,77,92855,1,0,0:0:0:0:
233,67,93022,1,2,0:0:0:0:
233,67,93355,1,0,0:0:0:0:
233,67,93689,1,0,0:0:0:0:
233,67,93855,1,0,0:0:0:0:
228,77,94189,1,0,0:0:0:0:
233,67,94355,1,2,0:0:0:0:
233,67,94689,1,0,0:0:0:0:
233,67,95022,1,2,0:0:0:0:
233,67,95189,1,0,0:0:0:0:
228,77,95522,1,0,0:0:0:0:
233,67,95689,1,2,0:0:0:0:
233,67,96022,1,0,0:0:0:0:
233,67,96355,1,0,0:0:0:0:
233,67,96439,1,0,0:0:0:0:
233,67,96522,1,0,0:0:0:0:
233,67,96689,1,2,0:0:0:0:
233,67,96855,1,0,0:0:0:0:
233,67,96939,1,0,0:0:0:0:
233,67,97022,1,2,0:0:0:0:
207,129,97355,5,4,0:0:0:0:
156,72,97689,1,2,0:0:0:0:
185,52,97855,1,0,0:0:0:0:
185,53,97939,1,0,0:0:0:0:
149,82,98022,1,2,0:0:0:0:
149,82,98189,1,2,0:0:0:0:
149,82,98355,1,0,0:0:0:0:
189,67,98522,1,2,0:0:0:0:
189,67,98605,1,2,0:0:0:0:
189,60,98689,1,0,0:0:0:0:
189,67,99022,1,0,0:0:0:0:
168,45,99189,1,0,0:0:0:0:
189,68,99272,1,0,0:0:0:0:
189,68,99355,1,2,0:0:0:0:
168,70,99522,1,0,0:0:0:0:
161,13,99689,1,2,0:0:0:0:
175,144,99855,1,2,0:0:0:0:
175,144,99939,1,0,0:0:0:0:
175,144,100022,1,2,0:0:0:0:
187,37,100189,1,0,0:0:0:0:
168,69,100355,1,2,0:0:0:0:
161,87,100522,1,0,0:0:0:0:
192,53,100689,1,2,0:0:0:0:
192,53,100772,1,2,0:0:0:0:
192,53,100855,1,0,0:0:0:0:
192,53,100939,1,0,0:0:0:0:
192,53,101022,1,2,0:0:0:0:
192,53,101189,1,2,0:0:0:0:
192,53,101355,1,0,0:0:0:0:
192,53,101689,1,2,0:0:0:0:
165,50,101855,1,0,0:0:0:0:
165,50,102189,1,0,0:0:0:0:
175,62,102272,1,0,0:0:0:0:
199,100,102355,1,2,0:0:0:0:
226,223,102689,1,4,0:0:0:0:
223,222,103022,1,2,0:0:0:0:
223,222,103189,1,0,0:0:0:0:
223,215,103522,1,0,0:0:0:0:
223,215,103689,1,2,0:0:0:0:
160,98,104022,1,0,0:0:0:0:
175,90,104189,1,0,0:0:0:0:
178,103,104355,1,2,0:0:0:0:
164,78,104689,1,2,0:0:0:0:
164,78,104772,1,2,0:0:0:0:
164,78,104855,1,0,0:0:0:0:
166,85,105022,1,2,0:0:0:0:
166,84,105355,1,0,0:0:0:0:
168,110,105689,1,2,0:0:0:0:
168,110,105855,1,0,0:0:0:0:
174,83,106189,1,0,0:0:0:0:
174,83,106355,1,2,0:0:0:0:
174,83,106689,1,0,0:0:0:0:
174,83,106855,1,0,0:0:0:0:
174,83,107022,1,2,0:0:0:0:
174,83,107355,1,2,0:0:0:0:
175,87,107439,1,0,0:0:0:0:
175,87,107522,1,0,0:0:0:0:
175,87,107689,1,2,0:0:0:0:
175,87,108022,1,0,0:0:0:0:
175,92,108355,1,2,0:0:0:0:
175,92,108522,1,0,0:0:0:0:
175,92,108855,1,0,0:0:0:0:
175,92,109022,1,2,0:0:0:0:
175,92,109355,1,0,0:0:0:0:
175,92,109522,1,0,0:0:0:0:
175,92,109605,1,0,0:0:0:0:
175,92,109689,1,2,0:0:0:0:
143,82,109855,1,0,0:0:0:0:
166,78,110189,1,0,0:0:0:0:
168,83,110355,1,2,0:0:0:0:
170,87,110689,1,0,0:0:0:0:
159,90,110772,1,0,0:0:0:0:
159,89,110855,1,0,0:0:0:0:
161,97,111022,1,2,0:0:0:0:
166,70,111189,1,0,0:0:0:0:
162,92,111355,1,0,0:0:0:0:
162,92,111439,1,0,0:0:0:0:
165,98,111522,1,0,0:0:0:0:
165,98,111689,1,2,0:0:0:0:
165,98,112022,1,0,0:0:0:0:
165,98,112355,1,0,0:0:0:0:
122,88,112439,1,0,0:0:0:0:
165,98,112522,1,0,0:0:0:0:
167,66,112689,1,2,0:0:0:0:
167,66,112855,1,0,0:0:0:0:
167,66,112939,1,0,0:0:0:0:
239,92,113022,1,2,0:0:0:0:
226,223,113355,1,4,0:0:0:0:
170,109,113522,1,0,0:0:0:0:
160,41,113605,1,0,0:0:0:0:
223,222,113689,1,2,0:0:0:0:
166,74,113855,1,2,0:0:0:0:
162,59,114022,1,0,0:0:0:0:
223,215,114189,1,0,0:0:0:0:
223,215,114355,1,2,0:0:0:0:
160,98,114689,1,0,0:0:0:0:
175,90,114855,1,0,0:0:0:0:
178,103,115022,1,2,0:0:0:0:
164,78,115355,1,2,0:0:0:0:
164,78,115439,1,2,0:0:0:0:
164,78,115522,1,0,0:0:0:0:
166,85,115689,1,2,0:0:0:0:
166,84,116022,1,0,0:0:0:0:
168,110,116355,1,2,0:0:0:0:
169,32,116522,1,2,0:0:0:0:
171,97,116689,1,0,0:0:0:0:
170,87,116772,1,2,0:0:0:0:
174,83,116855,1,0,0:0:0:0:
174,83,117022,1,2,0:0:0:0:
174,83,117355,1,0,0:0:0:0:
174,83,117522,1,0,0:0:0:0:
174,83,117689,1,2,0:0:0:0:
174,83,118022,1,2,0:0:0:0:
175,87,118105,1,0,0:0:0:0:
175,87,118189,1,0,0:0:0:0:
175,87,118355,1,2,0:0:0:0:
146,165,118522,1,2,0:0:0:0:
175,87,118689,1,0,0:0:0:0:
175,92,119022,1,2,0:0:0:0:
175,92,119189,1,0,0:0:0:0:
175,92,119522,1,0,0:0:0:0:
175,92,119689,1,2,0:0:0:0:
175,92,120022,1,0,0:0:0:0:
175,92,120189,1,0,0:0:0:0:
175,92,120272,1,0,0:0:0:0:
175,92,120355,1,2,0:0:0:0:
175,92,120522,1,0,0:0:0:0:
173,105,120855,1,0,0:0:0:0:
168,83,121022,1,2,0:0:0:0:
179,61,121189,1,2,0:0:0:0:
138,137,121355,1,0,0:0:0:0:
159,114,121522,1,2,0:0:0:0:
157,104,121605,1,0,0:0:0:0:
157,104,121689,1,2,0:0:0:0:
159,114,121855,1,0,0:0:0:0:
159,114,122022,1,0,0:0:0:0:
159,114,122105,1,0,0:0:0:0:
159,114,122189,1,2,0:0:0:0:
159,114,122272,1,2,0:0:0:0:
159,114,122355,1,0,0:0:0:0:
159,114,122522,1,2,0:0:0:0:
168,97,122689,1,0,0:0:0:0:
144,107,123022,5,0,0:0:0:0:
176,42,123105,1,0,0:0:0:0:
151,94,123189,1,0,0:0:0:0:
151,99,123355,1,2,0:0:0:0:
170,128,123522,1,0,0:0:0:0:
160,65,123605,5,0,0:0:0:0:
163,88,123689,1,2,0:0:0:0:
196,100,124022,1,4,0:0:0:0:
176,68,124355,1,2,0:0:0:0:
176,68,124855,1,0,0:0:0:0:
176,68,125022,1,2,0:0:0:0:
176,68,125189,1,0,0:0:0:0:
176,68,125355,1,0,0:0:0:0:
176,67,125689,1,2,0:0:0:0:
149,112,126022,1,2,0:0:0:0:
176,68,126189,1,0,0:0:0:0:
176,68,126355,1,2,0:0:0:0:
182,79,126689,1,0,0:0:0:0:
176,68,127022,1,2,0:0:0:0:
176,68,127522,1,0,0:0:0:0:
163,92,127689,1,2,0:0:0:0:
163,92,127855,1,2,0:0:0:0:
163,92,128022,1,0,0:0:0:0:
163,92,128355,1,2,0:0:0:0:
172,102,128689,5,2,0:0:0:0:
163,92,128855,1,0,0:0:0:0:
171,81,129022,1,2,0:0:0:0:
171,87,129189,1,0,0:0:0:0:
173,82,129355,1,0,0:0:0:0:
176,68,129689,1,2,0:0:0:0:
176,68,130189,1,0,0:0:0:0:
176,68,130355,1,2,0:0:0:0:
167,71,130689,1,0,0:0:0:0:
176,67,130855,1,0,0:0:0:0:
176,67,131022,1,2,0:0:0:0:
171,92,131189,1,2,0:0:0:0:
176,68,131522,1,0,0:0:0:0:
176,68,131689,1,2,0:0:0:0:
195,92,132022,1,0,0:0:0:0:
176,68,132355,1,2,0:0:0:0:
163,92,132522,1,0,0:0:0:0:
176,68,132855,1,0,0:0:0:0:
163,92,133022,1,2,0:0:0:0:
163,92,133189,1,2,0:0:0:0:
163,92,133355,1,0,0:0:0:0:
222,122,133522,1,2,0:0:0:0:
222,122,133855,1,2,0:0:0:0:
167,87,134022,1,0,0:0:0:0:
167,87,134189,1,0,0:0:0:0:
167,92,134355,1,2,0:0:0:0:
168,92,134689,1,4,0:0:0:0:
196,113,135022,1,2,0:0:0:0:
156,61,135355,1,0,0:0:0:0:
166,109,135522,1,0,0:0:0:0:
169,125,135689,1,2,0:0:0:0:
203,169,135855,1,0,0:0:0:0:
206,176,135939,1,2,0:0:0:0:
181,120,136022,1,0,0:0:0:0:
207,175,136189,1,0,0:0:0:0:
186,88,136355,1,2,0:0:0:0:
186,88,136522,1,0,0:0:0:0:
190,142,136689,1,0,0:0:0:0:
188,133,136855,1,0,0:0:0:0:
188,133,136939,1,0,0:0:0:0:
188,133,137022,1,2,0:0:0:0:
188,133,137355,1,0,0:0:0:0:
188,136,137689,1,2,0:0:0:0:
167,52,138022,1,0,0:0:0:0:
161,117,138189,1,0,0:0:0:0:
161,117,138355,1,2,0:0:0:0:
225,145,138522,1,2,0:0:0:0:
169,153,138605,1,2,0:0:0:0:
170,158,138689,1,0,0:0:0:0:
166,146,138855,1,0,0:0:0:0:
231,183,139022,1,2,0:0:0:0:
162,130,139189,1,0,0:0:0:0:
231,185,139355,1,2,0:0:0:0:
231,185,139439,1,0,0:0:0:0:
162,130,139522,1,0,0:0:0:0:
162,130,139689,1,2,0:0:0:0:
171,73,140022,1,4,0:0:0:0:
181,102,140355,1,2,0:0:0:0:
173,122,140522,1,0,0:0:0:0:
97,92,140605,1,0,0:0:0:0:
185,175,140689,1,0,0:0:0:0:
200,112,140855,1,0,0:0:0:0:
175,83,141022,1,2,0:0:0:0:
176,91,141355,1,0,0:0:0:0:
186,119,141522,1,0,0:0:0:0:
186,117,141605,1,0,0:0:0:0:
187,126,141689,1,2,0:0:0:0:
187,126,141855,1,2,0:0:0:0:
178,87,142022,1,0,0:0:0:0:
176,114,142189,1,0,0:0:0:0:
179,120,142355,1,2,0:0:0:0:
180,126,142689,1,0,0:0:0:0:
166,79,142855,1,0,0:0:0:0:
151,112,143022,1,2,0:0:0:0:
198,96,143189,1,2,0:0:0:0:
151,112,143355,1,0,0:0:0:0:
151,112,143522,1,0,0:0:0:0:
151,112,143605,1,0,0:0:0:0:
151,112,143689,1,2,0:0:0:0:
173,143,143855,1,2,0:0:0:0:
176,91,144022,1,0,0:0:0:0:
198,96,144355,1,0,0:0:0:0:
173,110,144439,1,0,0:0:0:0:
198,96,144522,1,0,0:0:0:0:
161,114,144605,1,0,0:0:0:0:
179,127,144689,1,2,0:0:0:0:
296,71,144855,1,0,0:0:0:0:
161,114,145022,1,12,0:0:0:0:
168,118,145355,1,4,0:0:0:0:
167,111,145689,1,2,0:0:0:0:
171,97,145855,1,0,0:0:0:0:
171,111,146189,1,0,0:0:0:0:
156,122,146355,1,2,0:0:0:0:
150,162,146522,1,0,0:0:0:0:
156,122,146689,1,0,0:0:0:0:
156,122,147022,1,0,0:0:0:0:
156,122,147189,1,0,0:0:0:0:
145,135,147522,1,2,0:0:0:0:
155,119,147689,1,2,0:0:0:0:
168,115,147855,1,0,0:0:0:0:
155,119,148022,1,0,0:0:0:0:
168,115,148355,1,2,0:0:0:0:
155,119,148522,1,0,0:0:0:0:
177,90,148855,1,0,0:0:0:0:
177,90,149022,1,2,0:0:0:0:
199,134,149355,1,0,0:0:0:0:
199,139,149689,1,0,0:0:0:0:
176,69,149772,1,0,0:0:0:0:
199,144,149855,1,0,0:0:0:0:
199,144,150022,1,2,0:0:0:0:
199,149,150189,1,0,0:0:0:0:
176,46,150272,1,0,0:0:0:0:
227,92,150355,1,2,0:0:0:0:
156,63,150689,1,4,0:0:0:0:
158,109,151022,1,0,0:0:0:0:
167,112,151189,1,2,0:0:0:0:
185,82,151355,1,0,0:0:0:0:
212,151,151439,1,0,0:0:0:0:
185,82,151522,1,2,0:0:0:0:
155,87,151689,1,0,0:0:0:0:
185,82,151855,1,0,0:0:0:0:
185,82,152022,1,2,0:0:0:0:
185,82,152355,1,2,0:0:0:0:
181,49,152522,1,2,0:0:0:0:
156,97,152689,1,0,0:0:0:0:
193,66,152772,1,0,0:0:0:0:
166,95,152855,1,0,0:0:0:0:
173,142,153022,1,2,0:0:0:0:
173,142,153189,1,0,0:0:0:0:
122,171,153355,1,12,0:0:0:0:
168,98,153689,1,2,0:0:0:0:
169,116,153855,1,0,0:0:0:0:
173,110,154022,1,2,0:0:0:0:
153,99,154105,1,2,0:0:0:0:
173,110,154189,1,0,0:0:0:0:
153,99,154355,1,2,0:0:0:0:
157,158,154522,1,4,0:0:0:0:
159,158,154855,1,12,0:0:0:0:
159,158,155022,1,12,0:0:0:0:
174,104,155522,1,0,0:0:0:0:
174,104,155605,1,0,0:0:0:0:
174,104,155689,1,2,0:0:0:0:
176,89,156022,1,4,0:0:0:0:
133,86,156355,1,2,0:0:0:0:
216,92,156522,1,2,0:0:0:0:
216,92,156689,1,0,0:0:0:0:
171,65,156772,1,0,0:0:0:0:
171,65,156855,1,2,0:0:0:0:
163,96,157022,1,0,0:0:0:0:
238,176,157355,1,2,0:0:0:0:
198,229,157439,1,0,0:0:0:0:
238,176,157522,1,2,0:0:0:0:
161,118,157689,1,0,0:0:0:0:
196,56,157855,1,0,0:0:0:0:
178,94,158022,1,2,0:0:0:0:
158,86,158272,1,2,0:0:0:0:
209,59,158355,1,0,0:0:0:0:
162,71,158522,1,2,0:0:0:0:
168,106,158689,1,0,0:0:0:0:
182,45,159022,1,2,0:0:0:0:
168,87,159189,1,2,0:0:0:0:
168,87,159272,1,2,0:0:0:0:
166,115,159355,1,0,0:0:0:0:
154,83,159522,1,0,0:0:0:0:
154,83,159689,1,2,0:0:0:0:
181,71,160022,1,2,0:0:0:0:
141,122,160105,1,2,0:0:0:0:
141,122,160189,1,0,0:0:0:0:
141,122,160355,1,2,0:0:0:0:
166,97,160522,1,0,0:0:0:0:
166,102,160689,1,2,0:0:0:0:
166,87,160855,1,0,0:0:0:0:
166,87,160939,1,2,0:0:0:0:
166,87,161022,1,0,0:0:0:0:
156,115,161189,1,2,0:0:0:0:
179,75,161355,1,0,0:0:0:0:
189,32,161689,1,2,0:0:0:0:
171,113,161855,1,2,0:0:0:0:
171,113,161939,1,2,0:0:0:0:
171,117,162022,1,0,0:0:0:0:
171,117,162189,1,0,0:0:0:0:
171,117,162355,1,2,0:0:0:0:
171,117,162689,1,0,0:0:0:0:
131,52,162855,1,2,0:0:0:0:
131,52,163022,1,0,0:0:0:0:
131,52,163189,1,0,0:0:0:0:
131,52,163355,1,2,0:0:0:0:
178,56,163522,1,0,0:0:0:0:
131,118,163605,1,2,0:0:0:0:
168,41,163772,1,2,0:0:0:0:
168,41,163855,1,0,0:0:0:0:
166,104,164022,1,4,0:0:0:0:
166,104,164355,1,0,0:0:0:0:
166,104,164522,1,0,0:0:0:0:
166,107,164855,1,0,0:0:0:0:
166,107,165022,1,2,0:0:0:0:
166,107,165189,1,0,0:0:0:0:
146,71,165355,1,2,0:0:0:0:
156,117,165689,1,2,0:0:0:0:
156,117,166022,1,0,0:0:0:0:
260,103,166189,1,0,0:0:0:0:
163,77,166272,1,0,0:0:0:0:
163,77,166355,1,2,0:0:0:0:
163,77,166522,1,2,0:0:0:0:
176,89,166689,1,4,0:0:0:0:
133,86,167022,1,2,0:0:0:0:
216,92,167189,1,2,0:0:0:0:
216,92,167355,1,0,0:0:0:0:
171,65,167439,1,0,0:0:0:0:
171,65,167522,1,2,0:0:0:0:
163,96,167689,1,0,0:0:0:0:
238,176,168022,1,2,0:0:0:0:
238,176,168105,1,2,0:0:0:0:
238,176,168189,1,2,0:0:0:0:
161,118,168355,1,0,0:0:0:0:
196,56,168522,1,0,0:0:0:0:
178,94,168689,1,2,0:0:0:0:
158,87,168855,1,0,0:0:0:0:
158,86,168939,1,2,0:0:0:0:
209,59,169022,1,0,0:0:0:0:
170,65,169105,1,0,0:0:0:0:
162,71,169189,1,2,0:0:0:0:
168,106,169355,1,0,0:0:0:0:
182,45,169689,1,2,0:0:0:0:
168,87,169855,1,2,0:0:0:0:
166,115,170022,1,0,0:0:0:0:
161,79,170105,1,0,0:0:0:0:
161,83,170189,1,2,0:0:0:0:
165,6,170355,1,0,0:0:0:0:
154,83,170522,1,0,0:0:0:0:
161,132,170689,1,2,0:0:0:0:
148,107,170855,1,2,0:0:0:0:
166,60,171022,1,0,0:0:0:0:
164,83,171189,1,0,0:0:0:0:
166,60,171272,1,0,0:0:0:0:
166,62,171355,1,2,0:0:0:0:
235,110,171522,1,2,0:0:0:0:
168,130,171689,1,0,0:0:0:0:
173,129,171855,1,2,0:0:0:0:
173,129,171939,1,2,0:0:0:0:
179,75,172022,1,0,0:0:0:0:
233,67,172355,1,2,0:0:0:0:
233,67,172522,1,0,0:0:0:0:
228,77,172855,1,0,0:0:0:0:
233,67,173022,1,2,0:0:0:0:
233,67,173355,1,0,0:0:0:0:
233,67,173689,1,0,0:0:0:0:
233,67,173855,1,0,0:0:0:0:
228,77,174189,1,0,0:0:0:0:
233,67,174355,1,2,0:0:0:0:
233,67,174689,1,0,0:0:0:0:
233,67,175022,1,2,0:0:0:0:
233,67,175189,1,0,0:0:0:0:
228,77,175522,1,0,0:0:0:0:
233,67,175689,1,2,0:0:0:0:
233,67,176022,1,0,0:0:0:0:
233,67,176355,1,0,0:0:0:0:
233,67,176439,1,0,0:0:0:0:
233,67,176522,1,0,0:0:0:0:
233,67,176689,1,2,0:0:0:0:
233,67,176855,1,0,0:0:0:0:
233,67,176939,1,0,0:0:0:0:
233,67,177022,1,2,0:0:0:0:
207,129,177355,5,4,0:0:0:0:
156,72,177522,1,0,0:0:0:0:
156,72,177689,1,2,0:0:0:0:
185,52,177855,1,0,0:0:0:0:
185,53,177939,1,0,0:0:0:0:
149,82,178022,1,2,0:0:0:0:
149,82,178189,1,2,0:0:0:0:
149,82,178355,1,0,0:0:0:0:
189,67,178522,1,2,0:0:0:0:
189,67,178605,1,2,0:0:0:0:
189,60,178689,1,0,0:0:0:0:
189,67,179022,1,0,0:0:0:0:
168,45,179189,1,0,0:0:0:0:
189,68,179272,1,0,0:0:0:0:
189,68,179355,1,2,0:0:0:0:
168,70,179522,1,0,0:0:0:0:
161,13,179689,1,2,0:0:0:0:
190,24,179855,1,2,0:0:0:0:
153,122,179939,1,0,0:0:0:0:
154,127,180022,1,2,0:0:0:0:
187,37,180189,1,0,0:0:0:0:
168,69,180355,1,2,0:0:0:0:
161,87,180522,1,0,0:0:0:0:
192,53,180689,1,2,0:0:0:0:
192,53,180772,1,2,0:0:0:0:
192,53,180855,1,0,0:0:0:0:
192,53,180939,1,0,0:0:0:0:
192,53,181022,1,2,0:0:0:0:
192,53,181189,1,2,0:0:0:0:
192,53,181355,1,0,0:0:0:0:
192,53,181689,1,2,0:0:0:0:
165,50,181855,1,0,0:0:0:0:
165,50,182189,1,0,0:0:0:0:
175,62,182272,1,0,0:0:0:0:
199,100,182355,1,2,0:0:0:0:
214,173,182689,1,12,0:0:0:0:
217,167,184022,5,2,0:0:0:0:
217,167,185355,1,2,0:0:0:0:
217,167,186689,1,2,0:0:0:0:
217,167,188022,1,2,0:0:0:0:
217,167,189355,1,2,0:0:0:0:
217,167,190689,5,2,0:0:0:0:
217,167,192022,1,2,0:0:0:0:
243,199,192855,5,0,0:0:0:0:
243,199,193022,1,2,0:0:0:0:
206,120,193105,1,2,0:0:0:0:
207,124,193189,1,0,0:0:0:0:
239,157,193355,1,4,0:0:0:0:
203,166,194022,1,2,0:0:0:0:
203,166,194689,1,0,0:0:0:0:
203,166,195189,1,0,0:0:0:0:
203,166,195355,1,2,0:0:0:0:
192,126,196022,1,0,0:0:0:0:
192,126,196689,1,2,0:0:0:0:
192,126,197355,1,0,0:0:0:0:
192,126,197855,1,0,0:0:0:0:
192,126,198022,1,2,0:0:0:0:
192,127,198689,1,0,0:0:0:0:
220,146,199355,1,2,0:0:0:0:
130,118,199689,1,0,0:0:0:0:
176,51,199855,1,2,0:0:0:0:
220,146,200022,1,0,0:0:0:0:
220,146,200522,1,0,0:0:0:0:
220,146,200689,1,2,0:0:0:0:
172,78,201022,1,2,0:0:0:0:
220,146,201355,1,0,0:0:0:0:
173,138,202022,1,2,0:0:0:0:
141,108,202355,1,2,0:0:0:0:
172,79,202522,1,2,0:0:0:0:
173,138,202689,1,0,0:0:0:0:
173,138,203189,1,0,0:0:0:0:
256,162,203355,5,2,0:0:0:0:
140,91,203522,1,2,0:0:0:0:
140,91,203605,1,2,0:0:0:0:
256,162,203689,1,2,0:0:0:0:
152,124,204022,1,4,0:0:0:0:
183,115,204689,1,2,0:0:0:0:
173,138,205022,1,0,0:0:0:0:
241,158,205355,1,0,0:0:0:0:
241,158,205855,1,0,0:0:0:0:
241,158,206022,1,2,0:0:0:0:
241,158,206689,1,0,0:0:0:0:
181,87,207355,1,2,0:0:0:0:
168,149,207689,1,2,0:0:0:0:
181,89,208022,1,0,0:0:0:0:
181,89,208522,1,0,0:0:0:0:
173,71,208689,1,2,0:0:0:0:
160,119,209022,1,0,0:0:0:0:
174,77,209355,1,0,0:0:0:0:
161,113,210022,1,2,0:0:0:0:
140,110,210355,1,0,0:0:0:0:
140,110,210522,1,2,0:0:0:0:
172,98,210689,1,0,0:0:0:0:
195,99,210855,1,0,0:0:0:0:
161,113,211189,1,0,0:0:0:0:
161,113,211355,1,2,0:0:0:0:
159,87,211689,1,2,0:0:0:0:
159,87,211855,1,2,0:0:0:0:
159,87,211939,1,2,0:0:0:0:
159,87,212022,1,0,0:0:0:0:
158,85,212355,1,0,0:0:0:0:
158,85,212689,1,0,0:0:0:0:
158,85,213022,1,0,0:0:0:0:
139,102,213355,1,12,0:0:0:0:
181,118,213689,1,0,0:0:0:0:
172,92,214022,1,0,0:0:0:0:
172,92,214355,1,0,0:0:0:0:
188,139,214689,1,12,0:0:0:0:
172,92,214855,1,0,0:0:0:0:
172,92,215022,1,0,0:0:0:0:
172,92,215189,1,0,0:0:0:0:
184,181,215355,1,2,0:0:0:0:
174,98,215522,1,0,0:0:0:0:
174,98,215689,1,0,0:0:0:0:
174,98,215855,1,0,0:0:0:0:
174,98,216022,1,2,0:0:0:0:
174,98,216105,1,2,0:0:0:0:
174,98,216189,1,0,0:0:0:0:
220,136,216355,1,0,0:0:0:0:
220,136,216522,1,2,0:0:0:0:
156,89,216605,1,2,0:0:0:0:
174,103,216689,1,0,0:0:0:0:
167,63,216855,1,0,0:0:0:0:
176,64,217022,1,2,0:0:0:0:
176,64,217105,1,0,0:0:0:0:
176,64,217189,1,0,0:0:0:0:
176,64,217272,1,0,0:0:0:0:
151,51,218022,1,2,0:0:0:0:
151,51,218189,1,0,0:0:0:0:
151,51,218272,1,0,0:0:0:0:
151,51,218355,1,2,0:0:0:0:
176,89,218689,1,4,0:0:0:0:
133,86,219022,1,2,0:0:0:0:
216,92,219189,1,2,0:0:0:0:
216,92,219355,1,0,0:0:0:0:
171,65,219439,1,0,0:0:0:0:
171,65,219522,1,2,0:0:0:0:
163,96,219689,1,0,0:0:0:0:
136,168,219855,1,0,0:0:0:0:
238,176,220022,1,2,0:0:0:0:
193,190,220105,1,0,0:0:0:0:
238,176,220189,1,2,0:0:0:0:
161,118,220355,1,0,0:0:0:0:
196,56,220522,1,0,0:0:0:0:
178,94,220689,1,2,0:0:0:0:
158,86,220939,1,2,0:0:0:0:
209,59,221022,1,0,0:0:0:0:
162,71,221189,1,2,0:0:0:0:
168,106,221355,1,0,0:0:0:0:
182,45,221689,1,2,0:0:0:0:
168,87,221855,1,2,0:0:0:0:
168,87,221939,1,2,0:0:0:0:
166,115,222022,1,0,0:0:0:0:
154,83,222189,1,0,0:0:0:0:
154,83,222355,1,2,0:0:0:0:
156,71,222522,1,0,0:0:0:0:
181,71,222689,1,2,0:0:0:0:
162,169,222772,1,0,0:0:0:0:
141,122,222855,1,0,0:0:0:0:
141,122,223022,1,2,0:0:0:0:
166,97,223189,1,0,0:0:0:0:
156,63,223355,1,2,0:0:0:0:
125,83,223439,1,2,0:0:0:0:
82,123,223522,1,0,0:0:0:0:
166,87,223605,1,2,0:0:0:0:
166,87,223689,1,0,0:0:0:0:
156,115,223855,1,2,0:0:0:0:
179,75,224022,1,0,0:0:0:0:
189,32,224355,1,2,0:0:0:0:
171,113,224522,1,2,0:0:0:0:
171,113,224605,1,2,0:0:0:0:
171,117,224689,1,0,0:0:0:0:
171,117,224855,1,0,0:0:0:0:
171,117,225022,1,2,0:0:0:0:
162,169,225189,1,2,0:0:0:0:
171,117,225355,1,0,0:0:0:0:
230,195,225439,1,0,0:0:0:0:
131,52,225522,1,2,0:0:0:0:
131,52,225689,1,0,0:0:0:0:
131,52,225855,1,0,0:0:0:0:
131,52,226022,1,2,0:0:0:0:
178,56,226189,1,0,0:0:0:0:
141,140,226272,1,2,0:0:0:0:
168,41,226439,1,2,0:0:0:0:
168,41,226522,1,0,0:0:0:0:
166,104,226689,1,4,0:0:0:0:
166,104,227022,1,0,0:0:0:0:
166,104,227189,1,0,0:0:0:0:
166,107,227522,1,0,0:0:0:0:
166,107,227689,1,2,0:0:0:0:
166,107,227855,1,0,0:0:0:0:
146,71,228022,1,2,0:0:0:0:
156,117,228355,1,2,0:0:0:0:
156,117,228689,1,0,0:0:0:0:
260,103,228855,1,0,0:0:0:0:
163,77,228939,1,0,0:0:0:0:
163,77,229022,1,2,0:0:0:0:
163,77,229189,1,2,0:0:0:0:
176,89,229355,1,4,0:0:0:0:
133,86,229689,1,2,0:0:0:0:
216,92,229855,1,2,0:0:0:0:
216,92,230022,1,0,0:0:0:0:
171,65,230105,1,0,0:0:0:0:
171,65,230189,1,2,0:0:0:0:
163,96,230355,1,0,0:0:0:0:
203,162,230522,1,0,0:0:0:0:
238,176,230689,1,2,0:0:0:0:
238,176,230772,1,2,0:0:0:0:
238,176,230855,1,2,0:0:0:0:
161,118,231022,1,0,0:0:0:0:
196,56,231189,1,0,0:0:0:0:
178,94,231355,1,2,0:0:0:0:
158,86,231605,1,2,0:0:0:0:
209,59,231689,1,0,0:0:0:0:
170,65,231772,1,0,0:0:0:0:
162,71,231855,1,2,0:0:0:0:
168,106,232022,1,0,0:0:0:0:
182,45,232355,1,2,0:0:0:0:
168,87,232522,1,2,0:0:0:0:
168,87,232605,1,2,0:0:0:0:
166,115,232689,1,0,0:0:0:0:
154,83,232855,1,0,0:0:0:0:
154,83,233022,1,2,0:0:0:0:
154,83,233189,1,0,0:0:0:0:
161,132,233272,1,0,0:0:0:0:
161,132,233355,1,2,0:0:0:0:
148,107,233522,1,2,0:0:0:0:
166,60,233689,1,0,0:0:0:0:
164,83,233855,1,0,0:0:0:0:
166,60,233939,1,0,0:0:0:0:
166,62,234022,1,2,0:0:0:0:
235,110,234189,1,2,0:0:0:0:
168,130,234355,1,0,0:0:0:0:
173,129,234522,1,2,0:0:0:0:
173,129,234605,1,2,0:0:0:0:
179,75,234689,1,0,0:0:0:0:
233,67,235022,1,2,0:0:0:0:
233,67,235189,1,0,0:0:0:0:
228,77,235522,1,0,0:0:0:0:
233,67,235689,1,2,0:0:0:0:
233,67,236022,1,0,0:0:0:0:
233,67,236355,1,0,0:0:0:0:
233,67,236522,1,0,0:0:0:0:
228,77,236855,1,0,0:0:0:0:
233,67,237022,1,2,0:0:0:0:
233,67,237355,1,0,0:0:0:0:
233,67,237689,1,2,0:0:0:0:
233,67,237855,1,0,0:0:0:0:
228,77,238189,1,0,0:0:0:0:
233,67,238355,1,2,0:0:0:0:
233,67,238689,1,0,0:0:0:0:
233,67,239022,1,0,0:0:0:0:
233,67,239105,1,0,0:0:0:0:
233,67,239189,1,0,0:0:0:0:
233,67,239355,1,2,0:0:0:0:
233,67,239522,1,0,0:0:0:0:
233,67,239605,1,0,0:0:0:0:
233,67,239689,1,2,0:0:0:0:
207,129,240022,5,4,0:0:0:0:
156,72,240189,1,0,0:0:0:0:
156,72,240355,1,2,0:0:0:0:
185,52,240522,1,0,0:0:0:0:
185,53,240605,1,0,0:0:0:0:
149,82,240689,1,2,0:0:0:0:
149,82,240855,1,2,0:0:0:0:
149,82,241022,1,0,0:0:0:0:
189,67,241189,1,2,0:0:0:0:
189,67,241272,1,2,0:0:0:0:
189,60,241355,1,0,0:0:0:0:
189,67,241689,1,0,0:0:0:0:
168,45,241855,1,0,0:0:0:0:
189,68,241939,1,0,0:0:0:0:
189,68,242022,1,2,0:0:0:0:
168,70,242189,1,0,0:0:0:0:
161,13,242355,1,2,0:0:0:0:
181,67,242522,1,2,0:0:0:0:
181,72,242605,1,0,0:0:0:0:
181,72,242689,1,2,0:0:0:0:
187,37,242855,1,0,0:0:0:0:
168,69,243022,1,2,0:0:0:0:
161,87,243189,1,0,0:0:0:0:
192,53,243355,1,2,0:0:0:0:
192,53,243439,1,2,0:0:0:0:
192,53,243522,1,0,0:0:0:0:
192,53,243605,1,0,0:0:0:0:
192,53,243689,1,2,0:0:0:0:
192,53,243855,1,2,0:0:0:0:
192,53,244022,1,0,0:0:0:0:
192,53,244355,5,2,0:0:0:0:
165,50,244522,1,0,0:0:0:0:
165,50,244855,1,0,0:0:0:0:
175,62,244939,1,0,0:0:0:0:
199,100,245022,1,2,0:0:0:0:
176,89,245355,1,4,0:0:0:0:
216,92,245521,1,2,0:0:0:0:
215,116,245605,1,2,0:0:0:0:
216,92,245688,1,0,0:0:0:0:
216,92,245855,1,2,0:0:0:0:
216,92,246021,1,0,0:0:0:0:
201,129,246188,1,0,0:0:0:0:
201,129,246355,1,2,0:0:0:0:
166,117,246688,1,0,0:0:0:0:
168,79,246855,1,2,0:0:0:0:
166,102,247021,1,0,0:0:0:0:
166,102,247105,1,0,0:0:0:0:
166,102,247188,1,2,0:0:0:0:
241,164,247355,1,2,0:0:0:0:
171,124,247688,1,2,0:0:0:0:
89,121,247855,1,2,0:0:0:0:
168,106,248021,1,0,0:0:0:0:
166,115,248188,1,2,0:0:0:0:
176,120,248271,1,2,0:0:0:0:
166,115,248355,1,0,0:0:0:0:
166,115,248521,1,2,0:0:0:0:
166,115,248688,1,0,0:0:0:0:
158,131,248855,1,0,0:0:0:0:
173,136,249021,1,2,0:0:0:0:
236,149,249355,1,0,0:0:0:0:
236,149,249521,1,2,0:0:0:0:
161,143,249688,1,0,0:0:0:0:
161,143,249771,1,0,0:0:0:0:
172,59,249855,1,0,0:0:0:0:
161,143,250021,1,2,0:0:0:0:
161,148,250355,1,2,0:0:0:0:
161,148,250521,1,2,0:0:0:0:
161,148,250688,1,0,0:0:0:0:
122,119,250855,1,2,0:0:0:0:
122,119,250938,1,0,0:0:0:0:
122,119,251021,1,2,0:0:0:0:
122,119,251188,1,0,0:0:0:0:
187,87,251521,1,2,0:0:0:0:
175,119,251688,1,0,0:0:0:0:
122,119,251771,1,0,0:0:0:0:
175,119,251855,1,2,0:0:0:0:
175,119,252021,1,0,0:0:0:0:
176,127,252188,1,2,0:0:0:0:
123,120,252271,1,2,0:0:0:0:
176,127,252355,1,0,0:0:0:0:
176,127,252521,1,2,0:0:0:0:
176,127,252688,1,0,0:0:0:0:
176,127,252771,1,0,0:0:0:0:
176,127,252855,1,2,0:0:0:0:
176,127,253021,1,0,0:0:0:0:
181,59,253355,1,2,0:0:0:0:
159,114,253521,1,2,0:0:0:0:
157,104,253605,1,0,0:0:0:0:
157,104,253688,1,2,0:0:0:0:
159,114,253855,1,0,0:0:0:0:
159,114,254021,1,0,0:0:0:0:
159,114,254105,1,0,0:0:0:0:
159,114,254188,1,2,0:0:0:0:
159,114,254271,1,2,0:0:0:0:
159,114,254355,1,0,0:0:0:0:
159,114,254521,1,2,0:0:0:0:
168,97,254688,1,0,0:0:0:0:
144,107,255021,1,0,0:0:0:0:
176,42,255105,1,0,0:0:0:0:
151,94,255188,1,0,0:0:0:0:
151,99,255355,1,2,0:0:0:0:
170,128,255521,1,0,0:0:0:0:
160,65,255605,5,0,0:0:0:0:
163,88,255688,1,2,0:0:0:0:
176,89,256021,1,4,0:0:0:0:
216,92,256188,1,2,0:0:0:0:
216,92,256355,1,0,0:0:0:0:
165,53,256438,1,0,0:0:0:0:
216,92,256521,1,2,0:0:0:0:
216,92,256688,1,0,0:0:0:0:
201,129,256855,1,0,0:0:0:0:
201,129,257021,1,2,0:0:0:0:
166,117,257355,1,0,0:0:0:0:
168,79,257521,1,2,0:0:0:0:
141,111,257605,1,2,0:0:0:0:
141,111,257688,1,0,0:0:0:0:
141,111,257855,1,0,0:0:0:0:
241,164,258021,1,2,0:0:0:0:
167,71,258188,1,0,0:0:0:0:
185,109,258355,1,2,0:0:0:0:
89,121,258521,1,2,0:0:0:0:
168,106,258688,1,0,0:0:0:0:
166,115,258855,1,2,0:0:0:0:
166,115,259021,1,0,0:0:0:0:
167,71,259105,1,0,0:0:0:0:
166,115,259188,1,2,0:0:0:0:
166,115,259355,1,0,0:0:0:0:
158,131,259521,1,0,0:0:0:0:
173,136,259688,1,2,0:0:0:0:
236,149,260021,1,0,0:0:0:0:
236,149,260188,1,2,0:0:0:0:
159,84,260271,1,0,0:0:0:0:
159,84,260355,5,0,0:0:0:0:
159,84,260521,1,0,0:0:0:0:
161,143,260688,1,2,0:0:0:0:
172,59,260855,1,0,0:0:0:0:
161,148,261021,1,2,0:0:0:0:
161,148,261188,1,2,0:0:0:0:
182,108,261355,1,4,0:0:0:0:
122,119,261521,1,2,0:0:0:0:
122,119,261605,1,0,0:0:0:0:
122,119,261688,1,2,0:0:0:0:
122,119,261855,1,0,0:0:0:0:
187,87,262188,1,2,0:0:0:0:
175,119,262355,1,0,0:0:0:0:
122,119,262438,1,0,0:0:0:0:
175,119,262521,1,2,0:0:0:0:
175,119,262688,1,0,0:0:0:0:
176,127,262855,1,2,0:0:0:0:
123,120,262938,1,2,0:0:0:0:
176,127,263021,1,0,0:0:0:0:
176,127,263188,1,2,0:0:0:0:
176,127,263355,1,0,0:0:0:0:
176,127,263438,1,0,0:0:0:0:
179,94,263521,5,2,0:0:0:0:
179,94,263688,1,0,0:0:0:0:
181,59,264021,1,2,0:0:0:0:
159,114,264188,1,2,0:0:0:0:
157,104,264271,1,0,0:0:0:0:
157,104,264355,1,2,0:0:0:0:
159,114,264521,1,0,0:0:0:0:
159,114,264688,1,0,0:0:0:0:
159,114,264771,1,0,0:0:0:0:
159,114,264855,1,2,0:0:0:0:
159,114,264938,1,2,0:0:0:0:
159,114,265021,1,0,0:0:0:0:
159,114,265188,1,2,0:0:0:0:
168,97,265355,1,0,0:0:0:0:
144,107,265688,5,0,0:0:0:0:
176,42,265771,1,0,0:0:0:0:
151,94,265855,1,0,0:0:0:0:
151,99,266021,1,2,0:0:0:0:
170,128,266188,1,0,0:0:0:0:
160,65,266271,5,0,0:0:0:0:
163,88,266355,1,2,0:0:0:0:
188,140,266689,5,4,0:0:0:0:
178,84,267022,1,2,0:0:0:0:
179,87,267522,1,0,0:0:0:0:
179,87,267688,1,2,0:0:0:0:
182,96,268022,1,0,0:0:0:0:
191,98,268188,1,0,0:0:0:0:
181,93,268355,1,2,0:0:0:0:
181,93,268522,1,0,0:0:0:0:
193,100,268855,1,0,0:0:0:0:
177,21,269022,1,2,0:0:0:0:
231,107,269355,1,0,0:0:0:0:
157,53,269688,1,2,0:0:0:0:
166,94,270188,1,0,0:0:0:0:
157,52,270355,1,2,0:0:0:0:
171,42,270522,1,2,0:0:0:0:
232,110,270688,1,0,0:0:0:0:
141,87,271022,1,0,0:0:0:0:
141,87,271188,1,2,0:0:0:0:
166,82,271522,1,2,0:0:0:0:
169,96,271855,1,0,0:0:0:0:
201,78,272022,1,2,0:0:0:0:
178,84,272355,1,2,0:0:0:0:
179,87,272855,1,0,0:0:0:0:
179,87,273022,1,2,0:0:0:0:
211,28,273355,1,0,0:0:0:0:
191,98,273522,1,0,0:0:0:0:
181,93,273688,1,2,0:0:0:0:
181,93,273855,1,0,0:0:0:0:
193,100,274188,1,0,0:0:0:0:
177,21,274355,1,2,0:0:0:0:
231,107,274688,1,0,0:0:0:0:
166,108,274855,1,0,0:0:0:0:
157,53,275022,1,2,0:0:0:0:
157,53,275188,1,0,0:0:0:0:
147,49,275522,1,0,0:0:0:0:
157,52,275688,1,2,0:0:0:0:
176,116,275855,1,2,0:0:0:0:
164,66,276022,1,4,0:0:0:0:
169,83,276688,5,2,0:0:0:0:
191,100,276772,1,2,0:0:0:0:
191,100,276855,1,0,0:0:0:0:
191,100,276938,1,0,0:0:0:0:
191,100,277022,1,2,0:0:0:0:
188,63,277188,1,0,0:0:0:0:
257,89,277355,1,4,0:0:0:0:
143,154,277689,5,0,0:0:0:0:
143,154,278022,1,0,0:0:0:0:
143,154,278355,1,0,0:0:0:0:
143,154,278689,1,0,0:0:0:0:
143,154,279022,1,0,0:0:0:0:
143,154,279355,1,0,0:0:0:0:
154,101,279689,1,0,0:0:0:0:
143,154,279855,1,2,0:0:0:0:
143,154,280022,1,0,0:0:0:0:
143,154,280355,1,0,0:0:0:0:
143,154,280689,1,0,0:0:0:0:
161,100,281022,1,0,0:0:0:0:
143,154,281355,1,0,0:0:0:0:
161,100,281689,1,0,0:0:0:0:
161,100,282022,1,0,0:0:0:0:
173,110,282355,1,0,0:0:0:0:
173,110,282522,1,0,0:0:0:0:
173,110,282605,1,0,0:0:0:0:
173,110,282689,1,2,0:0:0:0:
159,109,283022,1,2,0:0:0:0:
159,106,283355,1,2,0:0:0:0:
188,148,283689,1,2,0:0:0:0:
178,166,284022,1,4,0:0:0:0:
159,106,284355,1,2,0:0:0:0:
159,106,284689,1,2,0:0:0:0:
127,143,285022,1,2,0:0:0:0:
178,166,285355,1,12,0:0:0:0:
156,114,285522,1,0,0:0:0:0:
127,143,285689,1,0,0:0:0:0:
185,88,285855,1,0,0:0:0:0:
185,114,286022,1,2,0:0:0:0:
176,52,286105,1,0,0:0:0:0:
176,52,286189,1,0,0:0:0:0:
186,75,286355,1,2,0:0:0:0:
130,168,286522,1,0,0:0:0:0:
130,168,286605,1,2,0:0:0:0:
185,114,286689,1,0,0:0:0:0:
183,117,287022,1,0,0:0:0:0:
183,117,287189,1,2,0:0:0:0:
183,117,287522,1,2,0:0:0:0:
183,117,287855,1,0,0:0:0:0:
