osu file format v14

[General]
AudioFilename: audio.mp3
AudioLeadIn: 0
PreviewTime: 74276
Countdown: 0
SampleSet: Soft
StackLeniency: 0.7
Mode: 1
LetterboxInBreaks: 0
WidescreenStoryboard: 1

[Editor]
DistanceSpacing: 0.5
BeatDivisor: 4
GridSize: 32
TimelineZoom: 2.2

[Metadata]
Title:envidia
TitleUnicode:envidia
Artist:nekomatagekidan
ArtistUnicode:猫叉劇団
Creator:kiminokokoro
Version:Muzukashii
Source:Reflec Beat
Tags:envidia music game reflec beat nekomata master nekomata master+ 猫叉Master
BeatmapID:1039313
BeatmapSetID:487126

[Difficulty]
HPDrainRate:5
CircleSize:2
OverallDifficulty:4.5
ApproachRate:6
SliderMultiplier:1.4
SliderTickRate:1

[Events]
//Background and Video events
0,0,"bg.jpg",0,40
//Break Periods
//Storyboard Layer 0 (Background)
//Storyboard Layer 1 (Fail)
//Storyboard Layer 2 (Pass)
//Storyboard Layer 3 (Foreground)
//Storyboard Sound Samples

[TimingPoints]
844,447.761194029851,4,2,0,100,1,0
844,-100,4,2,0,90,0,0
31291,-100,4,2,0,75,0,0
38455,-100,4,2,0,75,0,0
45620,-100,4,2,0,75,0,0
52784,-100,4,2,0,75,0,0
59948,-100,4,2,0,75,0,0
63530,-100,4,2,0,75,0,0
66441,-100,4,2,0,75,0,0
66888,-100,4,2,0,75,0,0
67336,-100,4,2,0,75,0,0
67784,-100,4,2,0,75,0,0
68232,-100,4,2,0,75,0,0
68679,-100,4,2,0,75,0,0
69127,-100,4,2,0,75,0,0
69575,-100,4,2,0,75,0,0
70023,-100,4,2,0,75,0,0
70470,-100,4,2,0,85,0,0
74276,-100,4,2,0,90,0,1
81441,-100,4,2,0,90,0,1
88605,-100,4,2,0,90,0,1
95769,-100,4,2,0,90,0,1
102933,-100,4,2,0,75,0,0
119052,-100,4,2,0,75,0,0

[HitObjects]
128,160,844,5,8,0:0:0:0:
288,160,1067,1,0,0:0:0:0:
224,160,1179,1,8,0:0:0:0:
192,64,1403,1,8,0:0:0:0:
128,128,1627,1,8,0:0:0:0:
384,128,1851,1,8,0:0:0:0:
256,96,1963,1,0,0:0:0:0:
224,160,2187,1,0,0:0:0:0:
64,128,2411,1,8,0:0:0:0:
288,64,2635,1,0,0:0:0:0:
128,128,2858,1,0,0:0:0:0:
224,96,2970,1,8,0:0:0:0:
224,160,3194,1,8,0:0:0:0:
288,128,3418,1,0,0:0:0:0:
320,96,3642,1,8,0:0:0:0:
224,64,3754,1,0,0:0:0:0:
128,160,3978,1,0,0:0:0:0:
128,96,4202,1,8,0:0:0:0:
256,96,4426,1,0,0:0:0:0:
288,160,4649,1,0,0:0:0:0:
160,192,4761,1,8,0:0:0:0:
128,96,4985,1,8,0:0:0:0:
224,192,5209,1,0,0:0:0:0:
384,96,5433,1,8,0:0:0:0:
320,96,5545,1,8,0:0:0:0:
224,64,5769,1,0,0:0:0:0:
96,128,5993,1,8,0:0:0:0:
160,160,6217,1,0,0:0:0:0:
352,128,6441,1,8,0:0:0:0:
288,128,6552,1,8,0:0:0:0:
160,96,6776,1,8,0:0:0:0:
80,77,7000,1,8,0:0:0:0:
160,224,7224,5,0,0:0:0:0:
320,160,7336,1,0,0:0:0:0:
320,160,7560,1,0,0:0:0:0:
256,96,7784,1,8,0:0:0:0:
128,160,8008,5,8,0:0:0:0:
288,160,8232,1,0,0:0:0:0:
224,160,8344,1,8,0:0:0:0:
192,64,8567,1,8,0:0:0:0:
128,128,8791,1,8,0:0:0:0:
384,128,9015,1,8,0:0:0:0:
256,96,9127,1,0,0:0:0:0:
224,160,9351,1,0,0:0:0:0:
64,128,9575,1,8,0:0:0:0:
288,64,9799,1,0,0:0:0:0:
128,128,10023,1,0,0:0:0:0:
224,96,10135,1,8,0:0:0:0:
224,160,10358,1,8,0:0:0:0:
288,128,10582,1,0,0:0:0:0:
320,96,10806,1,8,0:0:0:0:
224,64,10918,1,0,0:0:0:0:
128,160,11142,1,0,0:0:0:0:
128,96,11366,1,8,0:0:0:0:
256,96,11590,1,0,0:0:0:0:
288,160,11814,1,0,0:0:0:0:
160,192,11926,1,8,0:0:0:0:
128,96,12149,1,8,0:0:0:0:
224,192,12373,1,0,0:0:0:0:
384,96,12597,1,8,0:0:0:0:
320,96,12709,1,8,0:0:0:0:
224,64,12933,1,0,0:0:0:0:
96,128,13157,1,8,0:0:0:0:
160,160,13381,1,0,0:0:0:0:
352,128,13605,1,8,0:0:0:0:
288,128,13717,1,8,0:0:0:0:
160,96,13941,1,8,0:0:0:0:
80,77,14164,1,8,0:0:0:0:
160,224,14388,5,0,0:0:0:0:
320,160,14500,1,0,0:0:0:0:
320,160,14724,1,0,0:0:0:0:
256,96,14948,1,8,0:0:0:0:
128,160,15172,5,8,0:0:0:0:
288,160,15396,1,0,0:0:0:0:
224,160,15508,1,8,0:0:0:0:
192,64,15732,1,8,0:0:0:0:
128,128,15955,1,8,0:0:0:0:
384,128,16179,1,8,0:0:0:0:
256,96,16291,1,0,0:0:0:0:
224,160,16515,1,0,0:0:0:0:
64,128,16739,1,8,0:0:0:0:
288,64,16963,1,0,0:0:0:0:
128,128,17187,1,0,0:0:0:0:
224,96,17299,1,8,0:0:0:0:
224,160,17523,1,8,0:0:0:0:
288,128,17746,1,0,0:0:0:0:
320,96,17970,1,8,0:0:0:0:
224,64,18082,1,0,0:0:0:0:
128,160,18306,1,0,0:0:0:0:
128,96,18530,1,8,0:0:0:0:
256,96,18754,1,0,0:0:0:0:
288,160,18978,1,0,0:0:0:0:
160,192,19090,1,8,0:0:0:0:
128,96,19314,1,8,0:0:0:0:
224,192,19538,1,0,0:0:0:0:
384,96,19761,1,8,0:0:0:0:
320,96,19873,1,8,0:0:0:0:
224,64,20097,1,0,0:0:0:0:
96,128,20321,1,8,0:0:0:0:
160,160,20545,1,0,0:0:0:0:
352,128,20769,1,8,0:0:0:0:
288,128,20881,1,8,0:0:0:0:
160,96,21105,1,8,0:0:0:0:
80,77,21329,1,8,0:0:0:0:
160,224,21552,5,0,0:0:0:0:
320,160,21664,1,0,0:0:0:0:
320,160,21888,1,0,0:0:0:0:
256,96,22112,1,8,0:0:0:0:
128,160,22336,5,8,0:0:0:0:
288,160,22560,1,0,0:0:0:0:
224,160,22672,1,8,0:0:0:0:
192,64,22896,1,8,0:0:0:0:
128,128,23120,1,8,0:0:0:0:
384,128,23344,1,8,0:0:0:0:
256,96,23455,1,0,0:0:0:0:
224,160,23679,1,0,0:0:0:0:
64,128,23903,1,8,0:0:0:0:
288,64,24127,1,0,0:0:0:0:
128,128,24351,1,0,0:0:0:0:
224,96,24463,1,8,0:0:0:0:
224,160,24687,1,8,0:0:0:0:
288,128,24911,1,0,0:0:0:0:
320,96,25135,1,8,0:0:0:0:
224,64,25246,1,0,0:0:0:0:
128,160,25470,1,0,0:0:0:0:
128,96,25694,1,8,0:0:0:0:
256,96,25918,1,0,0:0:0:0:
288,160,26142,1,0,0:0:0:0:
160,192,26254,1,8,0:0:0:0:
128,96,26478,1,8,0:0:0:0:
224,192,26702,1,0,0:0:0:0:
384,96,26926,1,8,0:0:0:0:
320,96,27038,1,8,0:0:0:0:
224,64,27261,1,0,0:0:0:0:
96,128,27485,1,8,0:0:0:0:
160,160,27709,1,0,0:0:0:0:
352,128,27933,1,8,0:0:0:0:
288,128,28045,5,8,0:0:0:0:
160,96,28269,1,8,0:0:0:0:
80,77,28493,1,8,0:0:0:0:
160,224,28717,5,0,0:0:0:0:
320,160,28829,1,0,0:0:0:0:
320,160,29052,1,0,0:0:0:0:
384,192,29164,1,0,0:0:0:0:
320,96,29276,1,8,0:0:0:0:
166,104,29500,1,8,0:0:0:0:
120,173,29724,1,0,0:0:0:0:
222,171,29948,1,8,0:0:0:0:
187,82,30060,1,0,0:0:0:0:
245,90,30284,1,8,0:0:0:0:
321,98,30396,1,0,0:0:0:0:
352,160,30844,1,8,0:0:0:0:
232,75,31291,1,0,0:0:0:0:
45,60,31515,1,8,0:0:0:0:
137,229,31627,1,0,0:0:0:0:
230,184,31851,1,8,0:0:0:0:
127,177,32075,1,0,0:0:0:0:
323,188,32635,1,0,0:0:0:0:
61,167,32858,1,0,0:0:0:0:
243,173,33082,1,8,0:0:0:0:
139,179,33194,1,8,0:0:0:0:
88,344,33418,1,8,0:0:0:0:
246,62,34202,1,0,0:0:0:0:
122,176,34426,1,8,0:0:0:0:
230,197,34649,1,0,0:0:0:0:
306,133,34873,1,8,0:0:0:0:
191,88,35097,1,0,0:0:0:0:
406,72,35209,1,8,0:0:0:0:
127,180,35433,1,0,0:0:0:0:
294,215,35657,1,8,0:0:0:0:
237,98,35881,1,8,0:0:0:0:
215,158,36105,1,0,0:0:0:0:
123,163,36217,1,8,0:0:0:0:
300,169,36441,1,0,0:0:0:0:
356,65,36664,1,0,0:0:0:0:
35,131,36776,1,8,0:0:0:0:
182,151,37000,1,8,0:0:0:0:
306,260,37224,1,0,0:0:0:0:
437,100,37336,1,8,0:0:0:0:
32,160,37784,1,0,0:0:0:0:
252,93,38008,1,8,0:0:0:0:
353,162,38232,1,0,0:0:0:0:
199,166,38455,5,8,0:0:0:0:
123,213,38679,1,0,0:0:0:0:
96,160,38791,1,8,0:0:0:0:
154,66,39015,1,8,0:0:0:0:
32,128,39239,5,8,0:0:0:0:
145,166,39799,1,0,0:0:0:0:
110,104,40023,1,0,0:0:0:0:
221,88,40246,1,8,0:0:0:0:
213,157,40358,1,8,0:0:0:0:
273,164,40582,1,8,0:0:0:0:
288,96,40806,1,0,0:0:0:0:
299,148,41030,1,8,0:0:0:0:
190,85,41142,1,0,0:0:0:0:
66,135,41590,1,0,0:0:0:0:
385,49,41814,1,8,0:0:0:0:
190,85,42038,1,8,0:0:0:0:
263,247,42261,1,0,0:0:0:0:
290,89,42373,1,8,0:0:0:0:
180,118,43157,1,0,0:0:0:0:
248,165,43381,1,8,0:0:0:0:
269,147,43605,1,8,0:0:0:0:
362,80,43829,1,0,0:0:0:0:
195,96,44052,1,0,0:0:0:0:
174,188,44164,1,8,0:0:0:0:
96,96,44388,1,8,0:0:0:0:
192,128,44612,5,8,0:0:0:0:
224,192,44836,1,0,0:0:0:0:
295,169,45060,1,8,0:0:0:0:
177,124,45172,1,0,0:0:0:0:
129,213,45396,1,8,0:0:0:0:
232,75,45620,1,0,0:0:0:0:
45,60,45844,1,8,0:0:0:0:
137,229,45956,1,0,0:0:0:0:
230,184,46180,1,8,0:0:0:0:
127,177,46404,1,0,0:0:0:0:
323,188,46964,1,0,0:0:0:0:
61,167,47187,1,0,0:0:0:0:
243,173,47411,1,8,0:0:0:0:
139,179,47523,1,8,0:0:0:0:
88,344,47747,1,8,0:0:0:0:
246,62,48531,1,0,0:0:0:0:
122,176,48755,1,8,0:0:0:0:
230,197,48978,1,0,0:0:0:0:
306,133,49202,1,8,0:0:0:0:
191,88,49426,1,0,0:0:0:0:
406,72,49538,1,8,0:0:0:0:
127,180,49762,1,0,0:0:0:0:
294,215,49986,1,8,0:0:0:0:
237,98,50210,1,8,0:0:0:0:
215,158,50434,1,0,0:0:0:0:
123,163,50546,1,8,0:0:0:0:
300,169,50770,1,0,0:0:0:0:
356,65,50993,1,0,0:0:0:0:
35,131,51105,1,8,0:0:0:0:
182,151,51329,1,8,0:0:0:0:
306,260,51553,1,0,0:0:0:0:
437,100,51665,1,8,0:0:0:0:
64,128,52112,1,0,0:0:0:0:
252,93,52337,5,8,0:0:0:0:
353,162,52561,1,0,0:0:0:0:
199,166,52784,5,8,0:0:0:0:
123,213,53008,1,0,0:0:0:0:
96,160,53120,1,8,0:0:0:0:
154,66,53344,1,8,0:0:0:0:
288,128,53567,1,0,0:0:0:0:
352,96,53903,1,8,0:0:0:0:
160,96,54015,1,8,0:0:0:0:
192,224,54127,1,0,0:0:0:0:
110,104,54352,1,0,0:0:0:0:
221,88,54575,1,8,0:0:0:0:
128,224,54799,1,0,0:0:0:0:
273,164,54911,1,8,0:0:0:0:
288,96,55135,1,0,0:0:0:0:
299,148,55359,1,8,0:0:0:0:
190,85,55471,1,0,0:0:0:0:
66,135,55919,1,0,0:0:0:0:
385,49,56143,1,8,0:0:0:0:
190,85,56367,1,8,0:0:0:0:
263,247,56590,1,0,0:0:0:0:
290,89,56702,1,8,0:0:0:0:
46,265,57038,1,8,0:0:0:0:
426,197,57261,1,0,0:0:0:0:
128,64,57597,1,8,0:0:0:0:
269,147,57933,1,8,0:0:0:0:
362,80,58157,1,0,0:0:0:0:
195,96,58381,1,0,0:0:0:0:
79,104,58493,1,8,0:0:0:0:
195,253,58717,1,8,0:0:0:0:
79,104,58941,1,8,0:0:0:0:
10,197,59052,1,0,0:0:0:0:
372,128,59276,1,8,0:0:0:0:
177,124,59500,1,0,0:0:0:0:
129,213,59724,1,8,0:0:0:0:
294,86,59948,1,0,0:0:0:0:
73,110,60284,1,8,0:0:0:0:
192,64,60620,1,0,0:0:0:0:
192,228,60844,1,8,0:0:0:0:
352,111,61179,1,0,0:0:0:0:
220,153,61515,1,8,0:0:0:0:
232,222,61739,1,8,0:0:0:0:
328,120,61963,1,8,0:0:0:0:
313,155,62187,1,8,0:0:0:0:
194,124,62411,1,8,0:0:0:0:
259,141,62635,1,8,0:0:0:0:
352,120,62858,1,8,0:0:0:0:
265,173,63082,1,8,0:0:0:0:
149,137,63306,1,8,0:0:0:0:
215,82,63418,1,8,0:0:0:0:
173,106,63530,1,0,0:0:0:0:
64,64,63866,5,8,0:0:0:0:
256,64,64202,5,0,0:0:0:0:
168,81,64426,1,8,0:0:0:0:
288,96,64761,1,0,0:0:0:0:
256,64,65097,1,8,0:0:0:0:
152,63,65321,1,8,0:0:0:0:
256,160,65545,5,8,0:0:0:0:
310,157,65769,1,8,0:0:0:0:
288,64,65993,5,8,0:0:0:0:
126,256,66105,1,8,0:0:0:0:
108,124,66217,1,0,0:0:0:0:
175,69,66552,1,8,0:0:0:0:
226,149,66664,1,0,0:0:0:0:
377,101,67000,1,8,0:0:0:0:
361,166,67112,1,0,0:0:0:0:
115,147,67448,1,0,0:0:0:0:
213,141,67560,1,8,0:0:0:0:
40,77,67896,1,8,0:0:0:0:
246,94,68008,1,0,0:0:0:0:
288,64,68344,1,0,0:0:0:0:
352,135,68455,1,8,0:0:0:0:
165,126,68791,1,8,0:0:0:0:
87,163,68903,1,0,0:0:0:0:
224,64,69239,5,0,0:0:0:0:
245,135,69351,1,8,0:0:0:0:
269,212,69687,1,0,0:0:0:0:
245,135,69799,1,8,0:0:0:0:
224,64,70135,5,8,0:0:0:0:
245,135,70246,1,8,0:0:0:0:
277,194,70582,1,0,0:0:0:0:
159,129,70694,1,8,0:0:0:0:
288,64,70918,5,8,0:0:0:0:
215,134,71030,1,8,0:0:0:0:
288,64,71142,1,8,0:0:0:0:
256,96,71366,5,8,0:0:0:0:
299,224,71478,1,8,0:0:0:0:
256,96,71590,1,8,0:0:0:0:
297,168,71814,1,8,0:0:0:0:
480,128,72038,1,0,0:0:0:0:
105,109,72485,1,0,0:0:0:0:
221,162,72821,1,8,0:0:0:0:
306,177,73045,1,8,0:0:0:0:
322,130,73269,1,0,0:0:0:0:
159,135,73381,1,8,0:0:0:0:
303,81,73605,1,0,0:0:0:0:
43,138,74276,1,0,0:0:0:0:
18,231,74500,1,8,0:0:0:0:
301,206,74612,1,0,0:0:0:0:
250,98,74724,1,8,0:0:0:0:
166,155,74948,1,0,0:0:0:0:
186,175,75172,1,8,0:0:0:0:
194,180,75284,1,0,0:0:0:0:
194,181,75396,1,8,0:0:0:0:
104,240,75620,1,0,0:0:0:0:
374,125,75844,1,0,0:0:0:0:
277,89,76067,1,8,0:0:0:0:
194,59,76179,1,8,0:0:0:0:
106,142,76291,1,8,0:0:0:0:
288,128,76515,1,0,0:0:0:0:
234,166,76739,1,0,0:0:0:0:
147,127,76963,1,0,0:0:0:0:
236,193,77075,1,0,0:0:0:0:
292,243,77187,1,0,0:0:0:0:
320,96,77411,1,8,0:0:0:0:
194,175,77635,1,8,0:0:0:0:
95,142,77858,1,0,0:0:0:0:
277,226,78082,1,8,0:0:0:0:
359,231,78194,1,8,0:0:0:0:
350,118,78306,1,0,0:0:0:0:
159,98,78530,1,8,0:0:0:0:
205,189,78754,1,0,0:0:0:0:
297,117,78978,1,8,0:0:0:0:
297,117,79090,1,8,0:0:0:0:
172,78,79202,1,8,0:0:0:0:
112,174,79426,1,0,0:0:0:0:
205,189,79649,1,0,0:0:0:0:
184,124,79873,1,0,0:0:0:0:
252,218,80097,1,8,0:0:0:0:
121,189,80321,1,8,0:0:0:0:
166,228,80545,1,8,0:0:0:0:
191,252,80657,1,8,0:0:0:0:
195,92,80769,1,0,0:0:0:0:
256,96,80993,1,8,0:0:0:0:
128,96,81105,1,8,0:0:0:0:
368,131,81217,1,8,0:0:0:0:
96,186,81441,1,8,0:0:0:0:
354,208,81664,1,8,0:0:0:0:
197,157,81776,1,8,0:0:0:0:
299,122,81888,1,0,0:0:0:0:
254,78,82112,1,8,0:0:0:0:
119,248,82336,1,8,0:0:0:0:
208,97,82448,1,8,0:0:0:0:
185,180,82560,1,0,0:0:0:0:
480,160,82784,1,0,0:0:0:0:
192,64,83008,5,0,0:0:0:0:
288,247,83232,1,8,0:0:0:0:
314,128,83344,1,0,0:0:0:0:
106,142,83455,1,8,0:0:0:0:
121,271,83679,1,8,0:0:0:0:
234,166,83903,1,0,0:0:0:0:
147,127,84127,1,0,0:0:0:0:
92,75,84239,1,0,0:0:0:0:
292,243,84351,1,0,0:0:0:0:
256,64,84575,1,8,0:0:0:0:
241,166,84799,1,8,0:0:0:0:
95,142,85023,1,0,0:0:0:0:
277,226,85246,1,8,0:0:0:0:
359,231,85358,1,8,0:0:0:0:
350,118,85470,1,0,0:0:0:0:
159,98,85694,1,8,0:0:0:0:
205,189,85918,1,0,0:0:0:0:
297,117,86142,1,8,0:0:0:0:
297,117,86254,1,8,0:0:0:0:
172,78,86366,1,8,0:0:0:0:
112,174,86590,1,0,0:0:0:0:
205,189,86814,1,0,0:0:0:0:
184,124,87038,1,0,0:0:0:0:
252,218,87261,1,8,0:0:0:0:
121,189,87485,1,8,0:0:0:0:
166,228,87709,1,8,0:0:0:0:
191,252,87821,1,0,0:0:0:0:
195,92,87933,1,0,0:0:0:0:
96,128,88157,1,8,0:0:0:0:
192,192,88269,5,8,0:0:0:0:
368,131,88381,1,8,0:0:0:0:
368,131,88605,1,8,0:0:0:0:
286,95,88829,1,8,0:0:0:0:
181,111,88941,1,8,0:0:0:0:
195,92,89052,1,0,0:0:0:0:
166,228,89276,1,8,0:0:0:0:
121,189,89500,1,8,0:0:0:0:
252,218,89724,1,8,0:0:0:0:
240,79,89836,1,8,0:0:0:0:
184,124,89948,1,0,0:0:0:0:
205,189,90172,1,0,0:0:0:0:
112,174,90396,1,0,0:0:0:0:
172,78,90620,1,8,0:0:0:0:
297,117,90844,1,8,0:0:0:0:
205,189,90955,1,0,0:0:0:0:
205,189,91067,1,0,0:0:0:0:
159,98,91291,1,8,0:0:0:0:
350,118,91515,1,0,0:0:0:0:
277,226,91739,1,8,0:0:0:0:
264,226,91851,1,8,0:0:0:0:
95,142,91963,1,0,0:0:0:0:
241,166,92187,1,8,0:0:0:0:
352,104,92411,1,8,0:0:0:0:
220,80,92523,1,8,0:0:0:0:
292,243,92635,1,0,0:0:0:0:
147,127,92858,1,0,0:0:0:0:
234,166,93082,1,0,0:0:0:0:
121,271,93306,1,8,0:0:0:0:
121,271,93418,1,0,0:0:0:0:
106,142,93530,1,8,0:0:0:0:
288,247,93754,1,8,0:0:0:0:
397,246,93978,1,8,0:0:0:0:
361,82,94202,1,8,0:0:0:0:
185,180,94426,1,0,0:0:0:0:
119,248,94649,1,8,0:0:0:0:
254,78,94873,1,8,0:0:0:0:
406,95,94985,1,0,0:0:0:0:
299,122,95097,1,0,0:0:0:0:
128,128,95321,5,8,0:0:0:0:
192,0,95433,1,8,0:0:0:0:
96,186,95545,1,8,0:0:0:0:
368,131,95769,1,8,0:0:0:0:
286,95,95993,1,8,0:0:0:0:
181,111,96105,1,8,0:0:0:0:
195,92,96217,1,8,0:0:0:0:
166,228,96441,1,8,0:0:0:0:
121,189,96664,1,8,0:0:0:0:
83,211,96776,1,0,0:0:0:0:
252,218,96888,1,8,0:0:0:0:
184,124,97112,1,0,0:0:0:0:
205,189,97336,1,0,0:0:0:0:
32,96,97560,1,8,0:0:0:0:
352,128,97672,1,8,0:0:0:0:
352,128,97784,1,8,0:0:0:0:
297,117,97896,1,8,0:0:0:0:
297,117,98008,1,8,0:0:0:0:
205,189,98232,1,0,0:0:0:0:
159,98,98455,1,8,0:0:0:0:
350,118,98679,1,0,0:0:0:0:
320,32,98791,1,0,0:0:0:0:
288,256,98903,1,0,0:0:0:0:
320,256,99015,1,0,0:0:0:0:
95,142,99127,1,0,0:0:0:0:
194,175,99351,1,8,0:0:0:0:
352,104,99575,1,8,0:0:0:0:
220,80,99687,1,8,0:0:0:0:
292,243,99799,1,0,0:0:0:0:
147,127,100023,1,0,0:0:0:0:
234,166,100246,1,0,0:0:0:0:
121,271,100470,1,8,0:0:0:0:
106,142,100694,1,8,0:0:0:0:
219,124,100806,1,8,0:0:0:0:
277,89,100918,1,8,0:0:0:0:
374,125,101142,1,0,0:0:0:0:
104,240,101366,1,0,0:0:0:0:
96,96,101590,1,0,0:0:0:0:
186,175,101814,1,8,0:0:0:0:
166,155,102038,1,0,0:0:0:0:
340,81,102149,5,8,0:0:0:0:
250,98,102261,1,8,0:0:0:0:
160,256,102485,1,0,0:0:0:0:
160,96,102933,1,12,0:0:0:0:
292,106,103157,5,0,0:0:0:0:
289,135,103269,1,8,0:0:0:0:
261,288,103493,1,8,0:0:0:0:
224,222,103717,1,8,0:0:0:0:
323,237,103941,1,0,0:0:0:0:
310,137,104052,1,8,0:0:0:0:
148,148,104276,1,0,0:0:0:0:
221,264,104500,1,8,0:0:0:0:
221,264,104724,1,8,0:0:0:0:
272,160,104948,1,0,0:0:0:0:
103,140,105172,1,0,0:0:0:0:
202,66,105284,1,0,0:0:0:0:
448,106,105396,1,8,0:0:0:0:
314,222,105620,1,0,0:0:0:0:
218,168,105844,1,8,0:0:0:0:
303,162,106067,1,8,0:0:0:0:
163,119,106291,1,0,0:0:0:0:
161,237,106515,1,8,0:0:0:0:
319,45,106627,1,8,0:0:0:0:
341,150,106739,1,0,0:0:0:0:
248,168,106963,1,8,0:0:0:0:
142,115,107187,1,0,0:0:0:0:
154,174,107411,1,0,0:0:0:0:
277,93,107635,1,8,0:0:0:0:
273,143,107746,1,8,0:0:0:0:
194,184,107858,1,8,0:0:0:0:
66,137,108082,1,0,0:0:0:0:
152,227,108306,1,8,0:0:0:0:
255,128,108530,1,0,0:0:0:0:
256,64,108642,1,8,0:0:0:0:
480,256,108866,5,8,0:0:0:0:
96,96,109090,1,8,0:0:0:0:
79,175,109202,1,8,0:0:0:0:
177,192,109426,1,8,0:0:0:0:
128,224,109538,1,8,0:0:0:0:
288,160,109761,1,8,0:0:0:0:
256,160,109873,1,8,0:0:0:0:
362,109,110097,1,0,0:0:0:0:
197,98,110209,1,8,0:0:0:0:
277,247,110545,1,0,0:0:0:0:
175,182,110657,1,8,0:0:0:0:
264,118,110881,1,0,0:0:0:0:
102,133,111105,1,8,0:0:0:0:
277,206,111329,1,0,0:0:0:0:
143,213,111441,1,8,0:0:0:0:
347,88,111664,1,0,0:0:0:0:
416,192,111776,1,8,0:0:0:0:
32,96,112000,1,8,0:0:0:0:
256,80,112224,1,8,0:0:0:0:
352,160,112448,1,8,0:0:0:0:
352,96,112560,1,0,0:0:0:0:
448,96,112672,1,8,0:0:0:0:
210,168,112896,1,8,0:0:0:0:
123,72,113120,1,8,0:0:0:0:
403,177,113232,1,0,0:0:0:0:
202,135,113455,1,8,0:0:0:0:
316,75,113567,1,8,0:0:0:0:
263,157,113679,1,0,0:0:0:0:
0,192,114015,1,8,0:0:0:0:
103,131,114127,1,0,0:0:0:0:
249,173,114351,1,8,0:0:0:0:
64,96,114687,1,8,0:0:0:0:
64,96,114799,1,0,0:0:0:0:
320,128,115023,5,0,0:0:0:0:
152,206,115358,1,8,0:0:0:0:
103,131,115470,1,0,0:0:0:0:
224,128,115694,1,8,0:0:0:0:
288,96,116030,5,8,0:0:0:0:
288,64,116142,1,0,0:0:0:0:
416,64,116366,1,0,0:0:0:0:
224,128,116702,1,8,0:0:0:0:
352,128,116814,1,0,0:0:0:0:
412,217,117038,1,0,0:0:0:0:
108,127,117261,5,8,0:0:0:0:
160,148,117485,5,8,0:0:0:0:
128,64,117597,1,0,0:0:0:0:
128,256,117821,1,0,0:0:0:0:
288,128,118045,5,0,0:0:0:0:
320,288,118269,1,0,0:0:0:0:
352,192,118493,1,0,0:0:0:0:
227,178,118605,5,8,0:0:0:0:
174,93,118829,1,8,0:0:0:0:
141,178,118941,1,0,0:0:0:0:
