osu file format v14

[General]
AudioFilename: audio.mp3
AudioLeadIn: 0
PreviewTime: -1
Countdown: 0
SampleSet: Soft
StackLeniency: 0.5
Mode: 0
LetterboxInBreaks: 0
WidescreenStoryboard: 0

[Editor]
Bookmarks: 32554,53311,58500,74068,89635,97419,123365,138933,144122,164879,175257,186933,193743,207689,212879,220662,228446
DistanceSpacing: 0.5
BeatDivisor: 4
GridSize: 4
TimelineZoom: 1

[Metadata]
Title:Chrono Diver -fragment-
TitleUnicode:Chrono Diver -fragment-
Artist:Nekomata Master
ArtistUnicode:猫叉Master
Creator:ksg
Version:dfdfefda
Source:
Tags:
BeatmapID:1709845
BeatmapSetID:815264

[Difficulty]
HPDrainRate:5
CircleSize:4
OverallDifficulty:8
ApproachRate:9
SliderMultiplier:1.5
SliderTickRate:1

[Events]
//Background and Video events
//Break Periods
2,165079,169468
2,175457,179846
2,180646,186333
//Storyboard Layer 0 (Background)
//Storyboard Layer 1 (Fail)
//Storyboard Layer 2 (Pass)
//Storyboard Layer 3 (Foreground)
//Storyboard Sound Samples

[TimingPoints]
122.32242727194,324.324324324324,4,2,0,60,1,0
31906,-500,4,2,0,60,0,0
32554,-133.333333333333,4,2,0,60,0,0
42933,-100,4,2,0,60,0,0
53311,-80,4,2,0,60,0,0
62716,-133.333333333333,4,2,0,60,0,0
63365,-200,4,2,0,60,0,0
63689,-66.6666666666667,4,2,0,60,0,0
78933,-133.333333333333,4,2,0,60,0,0
79257,-66.6666666666667,4,2,0,60,0,0
103906,-200,4,2,0,20,0,0
105203,-66.6666666666667,4,2,0,60,0,1
123284,-66.6666666666667,4,2,0,60,0,0
123365,-66.6666666666667,4,2,0,60,0,1
138933,-100,4,2,0,60,0,0
142825,-200,4,2,0,60,0,0
144122,-80,4,2,0,60,0,1
144203,-80,4,2,0,60,0,0
170068,-133.333333333333,4,2,0,60,0,0
187257,-80,4,2,0,60,0,0
196987,-100,4,2,0,60,0,0
197311,-80,4,2,0,60,0,0
212230,-100,4,2,0,60,0,0
212554,-133.333333333333,4,2,0,60,0,0
212879,-100,4,2,0,60,0,0
227149,-200,4,2,0,60,0,0

[HitObjects]
352,79,31906,6,0,P|356:97|361:131,1,52.5
361,157,32554,6,0,P|394:146|442:144,1,56.2500021457673
289,292,33041,6,0,P|322:303|370:305,1,56.2500021457673
204,124,33527,6,0,P|237:113|285:111,1,56.2500021457673
133,334,34014,6,0,P|166:345|214:347,1,56.2500021457673
162,114,37743,6,0,L|153:39,1,56.2500021457673
337,159,38230,6,0,L|345:84,1,56.2500021457673
119,303,38716,6,0,L|110:228,1,56.2500021457673
389,340,39203,6,0,L|397:265,1,56.2500021457673
126,100,40338,6,0,P|161:110|199:114,1,56.2500021457673
393,153,40825,6,0,P|358:163|320:167,1,56.2500021457673
68,212,41311,6,0,P|103:222|141:226,1,56.2500021457673
444,261,41797,6,0,P|409:271|371:275,1,56.2500021457673
256,192,42041,12,0,42852,0:0:0:0:
293,129,42933,6,0,P|374:116|459:134,1,150
209,184,43419,1,0,0:0:0:0:
210,83,43581,6,0,P|198:47|197:8,1,75
293,129,43906,2,0,P|305:165|306:204,1,75
102,177,44230,6,0,L|119:22,1,150
25,242,44716,1,0,0:0:0:0:
120,275,44879,6,0,L|215:258,1,75
102,177,45203,2,0,L|7:160,1,75
139,289,45527,6,0,L|308:258,1,150
456,219,46014,2,0,L|359:202,1,75
139,289,46500,2,0,P|128:239|135:200,1,75
138,207,46743,1,0,0:0:0:0:
145,199,46825,6,0,P|159:125|144:52,1,150
85,145,47311,1,0,0:0:0:0:
225,62,47473,2,0,P|266:60|322:71,1,75
420,112,47797,5,0,0:0:0:0:
425,131,47879,1,0,0:0:0:0:
430,150,47960,1,0,0:0:0:0:
435,169,48041,1,0,0:0:0:0:
440,188,48122,6,0,L|460:278,1,75
346,232,48446,1,0,0:0:0:0:
346,232,48608,6,0,L|366:322,1,75
240,224,48933,1,0,0:0:0:0:
240,224,49095,6,0,L|260:314,1,75
146,268,49419,1,0,0:0:0:0:
146,268,49581,6,0,L|166:358,1,75
40,260,49906,2,0,L|74:111,1,150
73,113,50392,1,0,0:0:0:0:
165,187,50716,6,0,P|225:199|324:185,1,150
413,139,51203,2,0,L|420:51,2,75
312,188,51689,2,0,L|306:262,1,75
295,274,51933,1,0,0:0:0:0:
283,285,52014,1,0,0:0:0:0:
25,48,52338,5,0,0:0:0:0:
61,204,52500,1,0,0:0:0:0:
152,15,52662,1,0,0:0:0:0:
193,209,52825,2,0,L|186:233,2,25
201,192,52987,2,0,P|245:184|331:198,1,112.5
327,198,53311,6,0,L|337:92,1,93.75
240,5,53635,2,0,L|231:98,1,93.75
341,206,53960,6,0,P|386:215|439:206,1,93.75
231,98,54284,2,0,P|186:89|133:98,1,93.75
25,283,54608,6,0,L|147:272,1,93.75
189,179,54933,2,0,L|67:168,1,93.75
148,384,55257,6,0,L|270:373,1,93.75
312,280,55582,2,0,L|190:269,1,93.75
464,357,55906,6,0,L|467:249,1,93.75
331,371,56230,2,0,L|308:265,1,93.75
153,306,56554,6,0,L|172:214,1,93.75
20,292,56878,2,0,L|16:198,1,93.75
12,53,57203,6,0,P|63:49|126:28,1,93.75
236,155,57527,2,0,P|190:142|144:139,1,93.75
277,30,57852,6,0,P|322:42|368:45,1,93.75
501,132,58176,2,0,P|454:135|409:147,1,93.75
332,244,58500,5,0,0:0:0:0:
336,264,58825,1,0,0:0:0:0:
340,284,59149,5,0,0:0:0:0:
344,304,59473,1,0,0:0:0:0:
105,282,59797,5,0,0:0:0:0:
111,252,60121,1,0,0:0:0:0:
117,222,60445,5,0,0:0:0:0:
123,192,60770,1,0,0:0:0:0:
350,57,61095,5,0,0:0:0:0:
380,178,61257,1,0,0:0:0:0:
259,208,61419,1,0,0:0:0:0:
229,87,61581,1,0,0:0:0:0:
373,37,61743,5,0,0:0:0:0:
399,201,61905,1,0,0:0:0:0:
235,227,62067,1,0,0:0:0:0:
209,63,62229,1,0,0:0:0:0:
413,27,62392,5,0,0:0:0:0:
454,38,62716,6,0,P|414:26|373:36,1,84.3750032186509
350,57,63041,5,0,0:0:0:0:
347,75,63095,1,0,0:0:0:0:
345,94,63149,1,0,0:0:0:0:
343,112,63203,5,0,0:0:0:0:
141,196,63365,2,0,L|133:134,1,56.25
145,217,63689,6,0,P|212:229|265:208,1,112.500004291535
58,164,64014,6,0,P|46:231|67:284,1,112.500004291535
224,90,64338,2,0,P|171:46|115:37,1,112.500004291535
203,272,64662,2,0,B|226:290|255:297|288:287|308:265|308:265|379:271,1,168.750006437302
422,193,64987,6,0,L|310:179,1,112.500004291535
472,281,65311,2,0,B|485:237|514:209|514:209|496:173|498:128,1,168.750006437302
404,99,65635,6,0,P|349:79|296:25,1,112.500004291535
101,71,65960,2,0,P|156:61|204:33,1,112.500004291535
330,208,66284,6,0,B|277:171|249:131|249:131|214:166|156:192,1,225.000008583069
230,350,66770,2,0,L|240:230,2,112.500004291535
421,252,67257,2,0,L|320:300,1,112.500004291535
237,143,67581,6,0,L|330:208,1,112.500004291535
230,350,67906,1,0,0:0:0:0:
140,284,68068,1,0,0:0:0:0:
320,300,68230,5,0,0:0:0:0:
74,374,68392,1,0,0:0:0:0:
50,218,68554,1,0,0:0:0:0:
50,218,68879,6,0,P|59:151|48:92,1,112.500004291535
208,24,69203,2,0,P|201:79|210:135,1,112.500004291535
264,227,69527,5,0,0:0:0:0:
132,175,69689,1,0,0:0:0:0:
295,89,69852,2,0,L|423:100,1,112.500004291535
407,285,70176,6,0,L|295:295,1,112.500004291535
440,192,70500,1,0,0:0:0:0:
471,371,70662,5,0,0:0:0:0:
442,368,70743,1,0,0:0:0:0:
414,367,70824,1,0,0:0:0:0:
386,368,70905,1,0,0:0:0:0:
358,371,70986,1,0,0:0:0:0:
216,192,71149,2,0,L|360:192,1,112.500004291535
77,340,71473,6,0,P|69:274|76:210,1,112.500004291535
275,245,71797,2,0,P|268:300|251:354,1,112.500004291535
127,167,72122,1,0,0:0:0:0:
275,244,72284,1,0,0:0:0:0:
77,340,72446,2,0,P|69:274|76:210,1,112.500004291535
229,107,72770,5,0,0:0:0:0:
80,66,72933,1,0,0:0:0:0:
348,35,73095,5,0,0:0:0:0:
155,87,73257,1,0,0:0:0:0:
431,157,73419,5,0,0:0:0:0:
436,171,73500,1,0,0:0:0:0:
441,185,73581,1,0,0:0:0:0:
304,298,73743,2,0,P|293:233|309:113,1,168.750006437302
348,35,74068,5,0,0:0:0:0:
348,35,74392,6,0,P|279:38|215:30,1,112.500004291535
416,119,74716,2,0,P|447:57|486:6,1,112.500004291535
303,131,75041,2,0,P|328:198|408:271,1,168.750006437302
409,272,75365,6,0,P|342:250|255:259,1,112.500004291535
100,244,75689,2,0,P|169:234|252:258,1,112.500004291535
420,277,76014,6,0,P|379:316|356:366,1,112.500004291535
85,249,76338,2,0,P|118:295|132:348,1,112.500004291535
263,184,76662,6,0,B|292:91|271:10|271:10|246:20|231:39,1,225.000008583069
183,194,77149,2,0,P|257:266|342:207,1,225.000008583069
163,102,77635,2,0,L|32:116,1,112.500004291535
103,337,77960,6,0,P|117:279|105:218,1,112.500004291535
263,184,78284,1,0,0:0:0:0:
253,210,78365,1,0,0:0:0:0:
249,238,78446,1,0,0:0:0:0:
250,266,78527,1,0,0:0:0:0:
257,293,78608,1,0,0:0:0:0:
396,136,78770,1,0,0:0:0:0:
108,227,78933,2,0,P|97:270|99:316,1,84.3750032186509
108,227,79257,6,0,P|122:165|107:94,1,112.500004291535
77,8,79581,1,0,0:0:0:0:
221,116,79743,5,0,0:0:0:0:
221,116,79825,1,0,0:0:0:0:
221,116,79906,1,0,0:0:0:0:
13,165,80068,1,0,0:0:0:0:
182,27,80230,2,0,P|243:19|311:32,1,112.500004291535
446,172,80554,6,0,P|460:117|466:61,1,112.500004291535
322,235,80879,1,0,0:0:0:0:
328,216,81041,2,0,P|321:153|303:94,1,112.500004291535
195,290,81365,1,0,0:0:0:0:
189,271,81527,2,0,P|194:215|209:160,1,112.500004291535
64,338,81852,6,0,P|81:261|66:160,1,168.750006437302
70,172,82176,2,0,P|58:117|62:61,1,112.500004291535
286,40,82500,6,0,P|297:94|294:150,1,112.500004291535
106,257,82825,1,0,0:0:0:0:
155,82,82987,1,0,0:0:0:0:
283,223,83149,5,0,0:0:0:0:
70,172,83311,1,0,0:0:0:0:
366,207,83473,5,0,0:0:0:0:
195,240,83635,2,0,P|189:206|188:178,1,56.2500021457673
286,40,83797,6,0,P|292:74|293:102,1,56.2500021457673
290,278,83960,2,0,P|284:244|283:216,1,56.2500021457673
380,74,84122,5,0,0:0:0:0:
470,263,84446,6,0,P|459:327|456:377,1,112.500004291535
358,205,84770,2,0,P|363:269|373:318,1,112.500004291535
234,177,85095,2,0,P|256:237|278:282,1,112.500004291535
106,182,85419,2,0,P|143:235|176:272,1,112.500004291535
9,128,85743,6,0,P|20:192|23:242,1,112.500004291535
247,65,86068,2,0,P|236:129|233:179,1,112.500004291535
115,77,86392,5,0,0:0:0:0:
128,188,86554,1,0,0:0:0:0:
353,14,86716,5,0,0:0:0:0:
339,125,86879,1,0,0:0:0:0:
247,65,87041,5,0,0:0:0:0:
233,176,87203,2,0,L|221:263,1,56.2500021457673
215,306,87365,5,0,0:0:0:0:
213,319,87446,1,0,0:0:0:0:
211,333,87527,1,0,0:0:0:0:
209,347,87608,1,0,0:0:0:0:
207,361,87690,5,0,0:0:0:0:
222,337,87771,1,0,0:0:0:0:
244,319,87852,1,0,0:0:0:0:
269,308,87933,1,0,0:0:0:0:
297,303,88014,1,0,0:0:0:0:
325,307,88095,1,0,0:0:0:0:
350,318,88176,1,0,0:0:0:0:
372,335,88257,1,0,0:0:0:0:
389,358,88338,5,0,0:0:0:0:
415,382,88419,1,0,0:0:0:0:
452,384,88500,1,0,0:0:0:0:
481,362,88581,1,0,0:0:0:0:
489,326,88662,1,0,0:0:0:0:
472,294,88743,1,0,0:0:0:0:
437,280,88825,1,0,0:0:0:0:
405,261,88906,1,0,0:0:0:0:
392,227,88987,5,0,0:0:0:0:
404,193,89068,1,0,0:0:0:0:
435,174,89149,1,0,0:0:0:0:
468,141,89230,1,0,0:0:0:0:
472,96,89311,1,0,0:0:0:0:
444,59,89392,1,0,0:0:0:0:
400,49,89473,1,0,0:0:0:0:
359,71,89554,1,0,0:0:0:0:
343,114,89635,6,0,B|268:155|173:123|173:123|211:126|239:108,1,225.000008583069
222,116,90284,5,0,0:0:0:0:
64,304,90608,1,0,0:0:0:0:
49,187,90770,1,0,0:0:0:0:
64,304,90933,6,0,B|139:263|234:294|234:294|196:292|168:310,1,225.000008583069
185,301,91581,5,0,0:0:0:0:
388,331,91906,1,0,0:0:0:0:
125,238,92230,6,0,B|103:145|127:63|127:63|156:75|186:71,1,225.000008583069
173,71,92879,1,0,0:0:0:0:
420,111,93203,1,0,0:0:0:0:
317,140,93365,1,0,0:0:0:0:
420,111,93527,6,0,B|442:204|418:286|418:286|389:274|359:278,1,225.000008583069
371,277,94176,5,0,0:0:0:0:
125,238,94500,1,0,0:0:0:0:
221,205,94662,1,0,0:0:0:0:
88,336,94825,6,0,P|36:294|90:138,1,225.000008583069
61,153,95473,5,0,0:0:0:0:
286,121,95797,1,0,0:0:0:0:
317,219,95960,1,0,0:0:0:0:
346,37,96122,6,0,P|385:136|317:219,1,225.000008583069
317,219,96770,6,0,P|302:286|306:336,1,112.500004291535
140,199,97095,2,0,P|155:266|151:316,1,112.500004291535
145,321,97338,1,0,0:0:0:0:
138,332,97419,6,0,L|25:321,1,112.500004291535
149,189,97743,2,0,L|261:178,1,112.500004291535
383,317,98068,6,0,L|270:306,1,112.500004291535
394,174,98392,2,0,L|506:163,1,112.500004291535
211,236,98716,6,0,P|189:161|185:103,1,112.500004291535
138,332,99041,2,0,P|97:265|78:210,1,112.500004291535
288,158,99365,6,0,P|310:83|314:25,1,112.500004291535
361,254,99690,2,0,P|401:187|420:132,1,112.500004291535
183,43,100014,6,0,L|70:52,1,112.500004291535
301,146,100338,2,0,L|413:155,1,112.500004291535
137,251,100662,6,0,L|24:260,1,112.500004291535
361,336,100987,2,0,L|473:345,1,112.500004291535
207,226,101311,5,0,0:0:0:0:
301,146,101473,1,0,0:0:0:0:
150,179,101635,5,0,0:0:0:0:
358,193,101797,1,0,0:0:0:0:
137,251,101960,5,0,0:0:0:0:
371,121,102122,1,0,0:0:0:0:
80,205,102284,5,0,0:0:0:0:
428,168,102446,1,0,0:0:0:0:
221,7,102608,6,0,P|214:47|204:75,3,56.2500021457673
393,69,102933,2,0,P|375:105|368:134,3,56.2500021457673
179,131,103257,6,0,P|159:166|140:189,3,56.2500021457673
358,193,103582,2,0,P|354:233|357:263,3,56.2500021457673
208,332,103906,6,0,L|237:251,3,75
233,261,105203,6,0,P|305:258|368:270,1,112.500004291535
430,86,105527,1,0,0:0:0:0:
218,148,105689,1,0,0:0:0:0:
208,121,105770,1,0,0:0:0:0:
204,93,105851,1,0,0:0:0:0:
207,65,105932,1,0,0:0:0:0:
215,38,106013,1,0,0:0:0:0:
429,212,106176,2,0,P|441:285|423:337,1,112.500004291535
218,148,106500,6,0,L|353:156,1,112.500004291535
209,331,106825,1,0,0:0:0:0:
116,138,106987,1,0,0:0:0:0:
116,138,107068,1,0,0:0:0:0:
116,138,107149,1,0,0:0:0:0:
296,262,107311,1,0,0:0:0:0:
330,154,107473,2,0,P|342:81|324:29,1,112.500004291535
116,138,107797,5,0,0:0:0:0:
337,162,107960,1,0,0:0:0:0:
337,162,108041,1,0,0:0:0:0:
337,162,108122,1,0,0:0:0:0:
209,246,108284,1,0,0:0:0:0:
244,54,108446,5,0,0:0:0:0:
465,78,108609,1,0,0:0:0:0:
465,78,108690,1,0,0:0:0:0:
465,78,108771,1,0,0:0:0:0:
337,162,108933,1,0,0:0:0:0:
226,30,109095,6,0,P|298:20|371:39,1,112.500004291535
449,191,109419,1,0,0:0:0:0:
261,143,109581,1,0,0:0:0:0:
465,78,109743,5,0,0:0:0:0:
512,323,109906,1,0,0:0:0:0:
272,253,110068,1,0,0:0:0:0:
261,227,110149,1,0,0:0:0:0:
255,199,110230,1,0,0:0:0:0:
255,171,110311,1,0,0:0:0:0:
261,143,110392,6,0,P|327:131|400:157,1,112.500004291535
323,335,110716,2,0,P|268:345|213:332,1,112.500004291535
399,154,111041,6,0,L|411:286,1,112.500004291535
184,313,111365,2,0,L|194:200,1,112.500004291535
220,2,111689,5,0,0:0:0:0:
416,96,111852,1,0,0:0:0:0:
193,200,112014,2,0,P|137:204|83:193,1,112.500004291535
83,193,112257,1,0,0:0:0:0:
83,193,112338,1,0,0:0:0:0:
284,84,112500,1,0,0:0:0:0:
355,216,112662,2,0,P|410:225|465:219,1,112.500004291535
416,96,112987,5,0,0:0:0:0:
237,170,113149,1,0,0:0:0:0:
237,170,113230,1,0,0:0:0:0:
237,170,113311,1,0,0:0:0:0:
355,216,113473,1,0,0:0:0:0:
298,50,113635,5,0,0:0:0:0:
119,124,113797,1,0,0:0:0:0:
119,124,113878,1,0,0:0:0:0:
119,124,113959,1,0,0:0:0:0:
237,170,114121,1,0,0:0:0:0:
168,4,114284,5,0,0:0:0:0:
155,206,114446,1,0,0:0:0:0:
341,115,114608,1,0,0:0:0:0:
46,98,114770,1,0,0:0:0:0:
190,282,114933,6,0,P|261:285|312:282,1,112.500004291535
237,93,115257,2,0,P|180:90|124:93,1,112.500004291535
453,201,115581,6,0,L|461:88,1,112.500004291535
329,180,115906,1,0,0:0:0:0:
394,323,116068,1,0,0:0:0:0:
421,329,116149,1,0,0:0:0:0:
449,331,116230,1,0,0:0:0:0:
477,329,116311,1,0,0:0:0:0:
504,322,116392,1,0,0:0:0:0:
301,261,116554,2,0,P|235:253|178:267,1,112.500004291535
17,374,116879,6,0,L|156:368,1,112.500004291535
54,142,117203,2,0,P|45:197|48:253,1,112.500004291535
294,372,117527,6,0,P|304:306|298:250,1,112.500004291535
332,140,117852,2,0,L|219:144,1,112.500004291535
180,259,118176,5,0,0:0:0:0:
340,147,118338,1,0,0:0:0:0:
340,147,118419,1,0,0:0:0:0:
340,147,118500,1,0,0:0:0:0:
201,133,118662,1,0,0:0:0:0:
319,273,118825,5,0,0:0:0:0:
479,161,118987,1,0,0:0:0:0:
479,161,119068,1,0,0:0:0:0:
479,161,119149,1,0,0:0:0:0:
340,147,119311,1,0,0:0:0:0:
392,362,119473,6,0,P|406:298|405:244,1,112.500004291535
238,350,119797,2,0,P|234:294|243:238,1,112.500004291535
89,250,120122,6,0,P|74:186|75:132,1,112.500004291535
243,238,120446,2,0,P|246:182|237:126,1,112.500004291535
146,8,120770,6,0,L|167:232,1,225.000008583069
406,251,121257,1,0,0:0:0:0:
406,251,121338,1,0,0:0:0:0:
406,251,121419,1,0,0:0:0:0:
297,128,121581,1,0,0:0:0:0:
273,361,121743,1,0,0:0:0:0:
503,273,121906,1,0,0:0:0:0:
441,156,122068,6,0,P|447:118|464:81,3,56.2500021457673
254,215,122392,2,0,P|248:253|231:290,3,56.2500021457673
406,251,122716,6,0,L|477:268,1,56.2500021457673
297,128,122879,2,0,L|242:114,1,56.2500021457673
157,317,123041,5,0,0:0:0:0:
187,345,123122,1,0,0:0:0:0:
226,361,123203,1,0,0:0:0:0:
268,360,123284,1,0,0:0:0:0:
306,343,123365,6,0,P|337:279|315:210,1,112.500004291535
139,158,123689,1,0,0:0:0:0:
241,269,123852,1,0,0:0:0:0:
234,241,123933,1,0,0:0:0:0:
235,213,124014,1,0,0:0:0:0:
243,186,124095,1,0,0:0:0:0:
258,163,124176,1,0,0:0:0:0:
493,318,124338,2,0,L|348:308,1,112.500004291535
101,294,124662,5,0,0:0:0:0:
241,269,124825,1,0,0:0:0:0:
9,195,124987,2,0,P|-3:249|2:304,1,112.500004291535
2,304,125230,1,0,0:0:0:0:
2,304,125311,1,0,0:0:0:0:
193,384,125473,1,0,0:0:0:0:
139,158,125635,2,0,L|17:173,1,112.500004291535
241,269,125960,5,0,0:0:0:0:
195,85,126122,1,0,0:0:0:0:
195,85,126203,1,0,0:0:0:0:
195,85,126284,1,0,0:0:0:0:
312,155,126446,1,0,0:0:0:0:
124,199,126608,5,0,0:0:0:0:
78,15,126770,1,0,0:0:0:0:
78,15,126851,1,0,0:0:0:0:
78,15,126932,1,0,0:0:0:0:
195,85,127094,1,0,0:0:0:0:
6,123,127257,6,0,P|78:119|146:130,1,112.500004291535
252,289,127581,2,0,P|196:294|140:289,1,112.500004291535
140,289,127825,1,0,0:0:0:0:
140,289,127906,1,0,0:0:0:0:
311,179,128068,1,0,0:0:0:0:
432,334,128230,1,0,0:0:0:0:
432,334,128554,5,0,0:0:0:0:
479,160,128716,1,0,0:0:0:0:
283,280,128879,1,0,0:0:0:0:
330,106,129041,1,0,0:0:0:0:
330,106,129122,1,0,0:0:0:0:
330,106,129203,5,0,0:0:0:0:
377,280,129365,1,0,0:0:0:0:
181,160,129528,1,0,0:0:0:0:
228,334,129690,1,0,0:0:0:0:
228,334,129771,1,0,0:0:0:0:
228,334,129852,6,0,L|102:322,1,112.500004291535
46,153,130176,2,0,L|172:141,1,112.500004291535
306,129,130500,1,0,0:0:0:0:
241,213,130662,1,0,0:0:0:0:
116,43,130825,2,0,P|168:39|237:65,1,112.500004291535
323,272,131149,5,0,0:0:0:0:
167,151,131311,1,0,0:0:0:0:
167,151,131392,1,0,0:0:0:0:
167,151,131473,1,0,0:0:0:0:
306,129,131635,1,0,0:0:0:0:
184,294,131797,5,0,0:0:0:0:
28,173,131959,1,0,0:0:0:0:
28,173,132040,1,0,0:0:0:0:
28,173,132121,1,0,0:0:0:0:
167,151,132283,1,0,0:0:0:0:
44,319,132446,5,0,0:0:0:0:
266,280,132608,1,0,0:0:0:0:
143,242,132770,5,0,0:0:0:0:
385,318,132933,1,0,0:0:0:0:
166,363,133095,5,0,0:0:0:0:
243,146,133257,1,0,0:0:0:0:
385,318,133419,1,0,0:0:0:0:
385,318,133743,6,0,P|398:263|396:208,1,112.500004291535
258,61,134068,1,0,0:0:0:0:
183,238,134230,1,0,0:0:0:0:
209,247,134311,1,0,0:0:0:0:
237,252,134392,1,0,0:0:0:0:
265,252,134473,1,0,0:0:0:0:
293,248,134554,1,0,0:0:0:0:
87,175,134716,2,0,P|74:229|79:285,1,112.500004291535
135,91,135041,6,0,P|79:84|25:98,1,112.500004291535
324,164,135365,2,0,L|356:29,1,112.500004291535
232,147,135689,1,0,0:0:0:0:
371,251,135852,1,0,0:0:0:0:
354,39,136014,2,0,P|298:32|244:46,1,112.500004291535
275,331,136338,5,0,0:0:0:0:
331,171,136500,1,0,0:0:0:0:
331,171,136581,1,0,0:0:0:0:
331,171,136662,1,0,0:0:0:0:
162,204,136825,1,0,0:0:0:0:
444,298,136987,5,0,0:0:0:0:
500,138,137149,1,0,0:0:0:0:
500,138,137230,1,0,0:0:0:0:
500,138,137311,1,0,0:0:0:0:
331,171,137474,1,0,0:0:0:0:
444,298,137635,6,0,P|451:232|425:166,1,112.500004291535
214,147,137960,2,0,P|207:213|233:279,1,112.500004291535
219,256,138203,1,0,0:0:0:0:
219,256,138284,1,0,0:0:0:0:
348,72,138446,5,0,0:0:0:0:
116,62,138608,1,0,0:0:0:0:
116,62,138933,6,0,P|120:115|114:153,1,75
348,72,139257,2,0,P|338:124|322:159,1,75
122,44,139581,2,0,P|129:118|116:193,1,150
68,269,140068,1,0,0:0:0:0:
196,221,140230,6,0,P|271:214|345:224,1,150
352,232,140879,2,0,P|408:237|442:227,1,75
213,141,141203,2,0,P|269:136|303:146,1,75
148,284,141527,6,0,P|150:334|162:373,1,75
358,240,141852,2,0,P|356:290|344:329,1,75
213,141,142176,2,0,B|206:179|228:211|228:211|255:245|243:295,1,150
133,203,142662,1,0,0:0:0:0:
304,113,142825,6,0,L|310:35,3,75
309,38,144122,5,0,0:0:0:0:
46,120,144446,6,0,P|102:128|148:115,1,93.75
90,41,144770,1,0,0:0:0:0:
0,196,144933,1,0,0:0:0:0:
201,238,145095,1,0,0:0:0:0:
137,119,145257,1,0,0:0:0:0:
74,314,145419,6,0,P|128:326|175:312,1,93.75
304,231,145743,2,0,B|253:208|213:228|213:228|244:207|255:166,1,140.625
318,242,146068,2,0,P|372:254|419:240,1,93.75
483,94,146392,2,0,L|470:195,1,93.75
341,21,146716,6,0,P|395:13|441:31,1,93.75
279,173,147041,1,0,0:0:0:0:
260,24,147203,1,0,0:0:0:0:
198,176,147365,2,0,P|143:183|97:165,1,93.75
267,99,147689,1,0,0:0:0:0:
286,248,147851,1,0,0:0:0:0:
90,161,148014,6,0,P|93:112|86:50,1,93.75
208,194,148338,2,0,B|206:241|211:288|211:288|199:263|181:242,1,140.625
129,306,148662,2,0,P|76:300|10:299,1,93.75
253,366,148987,2,0,P|317:369|416:357,1,140.625
402,360,149311,6,0,P|412:298|400:160,1,187.5
403,174,149960,1,0,0:0:0:0:
263,157,150122,1,0,0:0:0:0:
212,287,150284,2,0,P|258:294|305:289,1,93.75
403,174,150608,6,0,B|400:122|416:87|416:87|375:95|346:82,1,140.625
390,18,150933,2,0,P|337:18|292:71,1,93.75
303,47,151176,1,0,0:0:0:0:
301,53,151257,1,0,0:0:0:0:
485,141,151419,1,0,0:0:0:0:
376,208,151581,2,0,P|377:254|385:301,1,93.75
278,149,151906,6,0,B|215:163|215:163|154:146|104:150,1,140.625
95,159,152230,2,0,P|102:218|99:269,1,93.75
11,94,152554,5,0,0:0:0:0:
138,60,152716,1,0,0:0:0:0:
95,272,152879,2,0,P|48:298|62:238,1,140.625
110,288,153203,2,0,P|175:301|240:287,1,93.75
324,220,153527,1,0,0:0:0:0:
421,321,153689,1,0,0:0:0:0:
456,155,153852,5,0,0:0:0:0:
303,307,154014,1,0,0:0:0:0:
298,298,154095,1,0,0:0:0:0:
293,289,154176,2,0,P|283:237|292:135,1,140.625
306,112,154500,6,0,P|259:118|214:109,1,93.75
423,39,154825,1,0,0:0:0:0:
371,167,154987,2,0,P|379:214|374:260,1,93.75
338,33,155311,1,0,0:0:0:0:
443,121,155473,1,0,0:0:0:0:
270,223,155635,1,0,0:0:0:0:
208,16,155797,6,0,P|218:62|201:169,1,140.625
198,171,156122,1,0,0:0:0:0:
50,146,156284,1,0,0:0:0:0:
205,278,156446,5,0,0:0:0:0:
24,329,156608,1,0,0:0:0:0:
29,320,156689,1,0,0:0:0:0:
34,311,156770,2,0,P|85:301|151:320,1,93.75
268,347,157095,6,0,P|279:278|269:209,1,140.625
255,180,157419,2,0,P|320:189|371:176,1,93.75
458,129,157743,1,0,0:0:0:0:
418,266,157906,1,0,0:0:0:0:
300,96,158068,2,0,P|253:91|207:100,1,93.75
88,171,158392,6,0,L|95:286,1,93.75
255,180,158716,1,0,0:0:0:0:
109,67,158879,1,0,0:0:0:0:
109,67,158960,1,0,0:0:0:0:
109,67,159041,1,0,0:0:0:0:
177,287,159203,1,0,0:0:0:0:
207,100,159365,5,0,0:0:0:0:
240,90,159446,1,0,0:0:0:0:
275,93,159527,1,0,0:0:0:0:
307,107,159608,1,0,0:0:0:0:
332,132,159689,6,0,P|400:112|468:124,1,140.625
485,136,160014,1,0,0:0:0:0:
407,25,160176,1,0,0:0:0:0:
405,243,160338,6,0,P|337:263|269:250,1,140.625
252,239,160663,1,0,0:0:0:0:
332,132,160825,1,0,0:0:0:0:
439,350,160987,6,0,L|334:341,1,93.75
128,315,161311,1,0,0:0:0:0:
252,239,161473,1,0,0:0:0:0:
85,130,161635,6,0,P|74:204|89:259,1,93.75
252,239,161960,2,0,P|262:193|242:96,1,140.625
230,86,162284,6,0,L|109:72,1,93.75
163,237,162608,1,0,0:0:0:0:
332,132,162770,1,0,0:0:0:0:
85,130,162933,5,0,0:0:0:0:
252,239,163095,1,0,0:0:0:0:
48,351,163257,2,0,P|88:380|147:381,1,93.75
131,384,163473,1,0,0:0:0:0:
131,384,163527,1,0,0:0:0:0:
131,384,163581,6,0,P|180:375|247:387,1,93.75
223,379,163797,1,0,0:0:0:0:
223,379,163852,1,0,0:0:0:0:
223,379,163906,6,0,P|252:334|251:272,1,93.75
256,295,164122,1,0,0:0:0:0:
256,295,164176,1,0,0:0:0:0:
256,295,164230,6,0,P|324:290|365:304,1,93.75
348,297,164446,1,0,0:0:0:0:
348,297,164500,1,0,0:0:0:0:
347,297,164554,6,0,B|365:229|365:229|361:159,1,140.625
359,85,164879,5,0,0:0:0:0:
66,183,170068,6,0,P|58:225|62:261,1,56.2500021457673
184,124,170554,6,0,P|165:162|159:198,1,56.2500021457673
313,97,171041,6,0,P|285:129|270:162,1,56.2500021457673
444,104,171527,6,0,P|408:128|386:156,1,56.2500021457673
399,137,172662,6,0,P|407:179|403:215,1,56.2500021457673
281,78,173148,6,0,P|299:116|305:152,1,56.2500021457673
152,51,173635,6,0,P|179:83|194:116,1,56.2500021457673
21,58,174121,6,0,P|56:82|78:110,1,56.2500021457673
256,280,175257,5,0,0:0:0:0:
256,280,180446,5,0,0:0:0:0:
340,105,186933,5,0,0:0:0:0:
42,219,187257,2,0,B|91:231|137:212|137:212|161:227|191:227,1,140.625
271,237,187581,2,0,P|265:187|265:129,1,93.75
98,107,187906,2,0,P|140:132|194:155,1,93.75
298,26,188230,6,0,L|207:85,1,93.75
465,261,188554,2,0,B|471:167|471:167|453:106,1,140.625
389,214,188879,2,0,L|394:307,1,93.75
271,237,189203,2,0,L|265:129,1,93.75
452,40,189527,6,0,B|421:42|388:59|373:96|375:132|375:132|356:102|321:87,1,187.5
190,147,190014,2,0,P|244:215|328:187,1,187.5
221,45,190500,2,0,P|172:45|93:67,1,93.75
45,219,190825,6,0,L|167:229,1,93.75
96,139,191149,1,0,0:0:0:0:
3,132,191311,1,0,0:0:0:0:
87,300,191473,1,0,0:0:0:0:
180,307,191635,1,0,0:0:0:0:
265,143,191797,1,0,0:0:0:0:
265,143,192122,6,0,P|213:144|154:167,1,93.75
398,197,192446,2,0,B|427:155|417:97|417:97|396:108|394:129,1,140.625
394,123,192770,1,0,0:0:0:0:
220,16,192933,1,0,0:0:0:0:
161,170,193095,2,0,L|172:286,1,93.75
302,115,193419,6,0,L|310:21,1,93.75
153,90,193743,1,0,0:0:0:0:
301,220,193906,1,0,0:0:0:0:
301,220,193987,1,0,0:0:0:0:
301,220,194068,1,0,0:0:0:0:
161,170,194230,1,0,0:0:0:0:
77,275,194392,2,0,P|136:264|197:264,1,93.75
343,291,194716,6,0,P|385:213|332:141,1,187.5
203,363,195203,2,0,B|248:376|248:376|266:358|289:350|289:350|326:381|376:365,1,187.5
301,220,195689,5,0,0:0:0:0:
194,357,195852,1,0,0:0:0:0:
248,155,196014,5,0,0:0:0:0:
187,351,196176,1,0,0:0:0:0:
168,135,196338,5,0,0:0:0:0:
181,345,196500,2,0,L|154:294,1,46.875
91,153,196662,5,0,0:0:0:0:
91,153,196743,1,0,0:0:0:0:
91,153,196825,1,0,0:0:0:0:
397,107,196987,2,0,P|396:139|378:101,1,112.5
434,178,197311,6,0,P|381:199|325:176,1,93.75
442,28,197635,2,0,B|432:74|432:74|450:117|450:117|437:162,1,140.625
434,178,197960,6,0,L|411:268,1,93.75
246,244,198284,2,0,L|247:150,1,93.75
405,287,198608,6,0,B|358:297|324:290|324:290|310:318|280:328,1,140.625
231,331,198933,2,0,P|185:312|161:246,1,93.75
166,271,199176,1,0,0:0:0:0:
169,266,199257,1,0,0:0:0:0:
357,366,199419,1,0,0:0:0:0:
88,320,199581,2,0,P|77:258|90:214,1,93.75
214,83,199906,6,0,B|234:129|219:174|219:174|175:153|127:171,1,187.5
264,259,200392,2,0,P|314:265|374:247,1,93.75
455,185,200716,1,0,0:0:0:0:
419,375,200879,1,0,0:0:0:0:
419,375,201203,6,0,P|430:322|430:269,1,93.75
255,174,201527,1,0,0:0:0:0:
272,266,201689,1,0,0:0:0:0:
272,266,201770,1,0,0:0:0:0:
272,266,201852,1,0,0:0:0:0:
239,83,202014,1,0,0:0:0:0:
372,173,202176,1,0,0:0:0:0:
140,175,202338,5,0,0:0:0:0:
140,175,202419,1,0,0:0:0:0:
139,175,202500,2,0,P|228:185|271:265,1,187.5
101,369,202987,1,0,0:0:0:0:
173,268,203149,5,0,0:0:0:0:
224,380,203311,1,0,0:0:0:0:
50,257,203473,2,0,P|44:193|55:141,1,93.75
270,176,203797,6,0,B|223:186|223:186|184:162|184:162|131:177,1,140.625
128,169,204122,1,0,0:0:0:0:
321,107,204284,1,0,0:0:0:0:
321,107,204365,1,0,0:0:0:0:
321,107,204446,1,0,0:0:0:0:
280,288,204608,1,0,0:0:0:0:
184,41,204770,2,0,B|138:33|138:33|91:41,1,93.75
276,197,205095,6,0,B|322:205|322:205|420:185,1,140.625
433,182,205419,1,0,0:0:0:0:
341,335,205581,2,0,B|295:327|295:327|197:347,1,140.625
171,353,205906,1,0,0:0:0:0:
255,105,206068,2,0,L|278:208,1,93.75
237,34,206392,5,0,0:0:0:0:
450,99,206554,1,0,0:0:0:0:
348,42,206716,5,0,0:0:0:0:
505,195,206879,2,0,P|501:266|486:309,1,93.75
488,299,207122,1,0,0:0:0:0:
481,310,207203,1,0,0:0:0:0:
267,189,207365,2,0,L|434:196,1,140.625
427,214,207689,6,0,L|333:209,1,93.75
85,214,208014,2,0,L|178:209,1,93.75
434,337,208338,6,0,P|384:282|377:245,1,93.75
178,99,208662,2,0,P|187:145|183:192,1,93.75
328,192,208987,6,0,P|325:136|344:75,1,93.75
132,264,209311,2,0,P|113:307|78:337,1,93.75
351,75,209635,6,0,P|403:70|480:80,1,93.75
161,75,209960,2,0,P|109:70|32:80,1,93.75
57,208,210284,5,0,0:0:0:0:
77,337,210446,1,0,0:0:0:0:
209,158,210608,5,0,0:0:0:0:
132,264,210770,1,0,0:0:0:0:
256,60,210933,5,0,0:0:0:0:
128,112,211095,1,0,0:0:0:0:
384,112,211257,5,0,0:0:0:0:
256,60,211419,1,0,0:0:0:0:
380,264,211582,5,0,0:0:0:0:
303,158,211744,1,0,0:0:0:0:
435,337,211906,5,0,0:0:0:0:
455,208,212068,1,0,0:0:0:0:
255,375,212230,5,0,0:0:0:0:
242,341,212311,1,0,0:0:0:0:
238,303,212392,1,0,0:0:0:0:
242,266,212473,1,0,0:0:0:0:
256,231,212554,2,0,P|268:191|259:150,1,84.3750032186509
254,142,212879,6,0,P|246:71|309:41,1,150
486,116,213527,2,0,P|417:139|336:117,1,150
207,56,214014,1,0,0:0:0:0:
499,107,214176,6,0,L|489:263,1,150
489,256,214825,2,0,L|385:244,1,75
156,233,215149,2,0,L|260:230,1,75
357,168,215473,6,0,B|319:233|319:233|340:304,1,150
340,304,216122,2,0,P|303:297|266:304,1,75
149,345,216446,2,0,P|112:351|75:344,1,75
189,136,216770,6,0,P|215:216|187:276,1,150
35,144,217419,2,0,L|120:121,1,75
271,133,217743,2,0,L|342:159,1,75
211,0,218068,6,0,P|183:38|194:146,1,150
188,136,218716,2,0,L|167:218,1,75
342,159,219041,2,0,L|342:240,1,75
271,104,219365,5,0,0:0:0:0:
428,194,219689,1,0,0:0:0:0:
338,351,220014,5,0,0:0:0:0:
185,269,220338,2,0,P|233:262|287:274,1,75
259,265,220581,1,0,0:0:0:0:
259,265,220662,6,0,P|296:267|333:261,1,75
257,80,220987,2,0,P|251:128|259:176,1,75
366,243,221311,6,0,P|374:198|367:142,1,75
139,168,221635,2,0,P|138:206|146:243,1,75
357,268,221960,6,0,L|447:254,1,75
143,148,222284,2,0,L|53:162,1,75
449,251,222608,6,0,P|454:202|446:156,1,75
51,164,222933,2,0,P|46:213|54:259,1,75
369,148,223257,6,0,L|275:142,1,75
218,272,223581,2,0,L|314:272,1,75
294,5,223906,6,0,L|198:5,1,75
143,148,224230,2,0,L|237:142,1,75
431,89,224554,5,0,0:0:0:0:
388,283,224716,1,0,0:0:0:0:
342,78,224879,5,0,0:0:0:0:
503,197,225041,1,0,0:0:0:0:
256,248,225203,5,0,0:0:0:0:
256,45,225365,1,0,0:0:0:0:
344,196,225527,5,0,0:0:0:0:
168,196,225689,1,0,0:0:0:0:
256,45,225852,5,0,0:0:0:0:
256,248,226014,1,0,0:0:0:0:
9,197,226176,5,0,0:0:0:0:
170,78,226338,1,0,0:0:0:0:
124,283,226500,5,0,0:0:0:0:
102,265,226581,1,0,0:0:0:0:
95,238,226662,1,0,0:0:0:0:
106,212,226743,1,0,0:0:0:0:
129,198,226824,1,0,0:0:0:0:
157,199,226905,1,0,0:0:0:0:
178,217,226986,1,0,0:0:0:0:
185,244,227067,1,0,0:0:0:0:
175,269,227149,6,0,P|171:314|180:346,3,75
178,342,228446,5,0,0:0:0:0:
