osu file format v14

[General]
AudioFilename: audio.mp3
AudioLeadIn: 0
PreviewTime: -1
Countdown: 0
SampleSet: Soft
StackLeniency: 0.2
Mode: 0
LetterboxInBreaks: 0
WidescreenStoryboard: 0

[Editor]
DistanceSpacing: 0.6
BeatDivisor: 16
GridSize: 8
TimelineZoom: 1.9

[Metadata]
Title:Caring Dance
TitleUnicode:Caring Dance
Artist:nekomata master
ArtistUnicode:nekomata master
Creator:Ayachi Meme
Version:hidesu username : suzuki
Source:
Tags:
BeatmapID:1467256
BeatmapSetID:693434

[Difficulty]
HPDrainRate:6
CircleSize:4.5
OverallDifficulty:8
ApproachRate:9.2
SliderMultiplier:2.5
SliderTickRate:1

[Events]
//Background and Video events
0,0,"dd6ab1d0ced6cb3a6f5dce87f3e44253.jpg",0,0
//Break Periods
//Storyboard Layer 0 (Background)
//Storyboard Layer 1 (Fail)
//Storyboard Layer 2 (Pass)
//Storyboard Layer 3 (Foreground)
//Storyboard Sound Samples

[TimingPoints]
668,594.059405940594,4,2,0,20,1,0
668,-133.333333333333,4,2,0,20,0,0
9875,-111.111111111111,4,2,0,20,0,0
27400,-100,4,2,0,20,0,0
27994,-90.9090909090909,4,2,0,20,0,0
28588,-83.3333333333333,4,2,0,20,0,0
29479,-100,4,2,0,20,0,0
39578,-133.333333333333,4,2,0,20,0,0
49083,-111.111111111111,4,2,0,20,0,0
58291,-133.333333333333,4,2,0,20,0,0
65420,-142.857142857143,4,2,0,20,0,0
70172,-133.333333333333,4,2,0,20,0,0
74925,-142.857142857143,4,2,0,20,0,0
75519,-142.857142857143,4,2,0,5,0,0
77895,-100,4,2,0,20,0,0
116806,-50,4,2,0,20,0,0

[HitObjects]
28,68,370,5,0,0:0:0:0:
36,20,519,1,0,0:0:0:0:
112,80,668,6,0,P|184:116|216:120,1,93.7500035762789
264,32,1113,2,0,L|272:80,1,46.8750017881394
292,168,1410,1,0,0:0:0:0:
364,228,1559,1,0,0:0:0:0:
248,320,1707,1,0,0:0:0:0:
92,320,1856,6,0,L|104:224,1,93.7500035762789
240,200,2301,2,0,P|196:188|184:176,1,46.8750017881394
144,68,2747,1,0,0:0:0:0:
432,164,3044,6,0,P|392:176|332:176,1,93.7500035762789
276,76,3489,1,0,0:0:0:0:
216,196,3638,2,0,P|260:212|272:212,1,46.8750017881394
176,92,3935,2,0,P|155:81|132:76,1,46.8750017881394
72,224,4232,6,0,L|80:288,2,46.8750017881394
232,184,4826,2,0,P|296:184|336:168,1,93.7500035762789
416,16,5271,5,0,0:0:0:0:
392,168,5420,2,0,L|384:228,2,46.8750017881394
280,104,5866,1,0,0:0:0:0:
180,180,6014,2,0,P|208:204|228:212,1,46.8750017881394
372,176,6311,2,0,L|380:128,2,46.8750017881394
136,132,6905,5,0,0:0:0:0:
64,148,7054,1,0,0:0:0:0:
160,236,7202,2,0,P|180:280|180:332,1,93.7500035762788
76,304,7648,5,0,0:0:0:0:
248,220,7796,2,0,P|300:228|340:220,1,93.7500035762789
336,0,8242,1,0,0:0:0:0:
224,52,8390,2,8,P|255:94|289:117,2,93.7500035762789
256,192,9021,12,0,9578,0:0:0:0:
56,168,9875,6,0,P|104:152|120:140,1,56.2499982833863
176,240,10172,2,0,P|228:272|288:264,1,112.499996566773
452,192,10618,1,0,0:0:0:0:
352,168,10767,2,0,P|320:180|284:180,1,56.2499982833863
184,176,11064,5,0,0:0:0:0:
224,124,11212,1,0,0:0:0:0:
140,48,11361,1,0,0:0:0:0:
56,236,11658,5,0,0:0:0:0:
172,240,11806,1,0,0:0:0:0:
184,176,11955,1,0,0:0:0:0:
392,261,12252,6,0,P|339:276|288:256,1,112.499996566773
408,136,12846,1,0,0:0:0:0:
412,184,12994,1,0,0:0:0:0:
316,136,13143,2,0,P|272:108|248:104,1,56.2499982833863
192,184,13440,5,0,0:0:0:0:
152,112,13588,1,0,0:0:0:0:
328,216,13737,2,0,P|284:256|256:256,1,56.2499982833863
132,284,14034,2,0,P|146:260|170:245,1,56.2499982833863
344,348,14331,2,0,P|284:364|228:344,1,112.499996566773
228,240,14776,5,0,0:0:0:0:
316,176,14925,2,0,L|355:63,1,112.499996566773
220,48,15370,2,0,L|240:108,1,56.2499982833863
316,176,15668,1,0,0:0:0:0:
308,284,15816,5,0,0:0:0:0:
248,316,15965,1,0,0:0:0:0:
256,200,16113,2,0,P|280:144|272:92,1,112.499996566773
192,136,16559,1,0,0:0:0:0:
88,56,16707,2,0,L|208:56,1,112.499996566773
404,168,17153,6,0,L|396:184,4,14.0624995708466
332,148,17450,1,0,0:0:0:0:
272,188,17598,1,0,0:0:0:0:
244,256,17747,1,0,0:0:0:0:
180,292,17895,1,0,0:0:0:0:
116,256,18044,1,0,0:0:0:0:
84,192,18192,1,0,0:0:0:0:
220,96,18341,1,0,0:0:0:0:
244,256,18489,5,0,0:0:0:0:
400,39,18786,1,0,0:0:0:0:
446,331,19083,1,0,0:0:0:0:
424,252,19232,5,0,0:0:0:0:
456,180,19380,1,0,0:0:0:0:
404,116,19529,1,0,0:0:0:0:
400,39,19677,1,0,0:0:0:0:
248,96,19974,6,0,P|188:112|176:108,1,56.2499982833863
108,44,20271,1,0,0:0:0:0:
160,220,20568,6,0,L|216:212,1,56.2499982833863
348,192,20866,1,0,0:0:0:0:
272,280,21014,1,0,0:0:0:0:
320,176,21163,1,0,0:0:0:0:
304,304,21311,1,0,0:0:0:0:
292,160,21460,2,0,P|264:128|252:104,1,56.2499982833863
156,232,21757,2,0,P|175:211|190:188,1,56.2499982833863
188,68,22054,1,0,0:0:0:0:
216,40,22351,5,0,0:0:0:0:
328,84,22499,2,0,P|288:112|264:124,1,56.2499982833863
328,284,22945,5,0,0:0:0:0:
368,296,23093,1,0,0:0:0:0:
232,244,23242,2,0,P|184:224|176:216,1,56.2499982833863
376,232,23539,2,0,P|403:238|426:254,1,56.2499982833863
172,340,23836,2,0,L|204:288,1,56.2499982833863
244,224,24133,2,0,L|276:172,1,56.2499982833863
336,72,24430,1,0,0:0:0:0:
84,176,24727,6,0,P|136:184|160:180,1,56.2499982833863
264,172,25024,1,0,0:0:0:0:
280,192,25321,5,0,0:0:0:0:
280,64,25469,2,0,P|240:72|212:92,1,56.2499982833863
132,220,25767,2,0,P|159:216|185:204,1,56.2499982833863
72,152,26064,1,0,0:0:0:0:
64,248,26212,1,0,0:0:0:0:
216,232,26361,1,0,0:0:0:0:
372,324,26509,1,0,0:0:0:0:
504,168,26658,1,0,0:0:0:0:
280,32,26806,6,0,P|256:72|228:32,1,112.499996566773
104,116,27252,1,0,0:0:0:0:
104,116,27400,6,0,P|82:57|75:120,1,125
152,264,27846,1,0,0:0:0:0:
152,264,27994,6,0,P|200:236|176:272,1,137.500004196167
368,224,28440,1,0,0:0:0:0:
368,224,28588,6,0,P|428:252|418:190,2,149.999995422363
160,124,29479,5,0,0:0:0:0:
96,160,29628,1,0,0:0:0:0:
252,172,29776,2,0,P|288:136|272:48,1,125
408,60,30222,1,0,0:0:0:0:
400,136,30370,1,0,0:0:0:0:
476,184,30519,1,0,0:0:0:0:
400,312,30668,1,0,0:0:0:0:
476,264,30817,1,0,0:0:0:0:
320,352,30965,6,0,P|344:292|256:296,1,125
172,320,31410,1,0,0:0:0:0:
48,316,31559,6,0,P|84:288|92:272,1,62.5
124,144,31856,2,8,P|122:189|129:205,1,62.5
256,252,32153,2,0,P|216:216|280:204,1,125
416,216,32598,1,0,0:0:0:0:
360,328,32747,6,0,P|324:284|308:276,1,62.5
172,248,33044,2,0,P|228:248|245:241,1,62.5,0|0,3:0|3:0,3:0:0:0:
128,124,33341,2,0,P|88:160|-12:144,1,125
376,264,33935,6,0,P|320:276|284:260,1,62.5
408,144,34232,1,0,0:0:0:0:
488,132,34380,1,0,0:0:0:0:
264,76,34529,2,0,P|260:119|315:80,1,125,0|0,3:0|3:0,3:0:0:0:
160,52,34974,1,0,0:0:0:0:
68,248,35123,6,0,B|84:220|84:220|128:216,1,62.5
204,112,35420,2,0,B|215:142|215:142|189:178,1,62.5,0|0,3:0|3:0,3:0:0:0:
32,32,35717,2,0,L|212:32,1,125
320,32,36163,1,0,0:0:0:0:
320,160,36311,6,0,L|320:244,1,62.5
96,224,36608,2,0,L|96:140,1,62.5
320,160,36905,2,0,L|320:320,1,125
192,352,37351,5,0,0:0:0:0:
192,256,37499,1,0,0:0:0:0:
96,256,37648,1,0,0:0:0:0:
96,160,37796,1,0,0:0:0:0:
192,160,37945,5,0,0:0:0:0:
288,160,38093,1,0,0:0:0:0:
384,160,38242,1,0,0:0:0:0:
384,320,38390,5,0,0:0:0:0:
360,88,39281,5,0,0:0:0:0:
320,172,39578,2,0,P|280:136|264:88,2,93.7500035762789
416,168,40469,2,0,B|376:200|376:200|364:228|364:228|340:244|336:268|336:268|308:292|308:292|296:320|268:336,2,187.500007152558
128,144,41955,6,0,B|152:156|152:156|200:144|240:168,2,93.7500035762788
256,236,42846,2,0,P|300:200|312:160,1,93.7500035762789
328,64,43440,2,0,L|328:264,1,187.500007152558
140,208,44331,6,0,P|144:236|196:204,1,93.7500035762788
212,80,44925,2,0,P|256:96|312:64,2,93.7500035762788
80,172,45816,2,0,B|124:184|124:184|192:164,1,93.7500035762788
341,170,46410,2,0,B|388:184|388:184|432:172,1,93.7500035762788
256,64,47004,2,0,L|256:260,1,187.500007152558
88,264,47895,6,0,P|128:256|156:240,1,46.8750017881394
248,188,48192,1,0,0:0:0:0:
112,148,48341,1,0,0:0:0:0:
200,100,48489,1,0,0:0:0:0:
184,72,48638,1,0,0:0:0:0:
220,0,48786,1,0,0:0:0:0:
216,252,49083,6,0,L|168:284,1,56.2499982833863
304,252,49380,2,0,P|276:192|212:160,1,112.499996566773
140,192,49826,1,0,0:0:0:0:
112,352,49974,2,0,P|140:368|184:368,1,56.2499982833863
340,300,50271,2,0,P|316:285|288:280,1,56.2499982833863
188,184,50568,1,0,0:0:0:0:
216,48,50717,1,0,0:0:0:0:
88,104,50866,2,0,P|136:112|184:104,1,56.2499982833863
352,112,51163,6,0,P|288:136|252:204,1,112.499996566773
304,340,51608,1,0,0:0:0:0:
384,256,51757,2,0,L|324:180,1,56.2499982833863
261,114,52054,2,0,P|265:154|245:198,1,56.2499982833863
168,252,52351,1,0,0:0:0:0:
36,260,52499,1,0,0:0:0:0:
136,384,52648,2,0,P|112:340|112:316,1,56.2499982833863
80,128,52945,2,0,P|152:156|220:140,1,112.499996566773
224,24,53390,2,0,L|240:80,1,56.2499982833863
312,320,53836,6,0,P|360:284|368:264,1,56.2499982833863
384,128,54133,2,0,P|358:139|338:159,1,56.2499982833863
232,272,54430,1,0,0:0:0:0:
256,196,54578,1,0,0:0:0:0:
108,212,54727,6,0,L|76:264,1,56.2499982833863
224,108,55024,2,0,L|253:60,1,56.2499982833863
168,276,55321,1,0,0:0:0:0:
136,280,55469,1,0,0:0:0:0:
224,108,55618,2,0,L|253:60,1,56.2499982833863
196,216,55915,2,0,P|256:216|304:192,1,112.499996566773
256,192,56509,12,0,57697,0:0:0:0:
140,204,58291,6,0,B|182:206|182:206|215:191|246:207|246:207|283:191|283:191|329:205,1,187.500007152558,0|0,3:0|0:0,0:0:0:0:
416,272,59479,2,0,B|388:292|360:276|360:276|320:288|284:276|284:276|196:292,1,187.500007152558
24,280,60667,6,0,B|40:272|40:272|40:256|40:256|56:264|56:264|56:248|88:188|156:164|192:188,1,187.500007152558
224,104,61559,1,0,0:0:0:0:
372,156,61856,2,0,B|360:160|360:160|360:152|360:152|308:168|308:168|256:144|196:164,1,187.500007152558
432,320,63044,6,0,B|416:300|416:300|436:256|404:232|432:204|432:204|416:168|416:168|444:112,1,187.500007152558
232,308,63935,1,0,0:0:0:0:
340,36,64232,2,0,B|324:60|324:60|340:88|340:88|316:112|344:136|324:168|324:168|344:192|324:220,1,187.500007152558
140,240,65420,6,0,B|141:174|174:148|217:148|244:55|168:-12|97:51|97:51|12:3|-52:88|-10:177|42:180|90:192|136:222|84:332,1,699.999978637696,12|8,0:1|0:0,0:0:0:0:
444,180,68390,5,0,0:0:0:0:
340,96,68984,1,0,0:0:0:0:
288,167,69578,1,0,0:0:0:0:
292,220,70172,2,0,P|176:204|148:120,1,187.500007152558
76,216,71064,1,0,0:0:0:0:
244,136,71361,6,0,P|334:133|387:206,1,187.500007152558
140,272,72549,6,0,P|229:285|291:219,1,187.500007152558,0|0,3:0|3:0,3:0:0:0:
316,76,73440,1,0,0:0:0:0:
280,200,73737,2,0,L|368:232,1,93.7500035762788
176,168,74331,2,0,L|215:252,1,93.7500035762788,0|0,3:0|3:0,3:0:0:0:
372,240,74925,6,0,B|371:174|338:148|295:148|268:55|344:-12|415:51|415:51|500:3|564:88|522:177|470:180|422:192|376:222|428:332,1,699.999978637696,12|8,0:1|0:0,0:0:0:0:
220,56,77895,5,0,0:0:0:0:
376,148,78192,1,0,0:0:0:0:
176,288,78489,6,0,P|220:252|216:200,1,62.5
200,112,78786,2,0,P|199:168|241:199,1,62.5,0|0,3:0|3:0,3:0:0:0:
352,192,79083,5,0,0:0:0:0:
284,232,79232,1,0,0:0:0:0:
356,96,79380,1,0,0:0:0:0:
464,140,79529,1,0,0:0:0:0:
372,328,79677,5,0,0:0:0:0:
168,220,79974,1,0,0:0:0:0:
256,180,80123,1,0,0:0:0:0:
40,132,80271,2,0,P|92:148|168:132,1,125
216,56,80717,1,0,0:0:0:0:
268,136,80866,6,0,P|312:148|360:136,1,62.5
456,232,81163,2,0,P|412:244|364:232,1,62.5
232,216,81460,1,0,0:0:0:0:
292,292,81608,1,0,0:0:0:0:
332,88,81757,1,0,0:0:0:0:
132,156,81905,1,0,0:0:0:0:
88,348,82054,2,0,L|164:324,1,62.5
412,232,82351,2,0,P|336:260|264:232,1,125
200,96,82945,5,0,0:0:0:0:
268,40,83093,1,0,0:0:0:0:
104,188,83242,2,0,P|156:220|200:224,1,62.5
288,116,83539,5,0,0:0:0:0:
236,220,83687,1,0,0:0:0:0:
372,104,83836,1,0,0:0:0:0:
392,268,83984,1,0,0:0:0:0:
172,312,84133,5,0,0:0:0:0:
308,280,84281,1,0,0:0:0:0:
108,264,84430,1,0,0:0:0:0:
356,156,84727,5,0,0:0:0:0:
220,124,84875,1,0,0:0:0:0:
420,108,85024,1,0,0:0:0:0:
80,88,85321,1,0,0:0:0:0:
236,224,85469,6,0,P|252:244|284:244,2,31.25
135,300,85767,1,0,3:0:0:0:
115,111,85915,1,0,3:0:0:0:
95,208,86064,1,0,3:0:0:0:
190,44,86212,5,0,3:0:0:0:
115,111,86361,1,0,3:0:0:0:
289,33,86509,1,0,3:0:0:0:
190,44,86658,1,0,3:0:0:0:
376,83,86806,5,0,3:0:0:0:
289,33,86955,1,0,3:0:0:0:
416,175,87103,1,0,3:0:0:0:
376,83,87252,1,0,3:0:0:0:
396,272,87400,5,0,3:0:0:0:
416,175,87549,1,0,3:0:0:0:
321,339,87697,1,0,3:0:0:0:
396,272,87846,1,0,3:0:0:0:
222,350,87994,5,0,3:0:0:0:
200,312,88143,1,0,0:0:0:0:
272,224,88291,1,0,0:0:0:0:
160,128,88440,1,0,0:0:0:0:
252,20,88588,5,0,0:0:0:0:
264,120,88737,1,0,0:0:0:0:
272,188,88885,1,0,0:0:0:0:
280,236,89034,1,0,0:0:0:0:
284,272,89182,1,0,0:0:0:0:
286,284,89479,5,0,0:0:0:0:
386,236,89627,1,0,0:0:0:0:
130,228,89776,1,0,0:0:0:0:
360,148,90073,6,0,P|328:136|304:104,1,62.5
172,80,90370,2,0,P|201:63|241:65,1,62.5,0|0,3:0|3:0,3:0:0:0:
280,200,90668,1,0,0:0:0:0:
136,124,90816,1,0,0:0:0:0:
344,124,90965,5,0,0:0:0:0:
340,276,91113,1,0,0:0:0:0:
176,232,91262,1,0,0:0:0:0:
248,100,91410,1,0,0:0:0:0:
256,312,91559,5,0,0:0:0:0:
248,328,91707,1,0,0:0:0:0:
328,184,91856,1,0,0:0:0:0:
76,152,92153,1,0,0:0:0:0:
344,268,92450,5,0,0:0:0:0:
372,292,92598,1,0,0:0:0:0:
240,268,92747,2,0,P|196:220|196:184,1,62.5
76,184,93044,2,0,P|141:181|168:204,1,62.5
276,192,93341,5,0,0:0:0:0:
312,80,93489,1,0,0:0:0:0:
428,224,93638,1,0,0:0:0:0:
456,184,93786,1,0,0:0:0:0:
332,240,93935,5,0,0:0:0:0:
140,160,94232,1,0,0:0:0:0:
88,76,94380,1,0,0:0:0:0:
292,144,94529,1,0,0:0:0:0:
176,68,94826,6,0,P|228:88|280:76,1,62.5
368,60,95123,5,0,0:0:0:0:
400,244,95271,1,0,0:0:0:0:
288,88,95420,1,0,0:0:0:0:
312,236,95568,1,0,0:0:0:0:
212,120,95717,5,0,0:0:0:0:
228,232,95866,1,0,0:0:0:0:
136,160,96014,1,0,0:0:0:0:
152,224,96163,1,0,0:0:0:0:
48,200,96311,5,0,0:0:0:0:
38,177,96460,1,0,0:0:0:0:
61,167,96608,1,0,0:0:0:0:
70,190,96757,1,0,0:0:0:0:
28,200,96905,5,0,0:0:0:0:
37,156,97054,1,0,0:0:0:0:
80,166,97202,1,0,0:0:0:0:
70,209,97351,1,0,0:0:0:0:
1,73,97499,6,0,P|66:97|100:91,1,62.5
164,80,97796,2,0,P|190:63|220:56,1,62.5
379,99,98093,2,0,P|371:149|334:87,1,125
460,37,98539,1,0,0:0:0:0:
436,208,98687,1,0,0:0:0:0:
203,221,98984,5,0,0:0:0:0:
236,69,99133,1,0,0:0:0:0:
347,323,99281,1,0,0:0:0:0:
103,287,99578,5,0,0:0:0:0:
55,321,99727,1,0,0:0:0:0:
69,190,99875,2,0,P|142:190|222:261,1,125
256,96,100321,1,0,0:0:0:0:
443,190,100469,6,0,P|370:190|290:261,1,125
232,360,100915,1,0,0:0:0:0:
325,213,101064,6,0,P|357:149|349:125,1,62.5
187,213,101361,2,0,P|155:149|163:125,1,62.5
256,48,101658,1,0,0:0:0:0:
256,216,101806,1,0,0:0:0:0:
256,320,101955,1,0,0:0:0:0:
280,360,102103,1,0,0:0:0:0:
256,120,102252,5,0,0:0:0:0:
168,328,102400,1,0,0:0:0:0:
344,328,102549,1,0,0:0:0:0:
457,321,102697,1,0,0:0:0:0:
409,287,102846,1,0,0:0:0:0:
288,256,102994,5,0,0:0:0:0:
122,311,103143,1,0,0:0:0:0:
19,169,103292,1,0,0:0:0:0:
122,27,103440,1,0,0:0:0:0:
288,256,103737,5,0,0:0:0:0:
288,81,103885,1,0,0:0:0:0:
122,27,104034,1,0,0:0:0:0:
160,168,104331,5,0,0:0:0:0:
232,136,104479,1,0,0:0:0:0:
376,256,104628,6,0,P|360:328|296:264,1,187.5
136,256,105222,6,0,P|152:328|216:264,1,187.5
291,104,105816,6,0,P|351:52|376:128,1,187.5
220,104,106410,6,0,P|160:52|136:128,1,187.5
296,248,107004,5,0,0:0:0:0:
296,91,107153,1,0,0:0:0:0:
431,169,107301,1,0,0:0:0:0:
244,259,107450,5,0,3:0:0:0:
355,148,107599,1,0,3:0:0:0:
396,299,107747,1,0,3:0:0:0:
200,232,107895,5,0,3:0:0:0:
356,231,108044,1,0,3:0:0:0:
279,367,108192,1,0,3:0:0:0:
216,91,108489,5,0,0:0:0:0:
81,169,108638,1,0,0:0:0:0:
216,248,108786,1,0,0:0:0:0:
416,64,109083,5,0,0:0:0:0:
96,64,109232,1,0,0:0:0:0:
256,192,109380,5,0,0:0:0:0:
256,192,109418,12,0,110420,0:0:0:0:
256,192,110568,5,0,0:0:0:0:
256,192,110606,12,0,111014,0:0:0:0:
256,192,111163,5,0,0:0:0:0:
256,192,111200,12,0,111608,0:0:0:0:
144,128,111757,6,0,P|176:160|200:176,1,62.5
368,128,112054,2,0,P|336:160|312:176,1,62.5
176,48,112351,5,0,0:0:0:0:
296,96,112499,1,0,0:0:0:0:
240,208,112648,1,0,0:0:0:0:
272,272,112796,1,0,0:0:0:0:
248,320,112945,1,0,0:0:0:0:
240,208,113242,5,0,0:0:0:0:
272,272,113390,1,0,0:0:0:0:
248,320,113539,1,0,0:0:0:0:
296,96,113836,5,0,0:0:0:0:
240,208,113985,1,0,0:0:0:0:
272,272,114133,1,0,0:0:0:0:
296,96,114578,5,0,0:0:0:0:
240,208,114727,1,0,0:0:0:0:
176,48,115172,5,0,0:0:0:0:
296,96,115320,1,0,0:0:0:0:
176,48,115767,5,0,0:0:0:0:
248,320,115915,1,0,0:0:0:0:
424,120,116212,5,0,0:0:0:0:
424,120,116361,1,0,0:0:0:0:
304,152,116509,2,0,P|240:144|208:120,1,62.5
88,88,116806,2,0,P|119:89|149:81,2,62.5
112,240,117103,1,0,0:0:0:0:
208,312,117252,1,0,0:0:0:0:
304,312,117400,1,0,0:0:0:0:
368,280,117549,1,0,0:0:0:0:
376,40,117697,1,0,0:0:0:0:
376,40,117994,1,0,0:0:0:0:
72,232,118143,1,0,0:0:0:0:
480,344,118291,1,0,0:0:0:0:
