osu file format v14

[General]
AudioFilename: audio.mp3
AudioLeadIn: 0
PreviewTime: 63000
Countdown: 1
SampleSet: Soft
StackLeniency: 0.7
Mode: 0
LetterboxInBreaks: 0
WidescreenStoryboard: 0

[Editor]
Bookmarks: 86590
DistanceSpacing: 1
BeatDivisor: 4
GridSize: 4
TimelineZoom: 1

[Metadata]
Title:osu!stream theme
TitleUnicode:osu!stream theme
Artist:nekodex
ArtistUnicode:nekodex
Creator:Pereira006
Version:Normal
Source:osu!stream
Tags:Kuron-kun
BeatmapID:1108817
BeatmapSetID:469815

[Difficulty]
HPDrainRate:5
CircleSize:3.1
OverallDifficulty:4
ApproachRate:5
SliderMultiplier:1
SliderTickRate:1

[Events]
//Background and Video events
0,0,"bg.jpg",0,0
//Break Periods
//Storyboard Layer 0 (Background)
//Storyboard Layer 1 (Fail)
//Storyboard Layer 2 (Pass)
//Storyboard Layer 3 (Foreground)
//Storyboard Sound Samples

[TimingPoints]
10,375,4,2,1,60,1,0
60010,-100,4,2,1,50,0,0
63010,-100,4,2,1,60,0,1
74916,-100,4,2,1,60,0,0
75010,-100,4,2,1,60,0,1
87010,-100,4,2,1,50,0,0
102010,-100,4,2,1,10,0,0

[Colours]
Combo1 : 204,0,102
Combo2 : 191,191,0
Combo3 : 0,210,210
Combo4 : 96,0,191

[HitObjects]
48,88,3010,6,0,P|100:80|148:88,1,100,4|8,1:0|0:0,0:0:0:0:
231,139,3760,2,0,P|231:163|224:187,1,50,2|0,0:0|1:0,0:0:0:0:
205,234,4135,1,8,0:0:0:0:
128,292,4510,2,0,P|84:264|64:220,1,100,0|8,1:0|0:0,0:0:0:0:
84,128,5260,2,0,P|48:116|20:116,2,50,0|0|8,1:0|1:0|0:0,0:0:0:0:
172,176,6010,5,0,1:0:0:0:
256,120,6385,1,8,0:0:0:0:
354,100,6760,2,0,P|372:111|396:128,1,50,2|0,0:0|1:0,0:0:0:0:
434,159,7135,1,8,0:0:0:0:
464,252,7510,1,0,1:0:0:0:
388,316,7885,1,8,0:0:0:0:
304,264,8260,2,0,P|280:260|252:260,2,50,0|0|8,1:0|1:0|0:0,0:0:0:0:
272,360,9010,6,0,P|220:352|180:328,1,100,0|8,1:0|0:0,0:0:0:0:
127,242,9760,2,0,P|126:217|133:193,1,50,2|0,0:0|1:0,0:0:0:0:
153,147,10135,1,8,0:0:0:0:
252,140,10510,2,0,P|272:192|272:236,1,100,0|8,1:0|0:0,0:0:0:0:
264,336,11260,2,0,P|232:332|212:324,2,50,0|0|8,1:0|1:0|0:0,0:0:0:0:
356,296,12010,5,0,1:0:0:0:
452,316,12385,1,8,0:0:0:0:
489,223,12760,2,0,P|489:198|482:174,1,50,2|0,0:0|1:0,0:0:0:0:
463,128,13135,1,8,0:0:0:0:
384,72,13510,1,0,1:0:0:0:
292,112,13885,1,8,0:0:0:0:
208,60,14260,2,0,P|156:56|92:128,1,150,0|0,1:0|1:0,0:0:0:0:
112,168,15010,6,0,P|116:220|104:268,1,100,4|8,1:0|0:0,0:0:0:0:
161,348,15760,2,0,P|185:348|209:341,1,50,2|0,0:0|1:0,0:0:0:0:
256,322,16135,1,8,0:0:0:0:
355,347,16510,2,0,P|387:303|391:255,1,100,0|8,1:0|0:0,0:0:0:0:
380,160,17260,2,0,P|364:132|348:116,2,50,0|0|8,1:0|1:0|0:0,0:0:0:0:
288,200,18010,5,0,1:0:0:0:
212,264,18385,1,8,0:0:0:0:
112,273,18760,2,0,P|92:258|77:237,1,50,2|0,0:0|1:0,0:0:0:0:
54,194,19135,1,8,0:0:0:0:
20,96,19510,1,0,1:0:0:0:
100,36,19885,1,8,0:0:0:0:
200,20,20260,2,0,P|224:24|248:36,2,50,0|0|8,1:0|1:0|0:0,0:0:0:0:
184,120,21010,6,0,P|184:172|200:224,1,100,0|8,1:0|0:0,0:0:0:0:
295,238,21760,2,0,P|295:213|288:189,1,50,2|0,0:0|1:0,0:0:0:0:
269,143,22135,1,8,0:0:0:0:
256,52,22510,2,0,P|300:32|356:32,1,100,0|8,1:0|0:0,0:0:0:0:
452,32,23260,2,0,P|492:32|508:36,2,50,0|0|8,1:0|1:0|0:0,0:0:0:0:
424,124,24010,5,0,1:0:0:0:
464,216,24385,1,8,0:0:0:0:
434,311,24760,2,0,P|409:311|385:304,1,50,2|0,0:0|1:0,0:0:0:0:
339,285,25135,1,8,0:0:0:0:
272,212,25510,1,0,1:0:0:0:
248,116,25885,1,8,0:0:0:0:
160,72,26260,2,0,L|112:48,1,50,0|0,1:0|1:0,0:0:0:0:
64,56,26635,2,0,L|16:80,1,50,0|0,1:0|1:0,0:0:0:0:
12,128,27010,5,4,1:0:0:0:
16,228,27385,2,0,P|36:276|72:308,1,100,8|2,0:0|0:0,0:0:0:0:
120,308,27947,2,0,P|156:308|172:304,1,50,0|8,1:0|0:0,0:0:0:0:
224,220,28510,1,0,1:0:0:0:
180,128,28885,1,8,0:0:0:0:
171,28,29260,2,0,P|196:24|222:27,1,50,0|0,1:0|1:0,0:0:0:0:
269,35,29635,1,8,0:0:0:0:
364,60,30010,5,0,1:0:0:0:
436,132,30385,2,0,P|459:179|462:228,1,100,8|2,0:0|0:0,0:0:0:0:
447,273,30947,2,0,P|431:293|409:306,1,50,0|8,1:0|0:0,0:0:0:0:
308,312,31510,1,0,1:0:0:0:
216,268,31885,1,8,0:0:0:0:
126,313,32260,2,0,P|103:300|85:282,1,50,0|0,1:0|1:0,0:0:0:0:
53,247,32635,1,8,0:0:0:0:
52,144,33010,6,0,P|100:124|148:124,1,100,0|8,1:0|0:0,0:0:0:0:
209,202,33760,2,0,P|225:183|237:161,1,50,2|0,0:0|1:0,0:0:0:0:
256,115,34135,1,8,0:0:0:0:
272,16,34510,2,0,P|212:16|168:32,1,100,0|8,1:0|0:0,0:0:0:0:
96,92,35260,2,0,L|48:72,2,50,0|0|8,1:0|1:0|0:0,0:0:0:0:
196,108,36010,6,0,P|245:109|291:129,1,100,0|8,1:0|0:0,0:0:0:0:
340,216,36760,2,0,P|348:240|348:268,1,50,2|0,0:0|1:0,0:0:0:0:
340,312,37135,1,8,0:0:0:0:
244,344,37510,1,0,1:0:0:0:
156,300,37885,1,8,0:0:0:0:
57,284,38260,2,0,P|59:328|73:362,2,75,0|0|0,1:0|1:0|0:0,0:0:0:0:
52,234,39010,5,4,1:0:0:0:
52,134,39385,2,0,P|105:131|150:153,1,100,8|2,0:0|0:0,0:0:0:0:
171,193,39947,2,0,L|197:237,1,50,0|8,1:0|0:0,0:0:0:0:
285,282,40510,1,0,1:0:0:0:
336,195,40885,1,8,0:0:0:0:
416,254,41260,2,0,P|433:235|444:213,1,50,0|0,1:0|1:0,0:0:0:0:
464,170,41635,1,8,0:0:0:0:
416,84,42010,5,0,1:0:0:0:
324,44,42385,2,0,P|272:44|224:64,1,100,8|2,0:0|0:0,0:0:0:0:
196,100,42947,2,0,P|184:124|184:148,1,50,0|8,1:0|0:0,0:0:0:0:
236,232,43510,1,0,1:0:0:0:
192,324,43885,1,8,0:0:0:0:
92,317,44260,2,0,P|75:297|64:273,1,50,0|0,1:0|1:0,0:0:0:0:
47,229,44635,1,8,0:0:0:0:
44,128,45010,6,0,P|80:88|128:72,1,100,0|8,1:0|0:0,0:0:0:0:
221,59,45760,2,0,P|246:59|271:67,1,50,2|0,0:0|1:0,0:0:0:0:
316,84,46135,1,8,0:0:0:0:
276,176,46510,2,0,P|276:228|292:272,1,100,0|8,1:0|0:0,0:0:0:0:
380,320,47260,2,0,P|408:324|432:324,2,50,0|0|8,1:0|1:0|0:0,0:0:0:0:
436,236,48010,5,0,1:0:0:0:
368,164,48385,1,0,1:0:0:0:
436,88,48760,1,0,1:0:0:0:
360,24,49135,1,0,1:0:0:0:
276,76,49510,2,0,L|232:52,1,50,0|0,1:0|1:0,0:0:0:0:
184,60,49885,2,0,L|140:84,1,50,0|0,1:0|1:0,0:0:0:0:
104,116,50260,2,0,P|80:168|88:216,1,100,0|0,1:0|1:0,0:0:0:0:
132,296,51010,6,0,P|176:320|228:324,1,100,4|2,0:0|0:0,0:0:0:0:
324,299,51760,2,0,P|346:252|353:202,1,100,2|2,0:0|0:0,0:0:0:0:
348,154,52322,1,2,0:0:0:0:
314,116,52510,1,2,0:0:0:0:
216,93,52885,2,0,P|160:77|112:77,2,100,2|2|2,0:0|0:0|0:0,0:0:0:0:
268,180,54010,6,0,P|236:224|192:236,1,100,2|2,0:0|0:0,0:0:0:0:
92,236,54760,2,0,P|45:220|17:179,1,100,2|2,0:0|0:0,0:0:0:0:
44,84,55510,2,0,L|80:48,1,50,2|2,0:0|0:0,0:0:0:0:
128,48,55885,2,0,L|164:84,1,50,2|2,0:0|0:0,0:0:0:0:
200,120,56260,1,2,0:0:0:0:
268,48,56635,1,2,0:0:0:0:
368,60,57010,6,0,P|400:108|400:148,1,100,2|2,0:0|0:0,0:0:0:0:
382,247,57760,2,0,P|330:257|280:247,1,100,2|2,0:0|0:0,0:0:0:0:
236,233,58322,1,2,0:0:0:0:
192,208,58510,1,2,0:0:0:0:
146,119,58885,2,0,P|102:149|87:199,2,100,2|2|2,0:0|0:0|0:0,0:0:0:0:
240,144,60010,6,0,L|344:144,1,100,0|0,1:0|1:0,0:0:0:0:
376,236,60760,2,0,L|276:236,1,100,0|0,1:0|1:0,0:0:0:0:
176,236,61510,1,0,1:0:0:0:
80,212,61885,1,0,1:0:0:0:
112,116,62260,2,0,L|148:72,1,50,0|0,1:0|1:0,0:0:0:0:
192,80,62635,2,0,L|228:124,1,50,0|0,1:0|1:0,0:0:0:0:
272,112,63010,6,0,L|376:112,1,100,4|8,1:0|0:0,0:0:0:0:
464,152,63760,2,0,P|480:200|472:248,1,100,2|8,0:0|0:0,0:0:0:0:
432,276,64322,1,0,0:0:0:0:
384,284,64510,2,0,L|284:284,1,100,0|8,1:0|0:0,0:0:0:0:
184,272,65260,2,0,P|176:223|192:176,1,100,0|8,1:0|0:0,0:0:0:0:
168,80,66010,6,0,P|116:68|68:72,1,100,0|8,1:0|0:0,0:0:0:0:
16,156,66760,2,0,P|12:205|24:254,1,100,2|8,0:0|0:0,0:0:0:0:
108,308,67510,2,0,P|132:312|160:312,2,50,0|0|8,1:0|0:0|0:0,0:0:0:0:
116,208,68260,2,0,P|124:180|136:160,1,50,0|0,1:0|1:0,0:0:0:0:
172,136,68635,1,8,0:0:0:0:
272,132,69010,6,0,L|272:236,1,100,0|8,1:0|0:0,0:0:0:0:
352,292,69760,2,0,P|404:300|452:292,1,100,2|8,0:0|0:0,0:0:0:0:
480,252,70322,1,0,0:0:0:0:
492,204,70510,2,0,L|492:104,1,100,0|8,1:0|0:0,0:0:0:0:
440,20,71260,2,0,P|390:12|341:20,1,100,0|8,1:0|0:0,0:0:0:0:
268,88,72010,6,0,P|216:96|168:88,1,100,0|8,1:0|0:0,0:0:0:0:
168,188,72760,2,0,P|217:180|266:188,1,100,2|8,0:0|0:0,0:0:0:0:
284,236,73322,1,0,0:0:0:0:
272,284,73510,2,0,P|222:292|173:284,1,100,0|8,1:0|0:0,0:0:0:0:
85,237,74260,2,0,P|42:270|35:293,2,75,0|0|0,1:0|1:0|1:0,0:0:0:0:
120,201,75010,6,0,L|119:102,1,100,4|8,1:0|0:0,0:0:0:0:
208,55,75760,2,0,P|258:50|308:63,1,100,2|8,0:0|0:0,0:0:0:0:
355,65,76322,1,0,0:0:0:0:
403,85,76510,2,0,L|403:189,1,100,0|8,1:0|0:0,0:0:0:0:
393,284,77260,2,0,P|345:296|293:284,1,100,0|8,1:0|0:0,0:0:0:0:
268,188,78010,6,0,L|216:96,1,100,0|8,1:0|0:0,0:0:0:0:
128,140,78760,2,0,L|180:232,1,100,2|8,0:0|0:0,0:0:0:0:
216,320,79510,2,0,P|180:324|152:324,2,50,0|0|8,1:0|0:0|0:0,0:0:0:0:
300,264,80260,2,0,P|328:264|352:268,1,50,0|0,1:0|1:0,0:0:0:0:
392,292,80635,1,8,0:0:0:0:
456,216,81010,6,0,L|456:116,1,100,0|8,1:0|0:0,0:0:0:0:
384,48,81760,2,0,P|336:36|288:48,1,100,2|8,0:0|0:0,0:0:0:0:
256,88,82322,1,0,0:0:0:0:
256,140,82510,2,0,L|256:240,1,100,0|8,1:0|0:0,0:0:0:0:
212,328,83260,2,0,P|163:340|115:328,1,100,0|8,1:0|0:0,0:0:0:0:
68,240,84010,6,0,L|100:144,1,100,0|8,1:0|0:0,0:0:0:0:
200,144,84760,2,0,L|231:238,1,100,2|8,0:0|0:0,0:0:0:0:
280,248,85322,1,0,0:0:0:0:
328,236,85510,2,0,P|348:188|340:140,1,100,0|8,1:0|0:0,0:0:0:0:
272,68,86260,2,0,L|224:40,1,50,0|0,1:0|1:0,0:0:0:0:
180,48,86635,2,0,L|132:76,1,50,8|0,0:0|0:0,0:0:0:0:
96,100,87010,6,0,P|68:144|68:192,1,100,4|8,0:0|0:0,0:0:0:0:
100,284,87760,2,0,P|200:308|296:288,1,200,2|0,0:0|1:0,0:0:0:0:
320,192,88885,2,0,P|376:192|424:208,2,100,8|0|8,0:0|1:0|0:0,0:0:0:0:
220,212,90010,6,0,P|168:212|120:200,1,100,0|8,1:0|0:0,0:0:0:0:
120,100,90760,2,0,P|168:88|218:88,1,100,2|8,0:0|0:0,0:0:0:0:
320,84,91510,2,0,L|368:112,1,50,0|0,1:0|0:0,0:0:0:0:
384,156,91885,2,0,L|432:184,1,50,8|0,0:0|0:0,0:0:0:0:
460,220,92260,1,0,1:0:0:0:
424,312,92635,1,8,0:0:0:0:
332,348,93010,6,0,P|280:356|232:348,1,100,0|8,1:0|0:0,0:0:0:0:
152,288,93760,2,0,P|112:196|148:104,1,200,2|0,0:0|1:0,0:0:0:0:
244,96,94885,2,0,P|224:48|184:20,2,100,8|0|8,0:0|1:0|0:0,0:0:0:0:
248,196,96010,6,0,P|256:248|280:288,1,100,0|8,1:0|0:0,0:0:0:0:
380,292,96760,2,0,P|405:249|412:199,1,100,2|8,0:0|0:0,0:0:0:0:
400,152,97322,1,0,0:0:0:0:
376,108,97510,2,0,L|276:96,1,100,0|8,1:0|0:0,0:0:0:0:
176,100,98260,2,0,L|128:120,1,50,0|0,1:0|1:0,0:0:0:0:
128,168,98635,2,0,L|174:187,1,50,0|0,1:0|1:0,0:0:0:0:
220,208,99010,5,4,0:0:0:0:
256,192,99197,12,0,102010,0:0:0:0:
