osu file format v14

[General]
AudioFilename: audio.mp3
AudioLeadIn: 0
PreviewTime: 63000
Countdown: 1
SampleSet: Soft
StackLeniency: 0.7
Mode: 0
LetterboxInBreaks: 0
WidescreenStoryboard: 0

[Editor]
Bookmarks: 3000,14250,15000,25968,26250,27000,38250,39000,48000,51000,60000,63000,73125,74250,75000,87000,99000
DistanceSpacing: 0.6
BeatDivisor: 4
GridSize: 4
TimelineZoom: 1.7

[Metadata]
Title:osu!stream theme
TitleUnicode:osu!stream theme
Artist:nekodex
ArtistUnicode:nekodex
Creator:Pereira006
Version:Insane
Source:osu!stream
Tags:Kuron-kun
BeatmapID:1093095
BeatmapSetID:469815

[Difficulty]
HPDrainRate:7
CircleSize:4.2
OverallDifficulty:7
ApproachRate:8.5
SliderMultiplier:1.6
SliderTickRate:1

[Events]
//Background and Video events
0,0,"bg.jpg",0,0
//Break Periods
//Storyboard Layer 0 (Background)
//Storyboard Layer 1 (Fail)
//Storyboard Layer 2 (Pass)
//Storyboard Layer 3 (Foreground)
//Storyboard Sound Samples

[TimingPoints]
10,375,4,2,1,60,1,0
51010,-125,4,2,1,60,0,0
60010,-100,4,2,1,50,0,0
63010,-100,4,2,1,60,0,1
74916,-100,4,2,1,60,0,0
75010,-100,4,2,1,60,0,1
87010,-100,4,2,1,50,0,0
102010,-100,4,2,1,10,0,0

[Colours]
Combo1 : 204,0,102
Combo2 : 191,191,0
Combo3 : 0,210,210
Combo4 : 96,0,191

[HitObjects]
63,98,3010,6,0,P|104:92|144:104,1,80,4|0,1:0|0:0,0:0:0:0:
327,142,3385,2,0,P|264:198|192:187,1,160,8|2,0:0|0:0,0:0:0:0:
240,108,3947,1,0,1:0:0:0:
98,176,4135,2,0,P|100:216|120:252,1,80,8|0,0:0|0:0,0:0:0:0:
291,276,4510,6,0,P|251:279|212:276,1,80,0|0,1:0|0:0,0:0:0:0:
352,204,4885,2,0,P|376:236|384:276,1,80,8|0,0:0|0:0,0:0:0:0:
232,356,5260,1,0,1:0:0:0:
328,356,5447,1,0,1:0:0:0:
136,340,5635,2,0,P|112:308|104:268,1,80,8|0,0:0|0:0,0:0:0:0:
111,109,6010,6,0,P|135:141|144:180,1,80,0|0,1:0|0:0,0:0:0:0:
16,120,6385,2,0,P|52:40|120:16,1,160,8|2,0:0|0:0,0:0:0:0:
212,32,6947,1,0,1:0:0:0:
276,182,7135,2,0,P|283:142|276:104,1,80,8|0,0:0|0:0,0:0:0:0:
143,101,7510,6,0,P|136:139|143:179,1,80,0|0,1:0|0:0,0:0:0:0:
212,32,7885,2,0,P|252:20|292:20,1,80,8|0,0:0|0:0,0:0:0:0:
380,152,8260,1,0,1:0:0:0:
380,56,8447,1,0,1:0:0:0:
462,247,8635,2,0,P|423:255|384:248,1,80,8|0,0:0|0:0,0:0:0:0:
380,56,9010,6,0,P|419:48|458:56,1,80,0|0,1:0|0:0,0:0:0:0:
380,152,9385,2,0,B|302:123|302:180|225:152,1,160,8|2,0:0|0:0,0:0:0:0:
156,84,9947,1,0,1:0:0:0:
5,31,10135,2,0,P|44:19|84:20,1,80,8|0,0:0|0:0,0:0:0:0:
156,162,10510,6,0,P|163:122|156:84,1,80,0|0,1:0|0:0,0:0:0:0:
9,220,10885,2,0,P|48:232|88:232,1,80,8|0,0:0|0:0,0:0:0:0:
232,220,11260,1,0,1:0:0:0:
156,162,11447,1,0,1:0:0:0:
160,284,11635,2,0,P|160:324|176:360,1,80,8|0,0:0|0:0,0:0:0:0:
292,360,12010,6,0,P|308:323|308:283,1,80,0|0,1:0|0:0,0:0:0:0:
296,148,12385,2,0,P|216:124|156:164,1,160,8|2,0:0|0:0,0:0:0:0:
232,220,12947,1,0,1:0:0:0:
407,212,13135,2,0,P|367:220|328:220,1,80,8|0,0:0|0:0,0:0:0:0:
484,152,13510,6,0,P|500:188|500:228,1,80,0|0,1:0|0:0,0:0:0:0:
232,220,13885,2,0,P|232:181|249:144,1,80,8|0,0:0|0:0,0:0:0:0:
356,104,14260,6,0,P|336:64|304:48,1,80,0|0,1:0|0:0,0:0:0:0:
264,72,14541,2,0,L|184:72,1,80,0|0,1:0|1:0,0:0:0:0:
152,36,14822,1,0,1:0:0:0:
44,100,15010,6,0,P|32:140|37:180,1,80,4|0,1:0|0:0,0:0:0:0:
172,310,15385,2,0,P|94:338|31:303,1,160,8|2,0:0|0:0,0:0:0:0:
104,244,15947,1,0,1:0:0:0:
255,179,16135,2,0,P|215:176|176:180,1,80,8|0,0:0|0:0,0:0:0:0:
344,154,16510,6,0,P|347:194|336:232,1,80,0|0,1:0|0:0,0:0:0:0:
284,80,16885,2,0,P|244:76|204:80,1,80,8|0,0:0|0:0,0:0:0:0:
36,168,17260,1,0,1:0:0:0:
112,108,17447,1,0,1:0:0:0:
255,178,17635,2,0,P|215:182|176:179,1,80,8|0,0:0|0:0,0:0:0:0:
284,80,18010,6,0,P|323:76|363:79,1,80,0|0,1:0|0:0,0:0:0:0:
492,92,18385,2,0,P|523:157|495:238,1,160,8|2,0:0|0:0,0:0:0:0:
424,166,18947,1,0,1:0:0:0:
288,243,19135,2,0,P|328:247|368:244,1,80,8|0,0:0|0:0,0:0:0:0:
363,79,19510,6,0,P|323:76|284:80,1,80,0|0,1:0|0:0,0:0:0:0:
139,151,19885,2,0,P|178:154|218:151,1,80,8|0,0:0|0:0,0:0:0:0:
384,144,20260,1,0,1:0:0:0:
304,196,20447,1,0,1:0:0:0:
146,229,20635,2,0,P|135:191|139:152,1,80,8|0,0:0|0:0,0:0:0:0:
215,296,21010,6,0,P|188:324|151:339,1,80,0|0,1:0|0:0,0:0:0:0:
312,300,21385,2,0,P|400:328|468:304,1,160,8|2,0:0|0:0,0:0:0:0:
480,212,21947,1,0,1:0:0:0:
344,131,22135,2,0,P|384:128|424:132,1,80,8|0,0:0|0:0,0:0:0:0:
288,208,22510,6,0,P|264:176|252:136,1,80,0|0,1:0|0:0,0:0:0:0:
176,39,22885,2,0,P|216:36|256:40,1,80,8|0,0:0|0:0,0:0:0:0:
344,131,23260,1,0,1:0:0:0:
352,40,23447,1,0,1:0:0:0:
176,39,23635,2,0,P|136:44|101:61,1,80,8|0,0:0|0:0,0:0:0:0:
88,244,24010,6,0,P|122:262|162:266,1,80,0|0,1:0|0:0,0:0:0:0:
315,152,24385,2,0,B|237:123|237:180|160:152,1,160,8|2,0:0|0:0,0:0:0:0:
64,152,24947,1,0,1:0:0:0:
176,39,25135,2,0,P|216:32|256:36,1,80,8|0,0:0|0:0,0:0:0:0:
390,108,25510,6,0,P|351:115|312:112,1,80,0|0,1:0|0:0,0:0:0:0:
440,28,25885,2,0,P|468:56|488:96,1,80,8|0,0:0|0:0,0:0:0:0:
512,208,26260,5,0,1:0:0:0:
512,208,26353,1,0,1:0:0:0:
512,208,26447,1,0,1:0:0:0:
450,306,26635,1,0,1:0:0:0:
450,306,26728,1,0,1:0:0:0:
450,306,26822,1,0,1:0:0:0:
257,326,27010,6,0,P|296:331|335:324,1,80,4|0,1:0|0:0,0:0:0:0:
296,236,27385,1,8,0:0:0:0:
176,256,27572,1,0,0:0:0:0:
176,256,27666,1,0,0:0:0:0:
176,256,27760,2,0,P|112:204|108:128,1,160,2|8,0:0|0:0,0:0:0:0:
200,160,28322,1,0,0:0:0:0:
19,105,28510,6,0,P|16:144|24:184,1,80,0|0,1:0|0:0,0:0:0:0:
68,23,28885,2,0,P|107:19|146:27,1,80,8|0,0:0|0:0,0:0:0:0:
288,132,29260,1,0,1:0:0:0:
181,132,29447,1,0,1:0:0:0:
232,55,29635,1,8,0:0:0:0:
236,203,29822,1,0,0:0:0:0:
324,56,30010,6,0,P|356:84|370:121,1,80,0|0,1:0|0:0,0:0:0:0:
388,212,30385,1,8,0:0:0:0:
233,212,30572,1,0,0:0:0:0:
233,212,30666,1,0,0:0:0:0:
233,212,30760,2,0,B|310:240|310:183|388:212,1,160,2|8,0:0|0:0,0:0:0:0:
476,248,31322,1,0,0:0:0:0:
327,331,31510,6,0,P|291:349|252:350,1,80,0|0,1:0|0:0,0:0:0:0:
111,299,31885,2,0,P|147:281|187:280,1,80,8|0,0:0|0:0,0:0:0:0:
32,352,32260,1,0,1:0:0:0:
12,260,32447,1,0,1:0:0:0:
76,188,32635,1,8,0:0:0:0:
32,352,32822,1,0,0:0:0:0:
187,280,33010,6,0,P|227:272|267:280,1,80,0|0,1:0|0:0,0:0:0:0:
352,353,33385,1,8,0:0:0:0:
344,220,33572,1,0,0:0:0:0:
344,220,33666,1,0,0:0:0:0:
344,220,33760,2,0,P|320:144|248:104,1,160,2|8,0:0|0:0,0:0:0:0:
160,100,34322,1,0,0:0:0:0:
156,244,34510,6,0,P|151:283|159:322,1,80,0|0,1:0|0:0,0:0:0:0:
276,326,34885,2,0,P|283:286|279:247,1,80,8|0,0:0|0:0,0:0:0:0:
160,100,35260,1,0,1:0:0:0:
100,176,35447,1,0,1:0:0:0:
216,176,35635,1,8,0:0:0:0:
280,104,35822,1,0,0:0:0:0:
280,104,35916,1,0,0:0:0:0:
280,104,36010,6,0,P|318:121|346:155,1,80,0|0,1:0|0:0,0:0:0:0:
360,244,36385,1,8,0:0:0:0:
304,320,36572,1,0,0:0:0:0:
304,320,36666,1,0,0:0:0:0:
304,320,36760,1,2,0:0:0:0:
156,340,36947,1,0,1:0:0:0:
60,228,37135,1,8,0:0:0:0:
60,324,37322,1,0,0:0:0:0:
220,272,37510,6,0,P|236:232|236:196,1,80,0|0,1:0|0:0,0:0:0:0:
251,23,37885,2,0,P|236:60|236:100,1,80,8|0,0:0|0:0,0:0:0:0:
156,172,38260,5,0,1:0:0:0:
68,72,38447,1,0,1:0:0:0:
68,72,38541,1,0,1:0:0:0:
8,220,38728,1,0,1:0:0:0:
8,220,38822,1,0,1:0:0:0:
156,172,39010,6,0,P|196:180|240:176,1,80,4|0,1:0|0:0,0:0:0:0:
296,104,39385,1,8,0:0:0:0:
296,252,39572,1,0,0:0:0:0:
296,252,39666,1,0,0:0:0:0:
296,252,39760,2,0,P|216:272|140:260,1,160,2|8,0:0|0:0,0:0:0:0:
60,208,40322,1,0,0:0:0:0:
108,32,40510,6,0,P|68:36|32:56,1,80,0|0,1:0|0:0,0:0:0:0:
116,128,40885,2,0,P|156:124|192:104,1,80,8|0,0:0|0:0,0:0:0:0:
308,36,41260,1,0,1:0:0:0:
212,12,41447,1,0,1:0:0:0:
328,124,41635,1,8,0:0:0:0:
308,36,41822,1,0,0:0:0:0:
280,212,42010,6,0,P|241:219|202:216,1,80,0|0,1:0|0:0,0:0:0:0:
133,152,42385,1,8,0:0:0:0:
337,132,42572,1,0,0:0:0:0:
337,132,42666,1,0,0:0:0:0:
337,132,42760,2,0,P|381:204|361:280,1,160,2|8,0:0|0:0,0:0:0:0:
316,356,43322,1,0,0:0:0:0:
196,360,43510,6,0,P|164:336|148:296,1,80,0|0,1:0|0:0,0:0:0:0:
148,144,43885,2,0,P|180:167|196:204,1,80,8|0,0:0|0:0,0:0:0:0:
8,228,44260,1,0,1:0:0:0:
108,224,44447,1,0,1:0:0:0:
56,144,44635,1,8,0:0:0:0:
64,308,44822,1,0,0:0:0:0:
56,144,45010,6,0,P|72:112|108:80,1,80,0|0,1:0|0:0,0:0:0:0:
200,68,45385,1,8,0:0:0:0:
244,192,45572,1,0,0:0:0:0:
244,192,45666,1,0,0:0:0:0:
244,192,45760,2,0,P|323:200|386:141,1,160,2|8,0:0|0:0,0:0:0:0:
292,104,46322,1,0,0:0:0:0:
172,252,46510,6,0,P|128:260|88:252,1,80,0|0,1:0|0:0,0:0:0:0:
93,129,46885,2,0,P|133:124|172:132,1,80,8|0,0:0|0:0,0:0:0:0:
324,236,47260,1,0,1:0:0:0:
256,304,47447,1,0,1:0:0:0:
244,188,47635,1,8,0:0:0:0:
249,164,47728,1,0,0:0:0:0:
259,142,47822,1,0,0:0:0:0:
272,122,47916,1,0,0:0:0:0:
285,102,48010,5,0,1:0:0:0:
376,73,48385,1,0,1:0:0:0:
460,119,48760,1,0,1:0:0:0:
460,215,49135,1,0,1:0:0:0:
384,264,49510,5,0,1:0:0:0:
290,115,49697,1,0,1:0:0:0:
283,290,49885,1,0,1:0:0:0:
376,161,50072,1,0,1:0:0:0:
236,200,50260,5,0,1:0:0:0:
213,207,50353,1,0,1:0:0:0:
189,210,50447,1,0,1:0:0:0:
164,210,50541,1,0,1:0:0:0:
140,207,50635,1,0,1:0:0:0:
117,199,50728,1,0,1:0:0:0:
94,191,50822,1,0,1:0:0:0:
72,179,50916,1,0,1:0:0:0:
52,165,51010,5,4,0:0:0:0:
148,42,51385,1,2,0:0:0:0:
301,37,51760,1,2,0:0:0:0:
206,161,52135,1,2,0:0:0:0:
210,86,52322,1,2,0:0:0:0:
140,119,52510,5,2,0:0:0:0:
288,156,52885,1,2,0:0:0:0:
400,52,53260,1,2,0:0:0:0:
506,159,53635,1,2,0:0:0:0:
435,295,54010,5,2,0:0:0:0:
351,165,54385,1,2,0:0:0:0:
491,226,54760,1,2,0:0:0:0:
360,307,55135,1,2,0:0:0:0:
266,207,55510,5,2,0:0:0:0:
155,143,55697,1,2,0:0:0:0:
228,139,55885,1,2,0:0:0:0:
192,208,56072,1,2,0:0:0:0:
305,140,56260,2,0,P|284:76|232:56,1,128,2|2,0:0|0:0,0:0:0:0:
116,156,57010,5,2,0:0:0:0:
20,36,57385,1,2,0:0:0:0:
32,188,57760,1,2,0:0:0:0:
168,124,58135,1,2,0:0:0:0:
96,104,58322,1,2,0:0:0:0:
116,176,58510,5,2,0:0:0:0:
244,92,58885,1,2,0:0:0:0:
380,160,59260,1,2,0:0:0:0:
252,248,59635,1,2,0:0:0:0:
340,76,60010,5,0,1:0:0:0:
264,16,60385,1,0,1:0:0:0:
168,12,60760,1,0,1:0:0:0:
72,20,61135,1,0,1:0:0:0:
112,108,61322,1,0,0:0:0:0:
112,108,61510,5,0,1:0:0:0:
7,208,61697,1,0,1:0:0:0:
143,196,61885,1,0,1:0:0:0:
25,116,62072,1,0,1:0:0:0:
82,265,62260,5,0,1:0:0:0:
97,282,62353,1,0,1:0:0:0:
117,295,62447,1,0,1:0:0:0:
138,306,62541,1,0,1:0:0:0:
160,314,62635,1,0,1:0:0:0:
182,320,62728,1,0,1:0:0:0:
205,324,62822,1,0,1:0:0:0:
228,326,62916,1,0,1:0:0:0:
252,327,63010,6,0,P|292:332|336:319,1,80,4|0,1:0|0:0,0:0:0:0:
332,136,63385,2,0,P|292:124|252:129,1,80,8|0,0:0|0:0,0:0:0:0:
344,232,63760,2,0,B|422:203|422:260|499:232,1,160,2|8,0:0|0:0,0:0:0:0:
460,144,64322,1,0,0:0:0:0:
252,129,64510,6,0,P|213:121|174:128,1,80,0|0,1:0|0:0,0:0:0:0:
176,288,64885,2,0,P|215:296|255:290,1,80,8|0,0:0|0:0,0:0:0:0:
109,209,65260,2,0,P|70:138|88:65,1,160,0|8,1:0|0:0,0:0:0:0:
182,51,65822,1,0,0:0:0:0:
354,50,66010,6,0,L|276:36,1,80,0|0,1:0|0:0,0:0:0:0:
365,148,66385,2,0,L|443:134,1,80,8|0,0:0|0:0,0:0:0:0:
360,244,66760,2,0,L|282:230,1,80,2|0,0:0|1:0,0:0:0:0:
364,340,67135,2,0,L|442:326,1,80,8|0,0:0|0:0,0:0:0:0:
272,316,67510,5,0,1:0:0:0:
106,312,67697,1,0,0:0:0:0:
234,229,67885,1,8,0:0:0:0:
188,363,68072,1,0,0:0:0:0:
148,228,68260,2,0,L|95:161,2,80,0|0|8,1:0|1:0|0:0,0:0:0:0:
234,229,68822,1,0,0:0:0:0:
362,147,69010,6,0,P|322:140|284:148,1,80,0|0,1:0|0:0,0:0:0:0:
280,309,69385,2,0,P|320:314|359:307,1,80,8|0,0:0|0:0,0:0:0:0:
234,229,69760,2,0,P|190:161|213:85,1,160,2|8,0:0|0:0,0:0:0:0:
283,28,70322,1,0,0:0:0:0:
400,84,70510,6,0,L|372:160,1,80,0|0,1:0|0:0,0:0:0:0:
492,260,70885,2,0,L|464:184,1,80,8|0,0:0|0:0,0:0:0:0:
280,184,71260,2,0,L|220:332,1,160,0|8,1:0|0:0,0:0:0:0:
124,316,71822,1,0,0:0:0:0:
96,157,72010,6,0,P|80:193|80:233,1,80,0|0,1:0|0:0,0:0:0:0:
172,97,72385,2,0,P|140:69|96:61,1,80,8|0,0:0|0:0,0:0:0:0:
46,318,72760,2,0,P|85:325|124:317,1,80,2|0,0:0|1:0,0:0:0:0:
308,252,73135,1,8,0:0:0:0:
212,248,73322,1,0,0:0:0:0:
372,324,73510,6,0,P|400:296|412:256,1,80,0|0,1:0|0:0,0:0:0:0:
427,98,73885,2,0,P|399:126|388:164,1,80,8|0,0:0|0:0,0:0:0:0:
292,204,74260,5,0,1:0:0:0:
180,246,74447,1,0,1:0:0:0:
180,246,74541,1,0,1:0:0:0:
84,164,74728,1,0,1:0:0:0:
84,164,74822,1,0,1:0:0:0:
255,87,75010,6,0,P|219:71|179:68,1,80,4|0,1:0|0:0,0:0:0:0:
388,88,75385,2,0,P|424:71|464:68,1,80,8|0,0:0|0:0,0:0:0:0:
324,160,75760,2,0,B|295:238|352:238|324:315,1,160,2|8,0:0|0:0,0:0:0:0:
247,374,76322,1,0,0:0:0:0:
192,256,76510,6,0,L|164:180,1,80,0|0,1:0|0:0,0:0:0:0:
100,280,76885,2,0,L|72:356,1,80,8|0,0:0|0:0,0:0:0:0:
284,284,77260,2,0,L|344:136,1,160,0|8,1:0|0:0,0:0:0:0:
416,72,77822,1,0,0:0:0:0:
288,60,78010,6,0,P|249:66|218:91,1,80,0|0,1:0|0:0,0:0:0:0:
132,231,78385,2,0,P|171:223|202:198,1,80,8|0,0:0|0:0,0:0:0:0:
384,143,78760,2,0,P|345:149|314:174,1,80,2|0,0:0|1:0,0:0:0:0:
230,314,79135,2,0,P|269:306|300:281,1,80,8|0,0:0|0:0,0:0:0:0:
468,220,79510,5,0,1:0:0:0:
380,180,79697,1,0,0:0:0:0:
456,120,79885,1,8,0:0:0:0:
396,280,80072,1,0,0:0:0:0:
368,84,80260,2,0,P|392:48|432:28,2,80,0|0|8,1:0|1:0|0:0,0:0:0:0:
456,120,80822,1,0,0:0:0:0:
298,156,81010,6,0,P|259:163|220:156,1,80,0|0,1:0|0:0,0:0:0:0:
92,71,81385,2,0,P|132:64|172:72,1,80,8|0,0:0|0:0,0:0:0:0:
52,160,81760,2,0,P|44:240|88:320,1,160,2|8,0:0|0:0,0:0:0:0:
176,344,82322,1,0,0:0:0:0:
322,279,82510,6,0,P|283:271|244:276,1,80,0|0,1:0|0:0,0:0:0:0:
405,270,82885,2,0,P|399:311|373:346,1,80,8|0,0:0|0:0,0:0:0:0:
176,344,83260,2,0,P|148:268|184:192,1,160,0|8,1:0|0:0,0:0:0:0:
244,132,83822,1,0,0:0:0:0:
340,236,84010,6,0,P|380:240|424:232,1,80,0|0,1:0|0:0,0:0:0:0:
500,93,84385,2,0,P|504:132|496:172,1,80,8|0,0:0|0:0,0:0:0:0:
424,36,84760,2,0,P|384:28|344:32,1,80,2|0,0:0|1:0,0:0:0:0:
188,64,85135,1,8,0:0:0:0:
276,100,85322,1,0,0:0:0:0:
122,129,85510,6,0,P|82:131|44:120,1,80,0|0,1:0|0:0,0:0:0:0:
120,248,85885,2,0,P|80:248|41:259,1,80,8|0,0:0|0:0,0:0:0:0:
56,352,86260,1,0,1:0:0:0:
79,356,86353,1,0,0:0:0:0:
102,358,86447,1,0,1:0:0:0:
126,358,86541,1,0,0:0:0:0:
150,356,86635,1,8,0:0:0:0:
173,353,86728,1,0,0:0:0:0:
196,348,86822,1,0,0:0:0:0:
219,342,86916,1,0,0:0:0:0:
241,333,87010,6,0,P|279:318|302:287,1,80,4|0,0:0|0:0,0:0:0:0:
235,150,87385,2,0,P|272:164|296:196,1,80,8|0,0:0|0:0,0:0:0:0:
160,200,87760,2,0,P|80:208|8:172,1,160,2|8,0:0|0:0,0:0:0:0:
108,28,88510,6,0,P|152:24|188:32,1,80,0|0,1:0|0:0,0:0:0:0:
302,114,88885,2,0,P|263:119|224:111,1,80,8|0,0:0|0:0,0:0:0:0:
348,28,89260,2,0,P|400:84|384:168,1,160,0|8,1:0|0:0,0:0:0:0:
312,304,90010,5,0,1:0:0:0:
152,236,90385,1,8,0:0:0:0:
244,84,90760,1,2,0:0:0:0:
236,260,91135,1,8,0:0:0:0:
320,104,91510,5,0,1:0:0:0:
400,136,91697,1,0,0:0:0:0:
332,192,91885,1,8,0:0:0:0:
416,220,92072,1,0,0:0:0:0:
352,280,92260,2,0,P|388:304|424:308,2,80,0|0|8,1:0|1:0|0:0,0:0:0:0:
260,128,93010,6,0,P|220:120|180:120,1,80,0|0,1:0|0:0,0:0:0:0:
111,254,93385,2,0,P|104:214|112:176,1,80,8|0,0:0|0:0,0:0:0:0:
180,308,93760,2,0,P|260:312|336:284,1,160,2|8,0:0|0:0,0:0:0:0:
444,148,94510,6,0,P|416:120|376:108,1,80,0|0,1:0|0:0,0:0:0:0:
250,132,94885,2,0,P|278:160|316:172,1,80,8|0,0:0|0:0,0:0:0:0:
216,52,95260,2,0,P|136:48|52:80,1,160,0|8,1:0|0:0,0:0:0:0:
24,248,96010,5,0,1:0:0:0:
188,352,96385,1,8,0:0:0:0:
84,192,96760,1,2,0:0:0:0:
252,288,97135,1,8,0:0:0:0:
252,288,97322,1,0,0:0:0:0:
252,288,97510,6,0,P|284:264|320:248,1,80,0|0,1:0|0:0,0:0:0:0:
456,262,97885,2,0,P|424:285|387:303,1,80,8|0,0:0|0:0,0:0:0:0:
484,136,98260,1,0,1:0:0:0:
484,136,98353,1,0,1:0:0:0:
484,136,98447,1,0,1:0:0:0:
396,44,98635,1,0,1:0:0:0:
396,44,98728,1,0,1:0:0:0:
396,44,98822,1,0,1:0:0:0:
267,20,99010,5,4,0:0:0:0:
256,192,99103,12,0,102010,0:0:0:0:
