osu file format v14

[General]
AudioFilename: audio.mp3
AudioLeadIn: 0
PreviewTime: 63000
Countdown: 1
SampleSet: Soft
StackLeniency: 0.7
Mode: 0
LetterboxInBreaks: 0
WidescreenStoryboard: 0

[Editor]
Bookmarks: 86590
DistanceSpacing: 1.2
BeatDivisor: 4
GridSize: 4
TimelineZoom: 1

[Metadata]
Title:osu!stream theme
TitleUnicode:osu!stream theme
Artist:nekodex
ArtistUnicode:nekodex
Creator:Pereira006
Version:Easy
Source:osu!stream
Tags:Kuron-kun
BeatmapID:1108838
BeatmapSetID:469815

[Difficulty]
HPDrainRate:2
CircleSize:2.6
OverallDifficulty:2
ApproachRate:3
SliderMultiplier:0.8
SliderTickRate:1

[Events]
//Background and Video events
0,0,"bg.jpg",0,0
//Break Periods
//Storyboard Layer 0 (Background)
//Storyboard Layer 1 (Fail)
//Storyboard Layer 2 (Pass)
//Storyboard Layer 3 (Foreground)
//Storyboard Sound Samples

[TimingPoints]
10,375,4,2,1,60,1,0
60010,-100,4,2,1,50,0,0
63010,-100,4,2,1,60,0,1
74916,-100,4,2,1,60,0,0
75010,-100,4,2,1,60,0,1
87010,-100,4,2,1,50,0,0
102010,-100,4,2,1,10,0,0

[Colours]
Combo1 : 204,0,102
Combo2 : 191,191,0
Combo3 : 0,210,210
Combo4 : 96,0,191

[HitObjects]
49,102,3010,5,4,1:0:0:0:
129,50,3385,2,0,P|209:38|289:50,1,160,8|8,0:0|0:0,0:0:0:0:
373,94,4510,2,0,P|385:138|377:174,1,80,0|8,1:0|0:0,0:0:0:0:
285,190,5260,2,0,P|273:234|281:270,1,80,0|8,1:0|0:0,0:0:0:0:
350,331,6010,5,0,1:0:0:0:
256,356,6385,2,0,P|176:356|108:316,1,160,8|8,0:0|0:0,0:0:0:0:
84,224,7510,2,0,L|72:144,1,80,0|8,1:0|0:0,0:0:0:0:
168,132,8260,2,0,L|180:212,1,80,0|8,1:0|0:0,0:0:0:0:
260,268,9010,5,0,1:0:0:0:
352,248,9385,2,0,P|368:164|348:92,1,160,8|8,0:0|0:0,0:0:0:0:
268,40,10510,2,0,P|228:32|188:40,1,80,0|8,1:0|0:0,0:0:0:0:
168,132,11260,2,0,P|128:139|89:131,1,80,0|8,1:0|0:0,0:0:0:0:
12,76,12010,5,0,1:0:0:0:
8,172,12385,2,0,P|8:256|56:316,1,160,8|8,0:0|0:0,0:0:0:0:
148,300,13510,1,0,1:0:0:0:
180,208,13885,2,0,P|148:204|96:220,2,80,8|0|0,0:0|1:0|0:0,0:0:0:0:
248,276,15010,5,4,1:0:0:0:
336,312,15385,2,0,P|388:248|400:172,1,160,8|8,0:0|0:0,0:0:0:0:
340,100,16510,2,0,L|272:48,1,80,0|8,1:0|0:0,0:0:0:0:
180,52,17260,2,0,L|116:100,1,80,0|8,1:0|0:0,0:0:0:0:
72,184,18010,5,0,1:0:0:0:
76,280,18385,2,0,P|156:296|236:272,1,160,8|8,0:0|0:0,0:0:0:0:
288,204,19510,2,0,P|316:176|356:164,1,80,0|8,1:0|0:0,0:0:0:0:
428,224,20260,2,0,P|465:212|493:184,1,80,0|8,1:0|0:0,0:0:0:0:
484,88,21010,5,0,1:0:0:0:
400,40,21385,2,0,P|320:32|240:40,1,160,8|8,0:0|0:0,0:0:0:0:
204,128,22510,2,0,P|156:136|120:136,1,80,0|8,1:0|0:0,0:0:0:0:
124,232,23260,2,0,P|163:233|203:240,1,80,0|8,1:0|0:0,0:0:0:0:
280,296,24010,5,0,1:0:0:0:
376,304,24385,2,0,P|400:228|384:148,1,160,8|8,0:0|0:0,0:0:0:0:
320,80,25510,2,0,P|256:52|184:176,1,240,0|0,1:0|1:0,0:0:0:0:
228,256,27010,6,0,P|280:312|364:328,1,160,4|2,1:0|0:0,0:0:0:0:
440,280,28135,1,8,0:0:0:0:
432,184,28510,2,0,P|380:128|296:112,1,160,0|0,1:0|1:0,0:0:0:0:
208,136,29635,1,8,0:0:0:0:
200,232,30010,6,0,P|195:274|205:309,1,80,0|8,1:0|0:0,0:0:0:0:
295,346,30760,2,0,P|299:303|289:268,1,80,2|8,0:0|0:0,0:0:0:0:
296,172,31510,2,0,P|320:96|388:60,1,160,0|0,1:0|1:0,0:0:0:0:
480,92,32635,1,8,0:0:0:0:
504,184,33010,6,0,P|504:264|452:320,1,160,0|2,1:0|0:0,0:0:0:0:
356,324,34135,1,8,0:0:0:0:
324,232,34510,2,0,L|360:156,2,80,0|8|0,1:0|0:0|1:0,0:0:0:0:
228,224,35635,1,8,0:0:0:0:
232,320,36010,6,0,P|192:332|144:332,1,80,0|8,1:0|0:0,0:0:0:0:
84,268,36760,2,0,P|84:224|68:192,1,80,2|8,0:0|0:0,0:0:0:0:
20,108,37510,2,0,P|104:52|200:128,1,240,0|0,1:0|0:0,0:0:0:0:
200,224,39010,6,0,P|256:288|328:296,1,160,4|2,1:0|0:0,0:0:0:0:
408,244,40135,1,8,0:0:0:0:
420,148,40510,2,0,P|364:84|292:76,1,160,0|0,1:0|1:0,0:0:0:0:
204,108,41635,1,8,0:0:0:0:
132,44,42010,6,0,P|112:80|108:120,1,80,0|8,1:0|0:0,0:0:0:0:
172,192,42760,2,0,P|167:231|147:266,1,80,2|8,0:0|0:0,0:0:0:0:
64,312,43510,2,0,P|123:355|208:352,1,160,0|0,1:0|1:0,0:0:0:0:
272,280,44635,1,8,0:0:0:0:
228,192,45010,6,0,P|232:112|288:56,1,160,0|2,1:0|0:0,0:0:0:0:
380,52,46135,1,8,0:0:0:0:
396,148,46510,2,0,B|408:180|388:216|404:244,2,80,0|8|0,1:0|0:0|1:0,0:0:0:0:
468,88,47635,1,8,0:0:0:0:
380,52,48010,6,0,P|336:44|300:48,1,80,0|0,1:0|1:0,0:0:0:0:
264,136,48760,2,0,P|220:144|184:140,1,80,0|0,1:0|1:0,0:0:0:0:
112,80,49510,2,0,P|32:172|72:276,1,240,0|0,1:0|1:0,0:0:0:0:
152,228,51010,6,0,P|228:200|306:207,2,160,4|2|2,0:0|0:0|0:0,0:0:0:0:
170,322,52885,2,0,P|249:328|323:300,1,160,2|2,0:0|0:0,0:0:0:0:
412,260,54010,6,0,L|428:180,1,80,2|2,0:0|0:0,0:0:0:0:
348,124,54760,2,0,L|332:204,1,80,2|2,0:0|0:0,0:0:0:0:
244,244,55510,2,0,P|176:249|124:232,2,120,2|2|2,0:0|0:0|0:0,0:0:0:0:
320,184,57010,6,0,P|248:148|160:152,2,160,2|2|2,0:0|0:0|0:0,0:0:0:0:
392,248,58885,2,0,P|464:212|488:136,1,160,2|2,0:0|0:0,0:0:0:0:
420,72,60010,6,0,L|336:36,1,80,0|0,1:0|1:0,0:0:0:0:
264,92,60760,2,0,L|180:128,1,80,0|0,1:0|1:0,0:0:0:0:
108,72,61510,1,0,1:0:0:0:
68,160,61885,2,0,P|68:248|112:300,1,160,0|0,1:0|1:0,0:0:0:0:
208,312,63010,6,0,L|292:312,1,80,4|8,1:0|0:0,0:0:0:0:
384,292,63760,2,0,P|432:248|432:152,1,160,2|0,0:0|1:0,0:0:0:0:
364,92,64885,2,0,P|286:89|229:142,1,160,8|8,0:0|0:0,0:0:0:0:
252,236,66010,6,0,P|221:267|186:276,1,80,0|8,1:0|0:0,0:0:0:0:
90,276,66760,2,0,P|52:264|24:236,1,80,2|8,0:0|0:0,0:0:0:0:
32,140,67510,2,0,P|112:116|184:136,1,160,0|0,1:0|1:0,0:0:0:0:
180,232,68635,1,8,0:0:0:0:
264,276,69010,6,0,P|304:284|344:280,1,80,0|8,1:0|0:0,0:0:0:0:
420,224,69760,2,0,B|436:172|400:124|424:64,1,160,2|0,0:0|1:0,0:0:0:0:
332,40,70885,2,0,B|308:98|344:146|328:198,1,160,8|8,0:0|0:0,0:0:0:0:
248,248,72010,6,0,P|208:260|168:260,1,80,0|8,1:0|0:0,0:0:0:0:
120,180,72760,2,0,P|158:168|197:167,1,80,0|8,1:0|0:0,0:0:0:0:
292,168,73510,1,0,1:0:0:0:
240,88,73885,2,0,L|304:32,2,80,8|0|0,0:0|1:0|0:0,0:0:0:0:
156,44,75010,6,0,P|116:44|76:56,1,80,4|8,1:0|0:0,0:0:0:0:
40,144,75760,2,0,P|24:224|48:296,1,160,2|0,0:0|1:0,0:0:0:0:
144,296,76885,2,0,P|168:220|152:143,1,160,8|8,0:0|0:0,0:0:0:0:
124,52,78010,6,0,L|204:32,1,80,0|8,1:0|0:0,0:0:0:0:
296,32,78760,2,0,L|373:51,1,80,2|8,0:0|0:0,0:0:0:0:
436,124,79510,2,0,P|454:201|409:270,1,160,0|0,1:0|1:0,0:0:0:0:
360,184,80635,1,8,0:0:0:0:
280,132,81010,6,0,P|240:128|200:136,1,80,0|8,1:0|0:0,0:0:0:0:
124,192,81760,2,0,B|140:244|104:292|128:352,1,160,2|0,0:0|1:0,0:0:0:0:
36,376,82885,2,0,B|12:318|48:270|32:218,1,160,8|8,0:0|0:0,0:0:0:0:
40,124,84010,6,0,P|64:88|96:72,1,80,0|8,1:0|0:0,0:0:0:0:
192,72,84760,2,0,P|226:91|248:125,1,80,2|8,0:0|0:0,0:0:0:0:
220,216,85510,2,0,P|186:197|164:163,2,80,0|8|0,1:0|0:0|1:0,0:0:0:0:
316,200,86635,1,8,0:0:0:0:
364,120,87010,6,0,P|412:116|448:124,1,80,4|8,0:0|0:0,0:0:0:0:
484,208,87760,2,0,P|444:288|376:324,1,160,2|0,0:0|1:0,0:0:0:0:
288,308,88885,2,0,P|212:280|132:280,1,160,8|8,0:0|0:0,0:0:0:0:
36,276,90010,6,0,L|8:200,1,80,0|8,1:0|0:0,0:0:0:0:
8,104,90760,2,0,L|36:28,1,80,2|8,0:0|0:0,0:0:0:0:
132,24,91510,2,0,P|212:16|288:36,1,160,0|0,1:0|1:0,0:0:0:0:
376,76,92635,1,8,0:0:0:0:
444,144,93010,6,0,P|444:204|432:240,1,80,0|8,1:0|0:0,0:0:0:0:
360,276,93760,2,0,P|284:304|212:280,1,160,2|0,0:0|1:0,0:0:0:0:
140,216,94885,2,0,P|84:156|84:72,1,160,8|8,0:0|0:0,0:0:0:0:
172,40,96010,6,0,P|212:36|256:40,1,80,0|8,1:0|0:0,0:0:0:0:
268,136,96760,2,0,P|307:139|347:136,1,80,2|8,0:0|0:0,0:0:0:0:
412,64,97510,1,0,1:0:0:0:
484,128,97885,1,8,0:0:0:0:
488,224,98260,2,0,P|480:264|456:296,1,80,0|0,1:0|1:0,0:0:0:0:
368,332,99010,5,4,0:0:0:0:
256,192,99197,12,0,102010,0:0:0:0:
