osu file format v14

[General]
AudioFilename: audio.mp3
AudioLeadIn: 0
PreviewTime: -1
Countdown: 1
SampleSet: Normal
StackLeniency: 0.7
Mode: 0
LetterboxInBreaks: 0
WidescreenStoryboard: 0

[Editor]
DistanceSpacing: 1
BeatDivisor: 4
GridSize: 4
TimelineZoom: 1

[Metadata]
Title:circles!
TitleUnicode:circles!
Artist:nekodex
ArtistUnicode:nekodex
Creator:KidGamingTime
Version:Major Circle Clicking
Source:
Tags:
BeatmapID:1543912
BeatmapSetID:731624

[Difficulty]
HPDrainRate:9
CircleSize:5
OverallDifficulty:8
ApproachRate:9
SliderMultiplier:1.4
SliderTickRate:1

[Events]
//Background and Video events
Video,-1129,"OSU! game.mp4"
0,0,"download.jpg",0,0
//Break Periods
//Storyboard Layer 0 (Background)
//Storyboard Layer 1 (Fail)
//Storyboard Layer 2 (Pass)
//Storyboard Layer 3 (Foreground)
//Storyboard Sound Samples

[TimingPoints]
0,326.086956521739,4,1,0,100,1,0
12390,163.04347826087,4,1,0,100,1,0
13042,326.086956521739,4,1,0,100,1,0
64183,-80,4,1,0,100,0,0
64563,-66.6666666666667,4,1,0,100,0,0
64889,81.5217391304348,4,1,0,100,1,0
65215,326.086956521739,4,1,0,100,1,0
65215,-100,4,1,0,100,0,0
93910,-200,4,1,0,100,0,0
95214,-100,4,1,0,100,0,0

[HitObjects]
272,28,0,6,0,P|136:72|292:32,1,1015
288,32,2445,6,0,L|292:60,3,23.3333333333333,2|2|2|2,0:0|0:0|0:0|0:0,0:0:0:0:
512,104,2934,5,0,0:0:0:0:
4,192,3260,1,2,0:0:0:0:
104,140,3586,1,0,0:0:0:0:
144,196,3749,1,2,0:0:0:0:
336,120,4076,1,2,0:0:0:0:
176,272,4239,1,0,0:0:0:0:
416,276,4402,1,2,0:0:0:0:
256,116,4565,1,2,0:0:0:0:
316,300,4728,1,2,0:0:0:0:
440,176,4891,1,0,0:0:0:0:
0,384,5217,5,2,0:0:0:0:
512,0,5543,1,0,0:0:0:0:
508,380,5869,1,2,0:0:0:0:
424,124,6195,1,0,0:0:0:0:
324,256,6358,1,2,0:0:0:0:
172,132,6684,1,2,0:0:0:0:
88,192,6847,1,0,0:0:0:0:
308,280,7010,1,2,0:0:0:0:
88,192,7173,1,2,0:0:0:0:
308,280,7336,1,2,0:0:0:0:
260,96,7499,1,0,0:0:0:0:
112,68,7663,1,4,0:0:0:0:
260,96,7826,5,4,0:0:0:0:
328,320,7989,1,0,0:0:0:0:
96,212,8152,1,0,0:0:0:0:
368,176,8315,1,0,0:0:0:0:
180,312,8478,1,0,0:0:0:0:
64,56,8641,1,0,0:0:0:0:
324,336,8804,1,0,0:0:0:0:
84,172,8967,1,0,0:0:0:0:
276,60,9130,1,0,0:0:0:0:
376,248,9293,1,0,0:0:0:0:
72,76,9456,1,0,0:0:0:0:
460,152,9619,1,0,0:0:0:0:
124,260,9782,1,0,0:0:0:0:
220,56,9945,1,0,0:0:0:0:
280,244,10108,1,0,0:0:0:0:
132,92,10271,1,0,0:0:0:0:
268,168,10434,5,0,0:0:0:0:
238,149,10515,1,0,0:0:0:0:
205,139,10597,1,0,0:0:0:0:
170,139,10678,1,0,0:0:0:0:
136,148,10760,1,0,0:0:0:0:
106,166,10841,1,0,0:0:0:0:
82,191,10923,1,0,0:0:0:0:
66,222,11004,1,0,0:0:0:0:
52,256,11086,5,0,0:0:0:0:
62,222,11167,1,0,0:0:0:0:
79,192,11249,1,0,0:0:0:0:
102,165,11330,1,0,0:0:0:0:
130,144,11412,1,0,0:0:0:0:
161,129,11493,1,0,0:0:0:0:
195,120,11575,1,0,0:0:0:0:
230,119,11656,5,0,0:0:0:0:
264,120,11738,2,0,L|300:120,4,23.3333333333333
236,48,12390,1,0,0:0:0:0:
196,232,12553,1,0,0:0:0:0:
352,88,12716,2,0,L|352:200,1,105,2|0,0:0|0:0,0:0:0:0:
352,228,12879,2,0,L|352:112,1,105,2|0,0:0|0:0,0:0:0:0:
192,88,13205,5,0,0:0:0:0:
252,276,13368,1,0,0:0:0:0:
324,92,13531,1,0,0:0:0:0:
184,220,13694,1,0,0:0:0:0:
384,256,13857,1,0,0:0:0:0:
188,136,14020,1,0,0:0:0:0:
372,300,14183,1,0,0:0:0:0:
168,244,14346,1,0,0:0:0:0:
256,108,14509,2,0,P|212:92|164:112,1,70
136,184,14835,1,0,0:0:0:0:
112,68,14998,2,0,P|120:112|144:148,1,70
248,304,15324,2,0,P|256:260|236:224,1,70
368,352,15650,5,2,0:0:0:0:
208,356,15813,1,2,0:0:0:0:
56,352,15976,1,2,0:0:0:0:
136,356,16139,1,2,0:0:0:0:
152,364,16302,1,2,0:0:0:0:
216,360,16465,1,2,0:0:0:0:
400,360,16628,1,2,0:0:0:0:
400,360,16792,1,2,0:0:0:0:
448,360,16955,1,2,0:0:0:0:
368,364,17118,1,2,0:0:0:0:
296,360,17281,1,2,0:0:0:0:
240,368,17444,1,2,0:0:0:0:
240,368,17607,1,2,0:0:0:0:
172,372,17770,1,2,0:0:0:0:
60,368,17933,1,2,0:0:0:0:
84,368,18096,1,2,0:0:0:0:
8,128,18259,5,8,0:0:0:0:
64,124,18422,1,8,0:0:0:0:
128,124,18585,1,8,0:0:0:0:
188,124,18748,1,8,0:0:0:0:
256,124,18911,1,8,0:0:0:0:
320,128,19074,1,8,0:0:0:0:
400,124,19237,1,8,0:0:0:0:
464,128,19400,1,8,0:0:0:0:
48,124,19563,1,8,0:0:0:0:
132,124,19726,1,8,0:0:0:0:
196,120,19889,1,8,0:0:0:0:
260,128,20052,1,8,0:0:0:0:
324,124,20215,1,8,0:0:0:0:
312,124,20378,1,8,0:0:0:0:
296,124,20541,1,8,0:0:0:0:
360,128,20705,1,8,0:0:0:0:
40,336,20868,5,0,0:0:0:0:
40,336,21031,2,0,L|40:240,1,70
12,328,21357,1,0,0:0:0:0:
76,336,21520,2,0,L|76:244,1,70
0,344,21846,1,0,0:0:0:0:
16,340,22009,2,0,L|16:256,1,70
120,332,22335,1,0,0:0:0:0:
72,336,22498,1,0,0:0:0:0:
360,144,22661,5,0,0:0:0:0:
316,280,22824,5,0,0:0:0:0:
240,56,22987,5,0,0:0:0:0:
248,176,23150,5,14,0:0:0:0:
380,120,23476,2,0,L|300:104,1,70
284,112,23802,1,0,0:0:0:0:
304,144,23965,1,0,0:0:0:0:
216,216,24128,2,0,P|192:164|192:144,1,70
320,324,24455,2,0,B|288:308|276:280|276:280|244:300,1,70
160,108,24781,1,0,0:0:0:0:
348,244,24944,2,0,B|392:228|392:228|432:240,1,70
496,216,25270,1,0,0:0:0:0:
240,68,25433,1,0,0:0:0:0:
88,220,25596,1,0,0:0:0:0:
324,240,25759,1,0,0:0:0:0:
164,88,25922,1,0,0:0:0:0:
476,356,26085,5,0,0:0:0:0:
460,360,26248,1,0,0:0:0:0:
432,356,26411,1,0,0:0:0:0:
400,360,26574,1,0,0:0:0:0:
328,364,26737,1,0,0:0:0:0:
316,364,26900,1,0,0:0:0:0:
236,364,27063,1,0,0:0:0:0:
276,364,27226,1,0,0:0:0:0:
312,372,27389,1,0,0:0:0:0:
224,364,27552,1,0,0:0:0:0:
164,364,27715,2,0,L|152:272,2,70
128,368,28205,1,0,0:0:0:0:
184,356,28368,1,0,0:0:0:0:
300,368,28531,1,0,0:0:0:0:
52,128,28694,5,0,0:0:0:0:
116,128,28857,1,0,0:0:0:0:
176,128,29020,1,0,0:0:0:0:
240,124,29183,1,0,0:0:0:0:
308,124,29346,1,0,0:0:0:0:
372,124,29509,1,0,0:0:0:0:
432,124,29672,1,0,0:0:0:0:
512,124,29835,1,0,0:0:0:0:
12,128,29998,1,0,0:0:0:0:
36,124,30161,1,0,0:0:0:0:
96,124,30324,1,0,0:0:0:0:
160,124,30487,1,0,0:0:0:0:
220,128,30650,1,0,0:0:0:0:
284,124,30813,1,0,0:0:0:0:
352,124,30976,1,0,0:0:0:0:
424,124,31139,1,0,0:0:0:0:
256,192,31302,12,0,32607,0:0:0:0:
392,168,33259,5,0,0:0:0:0:
140,168,33422,1,0,0:0:0:0:
412,52,33585,1,0,0:0:0:0:
88,296,33748,1,0,0:0:0:0:
385,65,33911,2,0,P|289:133|201:133,1,210
207,135,34563,6,0,P|280:68|400:72,1,210
385,65,35215,2,0,P|324:148|200:128,1,210
224,145,35868,1,0,0:0:0:0:
280,44,36031,1,0,0:0:0:0:
388,240,36194,1,0,0:0:0:0:
168,108,36357,6,0,B|208:248|208:248|256:96,1,280
248,119,37172,2,0,B|240:208|240:208|164:100,1,210
164,108,37824,2,0,P|128:176|172:116,1,210
292,76,38476,1,0,0:0:0:0:
84,216,38639,1,0,0:0:0:0:
280,208,38802,2,0,P|304:244|308:240,1,70
303,244,39128,6,0,P|372:176|296:136,1,210
298,135,39781,2,0,P|216:176|300:232,1,210
292,240,40433,2,0,P|364:200|380:312,1,210
398,295,41085,2,0,L|312:304,1,70
108,240,41411,1,0,0:0:0:0:
192,132,41574,6,0,P|120:96|152:224,1,280
131,226,42389,2,0,P|152:172|44:108,1,210
32,152,43041,1,0,0:0:0:0:
28,186,43122,1,0,0:0:0:0:
36,220,43204,1,0,0:0:0:0:
54,250,43285,1,0,0:0:0:0:
80,272,43368,1,0,0:0:0:0:
212,256,43694,1,0,0:0:0:0:
242,270,43775,1,0,0:0:0:0:
272,254,43857,1,0,0:0:0:0:
277,221,43938,1,0,0:0:0:0:
253,197,44020,1,12,0:0:0:0:
127,319,44346,6,0,P|223:251|311:251,1,210
304,248,44998,2,0,P|232:316|112:312,1,210
126,318,45650,2,0,P|188:236|312:256,1,210
287,238,46303,1,0,0:0:0:0:
232,340,46466,1,0,0:0:0:0:
124,144,46629,1,0,0:0:0:0:
344,276,46792,6,0,B|304:136|304:136|256:288,1,280
263,264,47607,2,0,B|272:176|272:176|348:284,1,210
348,276,48259,2,0,P|384:208|340:268,1,210
220,308,48911,1,0,0:0:0:0:
428,168,49074,1,0,0:0:0:0:
232,176,49237,2,0,P|208:140|204:144,1,70
96,192,49563,5,0,0:0:0:0:
248,40,49726,1,0,0:0:0:0:
336,276,49889,1,0,0:0:0:0:
96,76,50052,5,0,0:0:0:0:
364,108,50215,1,0,0:0:0:0:
52,312,50378,1,0,0:0:0:0:
252,40,50541,5,0,0:0:0:0:
368,336,50705,1,0,0:0:0:0:
256,192,50868,1,0,0:0:0:0:
0,192,51031,5,0,0:0:0:0:
512,192,51194,1,0,0:0:0:0:
0,192,51357,1,0,0:0:0:0:
256,192,51520,5,0,0:0:0:0:
256,4,51683,1,0,0:0:0:0:
256,384,51846,1,0,0:0:0:0:
256,192,52009,1,0,0:0:0:0:
300,192,52172,5,0,0:0:0:0:
318,162,52253,5,0,0:0:0:0:
324,128,52335,5,0,0:0:0:0:
316,94,52416,5,0,0:0:0:0:
294,67,52498,5,0,0:0:0:0:
264,50,52579,5,0,0:0:0:0:
229,47,52661,5,0,0:0:0:0:
196,58,52742,5,0,0:0:0:0:
180,72,52824,5,0,0:0:0:0:
214,79,52905,5,0,0:0:0:0:
249,81,52987,5,0,0:0:0:0:
284,78,53068,5,0,0:0:0:0:
318,71,53150,5,0,0:0:0:0:
351,60,53231,5,0,0:0:0:0:
382,44,53313,5,0,0:0:0:0:
400,112,53395,5,0,0:0:0:0:
440,196,53476,5,0,0:0:0:0:
404,232,53558,5,0,0:0:0:0:
432,272,53639,5,0,0:0:0:0:
408,284,53721,5,0,0:0:0:0:
424,304,53802,5,0,0:0:0:0:
416,320,53884,5,0,0:0:0:0:
424,336,53965,5,0,0:0:0:0:
328,288,54047,5,0,0:0:0:0:
256,192,54210,1,0,0:0:0:0:
256,192,54781,5,0,0:0:0:0:
104,100,54944,1,0,0:0:0:0:
256,328,55107,1,0,0:0:0:0:
428,160,55270,1,0,0:0:0:0:
256,4,55433,1,0,0:0:0:0:
168,168,55596,1,0,0:0:0:0:
228,164,55759,1,0,0:0:0:0:
304,168,55922,1,0,0:0:0:0:
420,80,56085,1,0,0:0:0:0:
420,144,56248,1,0,0:0:0:0:
416,200,56411,1,0,0:0:0:0:
408,264,56574,1,0,0:0:0:0:
376,188,56737,1,0,0:0:0:0:
0,68,57063,1,0,0:0:0:0:
76,232,57389,5,0,0:0:0:0:
216,128,57552,1,0,0:0:0:0:
224,260,57715,1,0,0:0:0:0:
112,104,57878,1,0,0:0:0:0:
292,216,58041,1,0,0:0:0:0:
104,272,58205,1,0,0:0:0:0:
200,60,58368,1,0,0:0:0:0:
212,276,58531,1,0,0:0:0:0:
88,108,58694,1,0,0:0:0:0:
344,164,58857,1,0,0:0:0:0:
140,260,59020,1,0,0:0:0:0:
236,72,59183,1,0,0:0:0:0:
240,328,59346,1,0,0:0:0:0:
80,28,59509,1,0,0:0:0:0:
288,116,59672,1,0,0:0:0:0:
0,360,59835,1,0,0:0:0:0:
144,176,59998,5,0,0:0:0:0:
188,176,60161,1,0,0:0:0:0:
228,176,60324,1,0,0:0:0:0:
264,176,60487,1,0,0:0:0:0:
248,136,60650,1,0,0:0:0:0:
220,136,60813,1,0,0:0:0:0:
192,136,60976,1,0,0:0:0:0:
164,136,61139,1,0,0:0:0:0:
180,100,61302,1,0,0:0:0:0:
200,100,61465,1,0,0:0:0:0:
224,100,61628,1,0,0:0:0:0:
240,100,61791,1,0,0:0:0:0:
224,72,61955,1,0,0:0:0:0:
216,72,62118,1,0,0:0:0:0:
208,72,62281,1,0,0:0:0:0:
204,72,62444,1,0,0:0:0:0:
344,72,62607,5,0,0:0:0:0:
64,216,62770,1,0,0:0:0:0:
360,232,62933,1,0,0:0:0:0:
88,40,63096,1,0,0:0:0:0:
248,276,63259,1,0,0:0:0:0:
308,52,63422,1,0,0:0:0:0:
80,184,63585,1,0,0:0:0:0:
256,116,63748,1,0,0:0:0:0:
332,112,63911,6,0,L|332:244,1,105
332,260,64237,2,0,L|332:92,1,131.25
332,76,64563,2,0,L|332:240,1,157.500006008148
332,296,64889,6,0,L|332:104,1,175
332,300,65215,5,0,0:0:0:0:
128,264,65378,1,0,0:0:0:0:
240,96,65541,1,0,0:0:0:0:
216,332,65704,1,0,0:0:0:0:
112,184,65867,1,0,0:0:0:0:
340,200,66030,1,0,0:0:0:0:
140,328,66193,1,0,0:0:0:0:
320,136,66356,1,0,0:0:0:0:
176,128,66519,1,0,0:0:0:0:
296,328,66682,1,0,0:0:0:0:
12,312,66845,1,0,0:0:0:0:
424,72,67008,1,0,0:0:0:0:
160,344,67171,1,0,0:0:0:0:
112,24,67334,1,0,0:0:0:0:
432,336,67497,1,0,0:0:0:0:
28,80,67660,1,0,0:0:0:0:
404,160,67823,6,0,B|400:188|348:212|348:212|368:208,1,93.3333333333333
216,68,68312,1,0,0:0:0:0:
344,344,68475,1,0,0:0:0:0:
28,84,68638,1,0,0:0:0:0:
432,344,68801,1,0,0:0:0:0:
48,272,68965,1,0,0:0:0:0:
360,96,69128,1,0,0:0:0:0:
256,356,69291,1,0,0:0:0:0:
72,32,69454,1,0,0:0:0:0:
448,276,69617,1,0,0:0:0:0:
40,188,69780,1,0,0:0:0:0:
448,276,70106,1,0,0:0:0:0:
224,176,70269,1,0,0:0:0:0:
480,36,70432,1,0,0:0:0:0:
448,276,70595,1,0,0:0:0:0:
224,176,70758,1,0,0:0:0:0:
480,36,70921,5,0,0:0:0:0:
448,276,71084,1,0,0:0:0:0:
224,176,71247,1,0,0:0:0:0:
480,36,71410,1,0,0:0:0:0:
448,276,71573,1,0,0:0:0:0:
224,176,71736,1,0,0:0:0:0:
480,36,71899,1,0,0:0:0:0:
448,276,72062,1,0,0:0:0:0:
224,176,72225,1,0,0:0:0:0:
480,36,72388,1,0,0:0:0:0:
432,352,72551,1,0,0:0:0:0:
104,296,72714,1,0,0:0:0:0:
476,8,72877,1,0,0:0:0:0:
84,136,73041,5,0,0:0:0:0:
136,228,73204,1,0,0:0:0:0:
204,132,73367,1,0,0:0:0:0:
244,132,73530,1,0,0:0:0:0:
176,228,73693,1,0,0:0:0:0:
124,136,73856,1,0,0:0:0:0:
168,136,74019,1,0,0:0:0:0:
220,228,74182,1,0,0:0:0:0:
288,132,74345,1,0,0:0:0:0:
204,132,74508,1,0,0:0:0:0:
272,64,74671,1,0,0:0:0:0:
220,228,74753,1,0,0:0:0:0:
84,136,74834,1,0,0:0:0:0:
0,4,74997,1,0,0:0:0:0:
24,324,75323,1,0,0:0:0:0:
264,136,75649,5,0,0:0:0:0:
128,280,75812,1,0,0:0:0:0:
132,40,75975,1,0,0:0:0:0:
272,288,76138,1,0,0:0:0:0:
4,196,76301,1,0,0:0:0:0:
460,28,76465,1,0,0:0:0:0:
200,240,76628,1,0,0:0:0:0:
92,88,76791,1,0,0:0:0:0:
400,144,76954,1,0,0:0:0:0:
8,304,77117,1,0,0:0:0:0:
236,100,77280,1,0,0:0:0:0:
316,336,77443,1,0,0:0:0:0:
24,152,77606,1,0,0:0:0:0:
248,360,77769,1,0,0:0:0:0:
396,32,77932,1,0,0:0:0:0:
508,212,78095,1,0,0:0:0:0:
172,164,78258,5,0,0:0:0:0:
304,264,78421,1,0,0:0:0:0:
224,88,78584,1,0,0:0:0:0:
112,356,78747,1,0,0:0:0:0:
336,96,78910,1,0,0:0:0:0:
72,192,79073,1,0,0:0:0:0:
336,292,79236,1,0,0:0:0:0:
336,96,79399,1,0,0:0:0:0:
72,192,79562,1,0,0:0:0:0:
336,292,79725,1,0,0:0:0:0:
244,384,79888,1,0,0:0:0:0:
24,40,80051,1,0,0:0:0:0:
512,152,80214,1,0,0:0:0:0:
304,56,80541,2,0,L|296:64,2,8.75
64,272,80704,2,0,L|56:280,2,8.75
512,152,80867,5,0,0:0:0:0:
124,84,81030,1,0,0:0:0:0:
364,296,81193,1,0,0:0:0:0:
260,56,81356,1,0,0:0:0:0:
160,324,81519,1,0,0:0:0:0:
388,168,81682,1,0,0:0:0:0:
56,148,81845,1,0,0:0:0:0:
456,272,82008,1,0,0:0:0:0:
260,56,82171,1,0,0:0:0:0:
160,320,82334,1,0,0:0:0:0:
388,168,82497,1,0,0:0:0:0:
456,272,82660,1,0,0:0:0:0:
56,148,82823,1,0,0:0:0:0:
216,68,82986,1,0,0:0:0:0:
272,344,83149,1,0,0:0:0:0:
312,64,83312,1,0,0:0:0:0:
272,344,83475,5,0,0:0:0:0:
216,68,83638,1,0,0:0:0:0:
272,344,83801,1,0,0:0:0:0:
312,64,83965,1,0,0:0:0:0:
56,192,84128,1,0,0:0:0:0:
344,16,84291,1,0,0:0:0:0:
380,256,84454,1,0,0:0:0:0:
104,52,84617,1,0,0:0:0:0:
224,192,84780,1,0,0:0:0:0:
280,28,84943,1,0,0:0:0:0:
428,164,85106,1,0,0:0:0:0:
384,192,85187,1,0,0:0:0:0:
344,224,85269,1,0,0:0:0:0:
80,76,85432,1,0,0:0:0:0:
264,320,85595,1,0,0:0:0:0:
504,8,85758,5,0,0:0:0:0:
40,236,85921,5,0,0:0:0:0:
360,40,86084,5,0,0:0:0:0:
152,212,86736,5,0,0:0:0:0:
380,244,87388,5,0,0:0:0:0:
152,104,88041,5,0,0:0:0:0:
280,116,88693,5,0,0:0:0:0:
208,216,89345,5,0,0:0:0:0:
256,192,89997,5,0,0:0:0:0:
256,192,90649,5,0,0:0:0:0:
256,192,91301,5,0,0:0:0:0:
256,192,91628,5,0,0:0:0:0:
256,192,91954,5,0,0:0:0:0:
256,192,92280,5,0,0:0:0:0:
256,192,92606,5,0,0:0:0:0:
256,192,92933,5,0,0:0:0:0:
256,192,93259,5,0,0:0:0:0:
256,192,93585,5,0,0:0:0:0:
256,192,93910,1,0,0:0:0:0:
285,210,94073,1,0,0:0:0:0:
319,216,94236,1,0,0:0:0:0:
353,208,94399,1,0,0:0:0:0:
380,187,94562,5,0,0:0:0:0:
397,156,94725,1,0,0:0:0:0:
400,121,94888,1,0,0:0:0:0:
396,88,95051,1,0,0:0:0:0:
388,56,95214,5,0,0:0:0:0:
355,42,95295,5,0,0:0:0:0:
321,40,95377,5,0,0:0:0:0:
287,49,95458,5,0,0:0:0:0:
258,68,95540,5,0,0:0:0:0:
236,96,95622,5,0,0:0:0:0:
267,81,95703,5,0,0:0:0:0:
302,75,95785,5,0,0:0:0:0:
336,78,95866,5,0,0:0:0:0:
512,0,96519,1,0,0:0:0:0:
0,192,96845,1,0,0:0:0:0:
512,384,97171,1,0,0:0:0:0:
172,96,97497,1,0,0:0:0:0:
320,228,97660,1,0,0:0:0:0:
200,72,97986,1,0,0:0:0:0:
128,256,98149,1,0,0:0:0:0:
368,184,98312,1,0,0:0:0:0:
56,128,98475,1,0,0:0:0:0:
292,308,98638,1,0,0:0:0:0:
236,84,98801,1,0,0:0:0:0:
188,356,99128,5,0,0:0:0:0:
296,348,99454,1,0,0:0:0:0:
412,360,99780,1,0,0:0:0:0:
448,360,100106,1,0,0:0:0:0:
504,360,100269,1,0,0:0:0:0:
360,360,100595,1,0,0:0:0:0:
264,356,100758,1,0,0:0:0:0:
224,372,100921,1,0,0:0:0:0:
328,360,101084,1,0,0:0:0:0:
280,352,101247,1,0,0:0:0:0:
240,352,101410,1,0,0:0:0:0:
12,120,101736,5,0,0:0:0:0:
28,124,102062,1,0,0:0:0:0:
32,124,102388,1,0,0:0:0:0:
32,124,102714,1,0,0:0:0:0:
104,124,102878,1,0,0:0:0:0:
0,108,103204,1,0,0:0:0:0:
56,124,103367,2,0,L|140:124,1,70
296,124,103693,1,0,0:0:0:0:
384,124,103856,1,0,0:0:0:0:
476,124,104019,1,0,0:0:0:0:
60,288,104345,5,0,0:0:0:0:
344,320,104671,1,0,0:0:0:0:
84,48,104997,1,0,0:0:0:0:
240,68,105323,1,0,0:0:0:0:
196,312,105486,1,0,0:0:0:0:
364,84,105812,1,0,0:0:0:0:
36,284,105975,1,0,0:0:0:0:
376,308,106138,1,0,0:0:0:0:
120,56,106301,1,0,0:0:0:0:
172,352,106464,1,0,0:0:0:0:
364,84,106628,1,6,0:0:0:0:
124,56,106954,5,0,0:0:0:0:
172,352,107280,1,0,0:0:0:0:
364,84,107606,1,0,0:0:0:0:
28,308,107932,1,0,0:0:0:0:
376,24,108095,1,0,0:0:0:0:
260,96,108421,1,0,0:0:0:0:
72,344,108584,1,0,0:0:0:0:
408,300,108747,1,0,0:0:0:0:
56,20,108910,1,0,0:0:0:0:
508,192,109073,1,0,0:0:0:0:
56,20,109236,1,0,0:0:0:0:
256,72,109562,5,0,0:0:0:0:
88,292,109888,1,0,0:0:0:0:
392,232,110214,1,0,0:0:0:0:
84,84,110541,1,0,0:0:0:0:
256,264,110704,1,0,0:0:0:0:
80,324,111030,1,0,0:0:0:0:
424,48,111193,1,0,0:0:0:0:
300,368,111356,1,0,0:0:0:0:
120,92,111519,1,0,0:0:0:0:
512,88,111682,1,0,0:0:0:0:
80,324,111845,1,0,0:0:0:0:
432,12,112171,5,0,0:0:0:0:
388,356,112497,1,0,0:0:0:0:
128,108,112823,1,0,0:0:0:0:
424,124,113149,1,0,0:0:0:0:
144,324,113312,1,0,0:0:0:0:
284,40,113638,1,0,0:0:0:0:
392,352,113801,1,0,0:0:0:0:
48,136,113964,1,0,0:0:0:0:
508,16,114128,1,0,0:0:0:0:
0,40,114291,1,0,0:0:0:0:
508,152,114454,1,0,0:0:0:0:
304,48,114780,5,0,0:0:0:0:
108,296,115106,1,0,0:0:0:0:
120,68,115432,1,0,0:0:0:0:
412,292,115758,1,0,0:0:0:0:
232,56,115921,1,0,0:0:0:0:
300,96,116084,6,0,L|352:228,2,140
265,94,116817,1,0,0:0:0:0:
233,108,116899,1,0,0:0:0:0:
210,134,116980,1,0,0:0:0:0:
200,167,117062,1,0,0:0:0:0:
308,192,117225,1,0,0:0:0:0:
308,184,117307,1,0,0:0:0:0:
312,188,117388,5,0,0:0:0:0:
100,184,117714,2,0,L|96:220,1,35
412,40,118041,2,0,L|408:76,1,35
336,344,118367,2,0,L|332:380,1,35
152,24,118693,2,0,L|148:60,1,35
288,172,119019,2,0,L|284:208,1,35
100,184,119345,2,0,L|96:220,1,35
352,124,119508,2,0,L|348:160,1,35
236,44,119671,2,0,L|232:80,1,35
228,264,119834,2,0,L|224:300,1,35
100,184,119997,6,0,L|96:220,1,35
356,96,120323,2,0,L|352:132,1,35
212,24,120649,2,0,L|208:60,1,35
240,264,120975,2,0,L|236:300,1,35
232,76,121301,2,0,L|228:112,1,35
400,208,121628,2,0,L|396:244,1,35
100,184,121954,2,0,L|96:220,1,35
508,8,122117,2,0,L|504:44,1,35
100,184,122280,2,0,L|96:220,1,35
508,8,122443,2,0,L|504:44,1,35
100,184,122606,6,0,L|96:220,1,35
376,252,122932,2,0,L|372:288,1,35
192,32,123258,2,0,L|188:68,1,35
376,252,123584,2,0,L|372:288,1,35
192,32,123910,2,0,L|188:68,1,35
100,212,124236,2,0,L|96:248,1,35
344,216,124562,2,0,L|316:236,1,35
112,72,124725,2,0,L|108:108,1,35
428,92,124888,2,0,L|424:128,1,35
200,264,125051,2,0,L|196:300,1,35
92,308,125214,6,0,L|92:248,1,35
220,304,125541,2,0,L|220:256,1,35
24,308,125867,2,0,L|28:248,1,35
156,304,126193,2,0,L|156:248,1,35
24,308,126519,1,0,0:0:0:0:
92,304,126600,1,0,0:0:0:0:
156,308,126682,1,0,0:0:0:0:
216,308,126763,1,0,0:0:0:0:
156,308,126845,1,0,0:0:0:0:
88,304,127171,1,0,0:0:0:0:
24,304,127253,1,0,0:0:0:0:
88,304,127334,1,0,0:0:0:0:
248,176,127497,1,0,0:0:0:0:
400,368,127823,6,0,L|352:372,1,35
184,368,128149,2,0,L|236:372,1,35
252,368,128475,2,0,L|252:308,1,35
300,364,128801,2,0,L|304:312,1,35
264,368,129128,2,0,L|264:312,1,35
340,368,129454,2,0,L|384:368,1,35
504,364,129780,2,0,L|504:324,1,35
452,364,129943,2,0,L|400:364,1,35
368,368,130106,2,0,L|324:364,1,35
296,368,130269,2,0,L|252:368,1,35
144,344,130432,6,0,P|168:328|200:324,1,35
64,108,130758,2,0,P|88:120|120:112,1,35
132,104,131084,2,0,P|172:92|188:84,1,35
236,60,131410,2,0,P|260:56|292:60,1,35
384,116,131736,2,0,P|408:148|408:164,1,35
328,328,132062,2,0,L|324:264,1,35
92,248,132388,2,0,L|88:204,1,35
336,188,132551,2,0,L|376:212,1,35
424,248,132714,2,0,L|468:268,1,35
504,276,132878,2,0,L|536:292,1,35
160,64,133041,6,0,L|160:112,1,35
288,64,133204,2,0,L|288:99,1,35
128,64,133367,2,0,L|128:128,1,35
320,64,133530,2,0,L|320:128,1,35
96,64,133693,2,0,L|96:128,1,35
352,64,133856,2,0,L|352:128,1,35
64,64,134019,2,0,L|64:128,1,35
384,64,134182,2,0,L|384:128,1,35
192,192,134345,6,0,L|256:192,1,35
320,192,134508,2,0,L|256:192,1,35
160,192,134671,2,0,L|224:192,1,35
352,192,134834,2,0,L|288:192,1,35
128,192,134997,2,0,L|192:192,1,35
384,192,135160,2,0,L|320:192,1,35
96,192,135323,2,0,L|160:192,1,35
416,192,135486,2,0,L|352:192,1,35
288,64,135649,5,0,0:0:0:0:
253,56,135730,5,0,0:0:0:0:
219,57,135812,5,0,0:0:0:0:
185,66,135893,5,0,0:0:0:0:
154,83,135975,5,0,0:0:0:0:
129,107,136056,5,0,0:0:0:0:
110,136,136138,5,0,0:0:0:0:
99,169,136219,5,0,0:0:0:0:
96,204,136301,5,0,0:0:0:0:
87,170,136382,5,0,0:0:0:0:
95,136,136464,5,0,0:0:0:0:
117,109,136545,5,0,0:0:0:0:
149,95,136627,5,0,0:0:0:0:
184,97,136708,5,0,0:0:0:0:
214,113,136790,5,0,0:0:0:0:
234,142,136871,5,0,0:0:0:0:
256,192,136954,12,0,139481,0:0:0:0:
