osu file format v14

[General]
AudioFilename: nekodex - circles! (pishifat).mp3
AudioLeadIn: 0
PreviewTime: -1
Countdown: 0
SampleSet: Soft
StackLeniency: 0.7
Mode: 3
LetterboxInBreaks: 0
SpecialStyle: 0
WidescreenStoryboard: 0

[Editor]
DistanceSpacing: 1.5
BeatDivisor: 4
GridSize: 4
TimelineZoom: 2.3

[Metadata]
Title:circles!
TitleUnicode:circles!
Artist:nekodex
ArtistUnicode:nekodex
Creator:DarkSider2442
Version:Insane!
Source:
Tags:
BeatmapID:851708
BeatmapSetID:390864

[Difficulty]
HPDrainRate:8
CircleSize:7
OverallDifficulty:8
ApproachRate:5
SliderMultiplier:1.4
SliderTickRate:1

[Events]
//Background and Video events
0,0,"nekodex - circles! (pishifat) [Background].jpg",0,0
//Break Periods
//Storyboard Layer 0 (Background)
//Storyboard Layer 1 (Fail)
//Storyboard Layer 2 (Pass)
//Storyboard Layer 3 (Foreground)
//Storyboard Sound Samples

[TimingPoints]
2589,326.086956521739,4,2,0,5,1,0

[HitObjects]
36,192,2589,5,0,0:0:0:0:
475,192,2589,1,0,0:0:0:0:
36,192,2915,1,0,0:0:0:0:
329,192,2915,1,0,0:0:0:0:
36,192,3241,1,0,0:0:0:0:
475,192,3241,1,0,0:0:0:0:
36,192,3567,1,0,0:0:0:0:
256,192,3567,1,0,0:0:0:0:
402,192,3730,1,0,0:0:0:0:
36,192,3893,1,0,0:0:0:0:
182,192,4056,1,0,0:0:0:0:
36,192,4219,1,0,0:0:0:0:
329,192,4219,1,0,0:0:0:0:
256,192,4382,1,0,0:0:0:0:
36,192,4545,1,0,0:0:0:0:
402,192,4545,1,0,0:0:0:0:
329,192,4708,1,0,0:0:0:0:
36,192,4871,1,0,0:0:0:0:
475,192,4871,1,0,0:0:0:0:
36,192,5197,1,0,0:0:0:0:
402,192,5197,1,0,0:0:0:0:
36,192,5523,1,0,0:0:0:0:
256,192,5523,1,0,0:0:0:0:
36,192,5849,1,0,0:0:0:0:
402,192,5849,1,0,0:0:0:0:
36,192,6175,1,0,0:0:0:0:
182,192,6175,1,0,0:0:0:0:
329,192,6338,1,0,0:0:0:0:
36,192,6502,1,0,0:0:0:0:
256,192,6665,1,0,0:0:0:0:
36,192,6828,1,0,0:0:0:0:
402,192,6828,1,0,0:0:0:0:
182,192,6991,1,0,0:0:0:0:
36,192,7154,1,0,0:0:0:0:
329,192,7154,1,0,0:0:0:0:
256,192,7317,1,0,0:0:0:0:
36,192,7480,1,0,0:0:0:0:
402,192,7480,1,0,0:0:0:0:
36,192,7806,1,0,0:0:0:0:
329,192,7806,1,0,0:0:0:0:
36,192,7969,1,0,0:0:0:0:
36,192,8132,1,0,0:0:0:0:
475,192,8132,1,0,0:0:0:0:
36,192,8295,1,0,0:0:0:0:
36,192,8458,1,0,0:0:0:0:
329,192,8458,1,0,0:0:0:0:
36,192,8621,1,0,0:0:0:0:
36,192,8784,1,0,0:0:0:0:
182,192,8784,1,0,0:0:0:0:
36,192,8947,1,0,0:0:0:0:
329,192,8947,1,0,0:0:0:0:
36,192,9110,1,0,0:0:0:0:
36,192,9273,1,0,0:0:0:0:
256,192,9273,1,0,0:0:0:0:
36,192,9436,1,0,0:0:0:0:
402,192,9436,1,0,0:0:0:0:
36,192,9599,1,0,0:0:0:0:
329,192,9599,1,0,0:0:0:0:
36,192,9762,1,0,0:0:0:0:
475,192,9762,1,0,0:0:0:0:
36,192,9925,1,0,0:0:0:0:
329,192,9925,1,0,0:0:0:0:
36,192,10088,1,0,0:0:0:0:
182,192,10088,1,0,0:0:0:0:
36,192,10252,1,0,0:0:0:0:
36,192,10415,1,0,0:0:0:0:
475,192,10415,1,0,0:0:0:0:
182,192,10496,1,0,0:0:0:0:
329,192,10578,1,0,0:0:0:0:
475,192,10659,1,0,0:0:0:0:
36,192,10741,1,0,0:0:0:0:
329,192,10741,1,0,0:0:0:0:
182,192,10822,1,0,0:0:0:0:
329,192,10904,1,0,0:0:0:0:
475,192,10985,1,0,0:0:0:0:
36,192,11067,1,0,0:0:0:0:
329,192,11067,1,0,0:0:0:0:
182,192,11148,1,0,0:0:0:0:
329,192,11230,1,0,0:0:0:0:
475,192,11311,1,0,0:0:0:0:
36,192,11393,1,0,0:0:0:0:
329,192,11393,1,0,0:0:0:0:
182,192,11474,1,0,0:0:0:0:
329,192,11556,1,0,0:0:0:0:
36,192,11556,1,0,0:0:0:0:
475,192,11637,1,0,0:0:0:0:
256,192,11719,1,0,0:0:0:0:
109,192,11719,1,0,0:0:0:0:
109,192,12697,1,0,0:0:0:0:
402,192,12697,1,0,0:0:0:0:
109,192,12860,1,0,0:0:0:0:
402,192,12860,1,0,0:0:0:0:
329,192,13023,1,0,0:0:0:0:
36,192,13023,1,0,0:0:0:0:
182,192,13023,1,0,0:0:0:0:
475,192,13186,1,0,0:0:0:0:
109,192,13349,1,0,0:0:0:0:
256,192,13349,1,0,0:0:0:0:
402,192,13349,1,0,0:0:0:0:
329,192,13512,1,0,0:0:0:0:
36,192,13512,1,0,0:0:0:0:
475,192,13675,1,0,0:0:0:0:
182,192,13675,1,0,0:0:0:0:
329,192,13838,1,0,0:0:0:0:
36,192,13838,1,0,0:0:0:0:
256,192,14002,1,0,0:0:0:0:
109,192,14002,1,0,0:0:0:0:
402,192,14002,1,0,0:0:0:0:
329,192,14165,1,0,0:0:0:0:
36,192,14165,1,0,0:0:0:0:
475,192,14328,1,0,0:0:0:0:
182,192,14328,1,0,0:0:0:0:
329,192,14491,1,0,0:0:0:0:
36,192,14491,1,0,0:0:0:0:
256,192,14654,1,0,0:0:0:0:
109,192,14654,1,0,0:0:0:0:
402,192,14654,1,0,0:0:0:0:
329,192,14817,1,0,0:0:0:0:
36,192,14817,1,0,0:0:0:0:
475,192,14980,1,0,0:0:0:0:
182,192,14980,1,0,0:0:0:0:
329,192,15143,1,0,0:0:0:0:
109,192,15143,1,0,0:0:0:0:
256,192,15306,1,0,0:0:0:0:
36,192,15306,1,0,0:0:0:0:
402,192,15306,1,0,0:0:0:0:
329,192,15469,1,0,0:0:0:0:
109,192,15469,1,0,0:0:0:0:
182,192,15632,1,0,0:0:0:0:
402,192,15632,1,0,0:0:0:0:
256,192,15795,1,0,0:0:0:0:
475,192,15795,1,0,0:0:0:0:
182,192,15958,1,0,0:0:0:0:
36,192,15958,1,0,0:0:0:0:
329,192,15958,1,0,0:0:0:0:
256,192,16121,1,0,0:0:0:0:
402,192,16121,1,0,0:0:0:0:
182,192,16284,1,0,0:0:0:0:
475,192,16284,1,0,0:0:0:0:
109,192,16447,1,0,0:0:0:0:
402,192,16447,1,0,0:0:0:0:
36,192,16610,1,0,0:0:0:0:
182,192,16610,1,0,0:0:0:0:
329,192,16610,1,0,0:0:0:0:
256,192,16773,1,0,0:0:0:0:
402,192,16773,1,0,0:0:0:0:
182,192,16936,1,0,0:0:0:0:
475,192,16936,1,0,0:0:0:0:
402,192,17099,1,0,0:0:0:0:
109,192,17099,1,0,0:0:0:0:
182,192,17262,1,0,0:0:0:0:
36,192,17262,1,0,0:0:0:0:
329,192,17262,1,0,0:0:0:0:
402,192,17425,1,0,0:0:0:0:
109,192,17425,1,0,0:0:0:0:
182,192,17588,1,0,0:0:0:0:
475,192,17588,1,0,0:0:0:0:
109,192,17752,1,0,0:0:0:0:
402,192,17752,1,0,0:0:0:0:
182,192,17915,1,0,0:0:0:0:
329,192,17915,1,0,0:0:0:0:
36,192,17915,1,0,0:0:0:0:
109,192,18078,1,0,0:0:0:0:
402,192,18078,1,0,0:0:0:0:
475,192,18241,1,0,0:0:0:0:
256,192,18241,1,0,0:0:0:0:
182,192,18404,1,0,0:0:0:0:
402,192,18404,1,0,0:0:0:0:
109,192,18567,1,0,0:0:0:0:
329,192,18567,1,0,0:0:0:0:
36,192,18567,1,0,0:0:0:0:
402,192,18730,1,0,0:0:0:0:
182,192,18730,1,0,0:0:0:0:
475,192,18893,1,0,0:0:0:0:
256,192,18893,1,0,0:0:0:0:
402,192,19056,1,0,0:0:0:0:
182,192,19056,1,0,0:0:0:0:
109,192,19219,1,0,0:0:0:0:
329,192,19219,1,0,0:0:0:0:
256,192,19219,1,0,0:0:0:0:
182,192,19382,1,0,0:0:0:0:
402,192,19382,1,0,0:0:0:0:
475,192,19545,1,0,0:0:0:0:
256,192,19545,1,0,0:0:0:0:
182,192,19708,1,0,0:0:0:0:
402,192,19708,1,0,0:0:0:0:
36,192,19871,1,0,0:0:0:0:
329,192,19871,1,0,0:0:0:0:
109,192,19871,1,0,0:0:0:0:
182,192,20034,1,0,0:0:0:0:
475,192,20034,1,0,0:0:0:0:
402,192,20197,1,0,0:0:0:0:
256,192,20197,1,0,0:0:0:0:
182,192,20360,1,0,0:0:0:0:
329,192,20360,1,0,0:0:0:0:
109,192,20523,1,0,0:0:0:0:
475,192,20523,1,0,0:0:0:0:
256,192,20523,1,0,0:0:0:0:
182,192,20686,1,0,0:0:0:0:
36,192,20686,1,0,0:0:0:0:
109,192,20849,1,0,0:0:0:0:
402,192,20849,1,0,0:0:0:0:
182,192,21012,1,0,0:0:0:0:
329,192,21012,1,0,0:0:0:0:
256,192,21175,1,0,0:0:0:0:
475,192,21175,1,0,0:0:0:0:
36,192,21175,1,0,0:0:0:0:
182,192,21338,1,0,0:0:0:0:
329,192,21338,1,0,0:0:0:0:
109,192,21502,1,0,0:0:0:0:
402,192,21502,1,0,0:0:0:0:
182,192,21665,1,0,0:0:0:0:
329,192,21665,1,0,0:0:0:0:
36,192,21828,1,0,0:0:0:0:
256,192,21828,1,0,0:0:0:0:
475,192,21828,1,0,0:0:0:0:
182,192,21991,1,0,0:0:0:0:
329,192,21991,1,0,0:0:0:0:
109,192,22154,1,0,0:0:0:0:
402,192,22154,1,0,0:0:0:0:
182,192,22317,1,0,0:0:0:0:
329,192,22317,1,0,0:0:0:0:
256,192,22480,1,0,0:0:0:0:
36,192,22480,1,0,0:0:0:0:
475,192,22480,1,0,0:0:0:0:
109,192,22643,1,0,0:0:0:0:
329,192,22643,1,0,0:0:0:0:
182,192,22806,1,0,0:0:0:0:
402,192,22806,1,0,0:0:0:0:
256,192,22969,1,0,0:0:0:0:
36,192,23458,1,0,0:0:0:0:
256,192,23458,1,0,0:0:0:0:
475,192,23458,1,0,0:0:0:0:
36,192,23621,1,0,0:0:0:0:
329,192,23621,1,0,0:0:0:0:
402,192,23784,1,0,0:0:0:0:
475,192,23784,1,0,0:0:0:0:
182,192,23784,1,0,0:0:0:0:
36,192,23947,1,0,0:0:0:0:
329,192,23947,1,0,0:0:0:0:
36,192,24110,1,0,0:0:0:0:
256,192,24110,1,0,0:0:0:0:
36,192,24273,1,0,0:0:0:0:
329,192,24273,1,0,0:0:0:0:
402,192,24436,1,0,0:0:0:0:
475,192,24436,1,0,0:0:0:0:
109,192,24436,1,0,0:0:0:0:
36,192,24599,1,0,0:0:0:0:
329,192,24599,1,0,0:0:0:0:
36,192,24762,1,0,0:0:0:0:
256,192,24762,1,0,0:0:0:0:
36,192,24925,1,0,0:0:0:0:
329,192,24925,1,0,0:0:0:0:
402,192,25088,1,0,0:0:0:0:
475,192,25088,1,0,0:0:0:0:
182,192,25088,1,0,0:0:0:0:
36,192,25252,1,0,0:0:0:0:
329,192,25252,1,0,0:0:0:0:
36,192,25415,1,0,0:0:0:0:
256,192,25415,1,0,0:0:0:0:
36,192,25578,1,0,0:0:0:0:
329,192,25578,1,0,0:0:0:0:
402,192,25741,1,0,0:0:0:0:
475,192,25741,1,0,0:0:0:0:
182,192,25741,1,0,0:0:0:0:
109,192,25904,1,0,0:0:0:0:
329,192,25904,1,0,0:0:0:0:
182,192,26067,1,0,0:0:0:0:
402,192,26067,1,0,0:0:0:0:
182,192,26230,1,0,0:0:0:0:
475,192,26230,1,0,0:0:0:0:
402,192,26393,1,0,0:0:0:0:
36,192,26393,1,0,0:0:0:0:
109,192,26393,1,0,0:0:0:0:
182,192,26556,1,0,0:0:0:0:
329,192,26556,1,0,0:0:0:0:
182,192,26719,1,0,0:0:0:0:
402,192,26719,1,0,0:0:0:0:
182,192,26882,1,0,0:0:0:0:
475,192,26882,1,0,0:0:0:0:
402,192,27045,1,0,0:0:0:0:
256,192,27045,1,0,0:0:0:0:
36,192,27045,1,0,0:0:0:0:
182,192,27208,1,0,0:0:0:0:
329,192,27208,1,0,0:0:0:0:
182,192,27371,1,0,0:0:0:0:
402,192,27371,1,0,0:0:0:0:
182,192,27534,1,0,0:0:0:0:
475,192,27534,1,0,0:0:0:0:
109,192,27697,1,0,0:0:0:0:
36,192,27697,1,0,0:0:0:0:
402,192,27697,1,0,0:0:0:0:
182,192,27860,1,0,0:0:0:0:
329,192,27860,1,0,0:0:0:0:
182,192,28023,1,0,0:0:0:0:
402,192,28023,1,0,0:0:0:0:
182,192,28186,1,0,0:0:0:0:
475,192,28186,1,0,0:0:0:0:
256,192,28349,1,0,0:0:0:0:
36,192,28349,1,0,0:0:0:0:
402,192,28349,1,0,0:0:0:0:
475,192,28512,1,0,0:0:0:0:
109,192,28512,1,0,0:0:0:0:
329,192,28675,1,0,0:0:0:0:
182,192,28675,1,0,0:0:0:0:
329,192,28838,1,0,0:0:0:0:
36,192,28838,1,0,0:0:0:0:
182,192,29002,1,0,0:0:0:0:
475,192,29002,1,0,0:0:0:0:
256,192,29002,1,0,0:0:0:0:
329,192,29165,1,0,0:0:0:0:
109,192,29165,1,0,0:0:0:0:
329,192,29328,1,0,0:0:0:0:
36,192,29328,1,0,0:0:0:0:
329,192,29491,1,0,0:0:0:0:
109,192,29491,1,0,0:0:0:0:
402,192,29654,1,0,0:0:0:0:
256,192,29654,1,0,0:0:0:0:
182,192,29654,1,0,0:0:0:0:
329,192,29817,1,0,0:0:0:0:
109,192,29817,1,0,0:0:0:0:
329,192,29980,1,0,0:0:0:0:
36,192,29980,1,0,0:0:0:0:
329,192,30143,1,0,0:0:0:0:
109,192,30143,1,0,0:0:0:0:
475,192,30306,1,0,0:0:0:0:
256,192,30306,1,0,0:0:0:0:
182,192,30306,1,0,0:0:0:0:
329,192,30469,1,0,0:0:0:0:
109,192,30469,1,0,0:0:0:0:
329,192,30632,1,0,0:0:0:0:
36,192,30632,1,0,0:0:0:0:
329,192,30795,1,0,0:0:0:0:
109,192,30795,1,0,0:0:0:0:
402,192,30958,1,0,0:0:0:0:
182,192,30958,1,0,0:0:0:0:
256,192,30958,1,0,0:0:0:0:
329,192,31121,1,0,0:0:0:0:
36,192,31121,1,0,0:0:0:0:
109,192,31203,1,0,0:0:0:0:
402,192,31203,1,0,0:0:0:0:
475,192,31284,1,0,0:0:0:0:
182,192,31284,1,0,0:0:0:0:
475,192,31447,1,0,0:0:0:0:
109,192,31447,1,0,0:0:0:0:
402,192,31610,1,0,0:0:0:0:
182,192,31610,1,0,0:0:0:0:
36,192,31610,1,0,0:0:0:0:
475,192,31773,1,0,0:0:0:0:
256,192,31773,1,0,0:0:0:0:
475,192,31936,1,0,0:0:0:0:
36,192,31936,1,0,0:0:0:0:
475,192,32099,1,0,0:0:0:0:
109,192,32099,1,0,0:0:0:0:
182,192,32262,1,0,0:0:0:0:
329,192,32262,1,0,0:0:0:0:
402,192,32262,1,0,0:0:0:0:
475,192,32425,1,0,0:0:0:0:
256,192,32425,1,0,0:0:0:0:
36,192,32588,1,0,0:0:0:0:
182,192,32588,1,0,0:0:0:0:
109,192,33567,1,0,0:0:0:0:
402,192,33567,1,0,0:0:0:0:
256,192,33567,1,0,0:0:0:0:
109,192,33730,1,0,0:0:0:0:
402,192,33730,1,0,0:0:0:0:
36,192,33893,1,0,0:0:0:0:
475,192,33893,1,0,0:0:0:0:
329,192,33893,128,0,34219:0:0:0:0:
182,192,33893,1,0,0:0:0:0:
109,192,34056,1,0,0:0:0:0:
402,192,34219,1,0,0:0:0:0:
256,192,34219,1,0,0:0:0:0:
36,192,34219,1,0,0:0:0:0:
475,192,34382,128,0,34545:0:0:0:0:
182,192,34382,1,0,0:0:0:0:
329,192,34545,128,0,34871:0:0:0:0:
109,192,34545,1,0,0:0:0:0:
36,192,34708,1,0,0:0:0:0:
182,192,34708,1,0,0:0:0:0:
256,192,34871,1,0,0:0:0:0:
402,192,34871,1,0,0:0:0:0:
109,192,34871,1,0,0:0:0:0:
475,192,35034,128,0,35197:0:0:0:0:
182,192,35034,1,0,0:0:0:0:
329,192,35197,128,0,35523:0:0:0:0:
109,192,35197,1,0,0:0:0:0:
36,192,35360,1,0,0:0:0:0:
182,192,35360,1,0,0:0:0:0:
475,192,35523,1,0,0:0:0:0:
109,192,35523,1,0,0:0:0:0:
475,192,35686,128,0,35849:0:0:0:0:
329,192,35686,1,0,0:0:0:0:
329,192,35849,128,0,36012:0:0:0:0:
182,192,35849,1,0,0:0:0:0:
182,192,36012,128,0,36175:0:0:0:0:
36,192,36012,1,0,0:0:0:0:
36,192,36175,128,0,36338:0:0:0:0:
329,192,36175,1,0,0:0:0:0:
475,192,36175,1,0,0:0:0:0:
109,192,36338,128,0,36828:0:0:0:0:
402,192,36338,1,0,0:0:0:0:
182,192,36502,1,0,0:0:0:0:
329,192,36502,1,0,0:0:0:0:
256,192,36665,1,0,0:0:0:0:
182,192,36828,1,0,0:0:0:0:
329,192,36828,1,0,0:0:0:0:
475,192,36828,1,0,0:0:0:0:
402,192,36991,128,0,37154:0:0:0:0:
36,192,36991,1,0,0:0:0:0:
256,192,37154,128,0,37480:0:0:0:0:
109,192,37154,1,0,0:0:0:0:
182,192,37317,1,0,0:0:0:0:
402,192,37317,1,0,0:0:0:0:
329,192,37480,1,0,0:0:0:0:
109,192,37480,1,0,0:0:0:0:
475,192,37480,1,0,0:0:0:0:
402,192,37643,128,0,37806:0:0:0:0:
36,192,37643,1,0,0:0:0:0:
256,192,37806,128,0,38132:0:0:0:0:
109,192,37806,1,0,0:0:0:0:
475,192,37969,1,0,0:0:0:0:
182,192,37969,1,0,0:0:0:0:
402,192,38132,1,0,0:0:0:0:
109,192,38132,1,0,0:0:0:0:
402,192,38295,128,0,38458:0:0:0:0:
256,192,38295,1,0,0:0:0:0:
256,192,38458,128,0,38621:0:0:0:0:
109,192,38458,1,0,0:0:0:0:
109,192,38621,128,0,38784:0:0:0:0:
475,192,38784,128,0,39110:0:0:0:0:
402,192,38784,1,0,0:0:0:0:
256,192,38784,1,0,0:0:0:0:
329,192,38947,1,0,0:0:0:0:
36,192,39110,128,0,39436:0:0:0:0:
109,192,39110,1,0,0:0:0:0:
256,192,39110,1,0,0:0:0:0:
329,192,39273,1,0,0:0:0:0:
402,192,39436,1,0,0:0:0:0:
109,192,39436,1,0,0:0:0:0:
256,192,39436,1,0,0:0:0:0:
475,192,39599,128,0,39762:0:0:0:0:
182,192,39599,1,0,0:0:0:0:
36,192,39762,128,0,40088:0:0:0:0:
256,192,39762,1,0,0:0:0:0:
182,192,39925,1,0,0:0:0:0:
329,192,39925,1,0,0:0:0:0:
109,192,40088,1,0,0:0:0:0:
256,192,40088,1,0,0:0:0:0:
402,192,40088,1,0,0:0:0:0:
475,192,40252,128,0,40415:0:0:0:0:
182,192,40252,1,0,0:0:0:0:
36,192,40415,128,0,40741:0:0:0:0:
329,192,40415,1,0,0:0:0:0:
182,192,40578,1,0,0:0:0:0:
402,192,40578,1,0,0:0:0:0:
475,192,40741,1,0,0:0:0:0:
256,192,40741,1,0,0:0:0:0:
475,192,40904,128,0,41067:0:0:0:0:
182,192,40904,1,0,0:0:0:0:
182,192,41067,128,0,41230:0:0:0:0:
329,192,41067,1,0,0:0:0:0:
329,192,41230,128,0,41393:0:0:0:0:
36,192,41230,1,0,0:0:0:0:
36,192,41393,128,0,41556:0:0:0:0:
475,192,41556,128,0,42045:0:0:0:0:
256,192,41556,1,0,0:0:0:0:
329,192,41719,1,0,0:0:0:0:
182,192,41719,1,0,0:0:0:0:
402,192,41882,1,0,0:0:0:0:
109,192,41882,1,0,0:0:0:0:
329,192,42045,1,0,0:0:0:0:
182,192,42045,1,0,0:0:0:0:
36,192,42045,1,0,0:0:0:0:
402,192,42208,128,0,42371:0:0:0:0:
256,192,42208,1,0,0:0:0:0:
109,192,42371,128,0,42697:0:0:0:0:
329,192,42371,1,0,0:0:0:0:
182,192,42534,1,0,0:0:0:0:
402,192,42534,1,0,0:0:0:0:
256,192,42697,1,0,0:0:0:0:
36,192,42697,1,0,0:0:0:0:
475,192,42697,1,0,0:0:0:0:
182,192,42860,1,0,0:0:0:0:
402,192,42860,1,0,0:0:0:0:
36,192,43023,1,0,0:0:0:0:
329,192,43023,1,0,0:0:0:0:
109,192,43105,1,0,0:0:0:0:
402,192,43105,1,0,0:0:0:0:
475,192,43186,1,0,0:0:0:0:
182,192,43186,1,0,0:0:0:0:
402,192,43268,1,0,0:0:0:0:
109,192,43268,1,0,0:0:0:0:
329,192,43349,1,0,0:0:0:0:
36,192,43349,1,0,0:0:0:0:
182,192,43512,1,0,0:0:0:0:
402,192,43512,1,0,0:0:0:0:
475,192,43675,1,0,0:0:0:0:
256,192,43675,1,0,0:0:0:0:
402,192,43757,1,0,0:0:0:0:
182,192,43757,1,0,0:0:0:0:
329,192,43838,1,0,0:0:0:0:
109,192,43838,1,0,0:0:0:0:
256,192,43920,1,0,0:0:0:0:
36,192,43920,1,0,0:0:0:0:
475,192,44328,128,0,44654:0:0:0:0:
109,192,44328,1,0,0:0:0:0:
182,192,44328,1,0,0:0:0:0:
402,192,44328,1,0,0:0:0:0:
256,192,44491,1,0,0:0:0:0:
402,192,44654,1,0,0:0:0:0:
36,192,44654,1,0,0:0:0:0:
109,192,44654,1,0,0:0:0:0:
329,192,44817,128,0,44980:0:0:0:0:
182,192,44817,1,0,0:0:0:0:
475,192,44980,128,0,45306:0:0:0:0:
256,192,44980,1,0,0:0:0:0:
36,192,44980,1,0,0:0:0:0:
109,192,44980,1,0,0:0:0:0:
329,192,45143,1,0,0:0:0:0:
109,192,45306,1,0,0:0:0:0:
182,192,45306,1,0,0:0:0:0:
402,192,45306,1,0,0:0:0:0:
329,192,45469,128,0,45632:0:0:0:0:
36,192,45469,1,0,0:0:0:0:
475,192,45632,128,0,45958:0:0:0:0:
182,192,45632,1,0,0:0:0:0:
256,192,45632,1,0,0:0:0:0:
402,192,45632,1,0,0:0:0:0:
329,192,45795,1,0,0:0:0:0:
182,192,45958,1,0,0:0:0:0:
109,192,45958,1,0,0:0:0:0:
402,192,45958,1,0,0:0:0:0:
329,192,46121,128,0,46284:0:0:0:0:
36,192,46121,1,0,0:0:0:0:
475,192,46284,128,0,46447:0:0:0:0:
182,192,46284,1,0,0:0:0:0:
256,192,46284,1,0,0:0:0:0:
402,192,46284,1,0,0:0:0:0:
36,192,46447,128,0,46610:0:0:0:0:
329,192,46447,1,0,0:0:0:0:
402,192,46529,1,0,0:0:0:0:
182,192,46610,128,0,46773:0:0:0:0:
475,192,46610,1,0,0:0:0:0:
256,192,46610,1,0,0:0:0:0:
329,192,46773,128,0,47262:0:0:0:0:
402,192,46773,1,0,0:0:0:0:
475,192,46936,1,0,0:0:0:0:
36,192,46936,1,0,0:0:0:0:
109,192,46936,1,0,0:0:0:0:
256,192,47099,1,0,0:0:0:0:
109,192,47262,1,0,0:0:0:0:
182,192,47262,1,0,0:0:0:0:
402,192,47262,1,0,0:0:0:0:
36,192,47425,128,0,47588:0:0:0:0:
329,192,47425,1,0,0:0:0:0:
182,192,47588,128,0,47915:0:0:0:0:
256,192,47588,1,0,0:0:0:0:
402,192,47588,1,0,0:0:0:0:
475,192,47588,1,0,0:0:0:0:
36,192,47752,1,0,0:0:0:0:
256,192,47915,1,0,0:0:0:0:
329,192,47915,1,0,0:0:0:0:
109,192,47915,1,0,0:0:0:0:
36,192,48078,128,0,48241:0:0:0:0:
475,192,48078,1,0,0:0:0:0:
182,192,48241,128,0,48567:0:0:0:0:
329,192,48241,1,0,0:0:0:0:
402,192,48241,1,0,0:0:0:0:
109,192,48241,1,0,0:0:0:0:
256,192,48404,1,0,0:0:0:0:
329,192,48485,1,0,0:0:0:0:
475,192,48567,1,0,0:0:0:0:
402,192,48567,1,0,0:0:0:0:
109,192,48567,1,0,0:0:0:0:
36,192,48730,128,0,48893:0:0:0:0:
329,192,48730,1,0,0:0:0:0:
182,192,48730,1,0,0:0:0:0:
182,192,48893,128,0,49056:0:0:0:0:
256,192,48893,1,0,0:0:0:0:
402,192,48893,1,0,0:0:0:0:
475,192,49056,128,0,49219:0:0:0:0:
36,192,49056,1,0,0:0:0:0:
109,192,49137,1,0,0:0:0:0:
329,192,49219,128,0,49545:0:0:0:0:
182,192,49219,1,0,0:0:0:0:
402,192,49219,1,0,0:0:0:0:
36,192,49300,1,0,0:0:0:0:
182,192,49382,1,0,0:0:0:0:
36,192,49545,1,0,0:0:0:0:
109,192,49545,1,0,0:0:0:0:
402,192,49545,1,0,0:0:0:0:
475,192,49545,1,0,0:0:0:0:
256,192,49545,1,0,0:0:0:0:
182,192,49708,1,0,0:0:0:0:
36,192,49871,1,0,0:0:0:0:
109,192,49871,1,0,0:0:0:0:
256,192,49871,1,0,0:0:0:0:
402,192,49871,1,0,0:0:0:0:
475,192,49871,1,0,0:0:0:0:
329,192,50034,1,0,0:0:0:0:
109,192,50197,1,0,0:0:0:0:
36,192,50197,1,0,0:0:0:0:
402,192,50197,1,0,0:0:0:0:
475,192,50197,1,0,0:0:0:0:
182,192,50197,1,0,0:0:0:0:
256,192,50360,1,0,0:0:0:0:
109,192,50523,1,0,0:0:0:0:
36,192,50523,1,0,0:0:0:0:
329,192,50523,1,0,0:0:0:0:
402,192,50523,1,0,0:0:0:0:
475,192,50523,1,0,0:0:0:0:
182,192,50686,1,0,0:0:0:0:
256,192,50849,1,0,0:0:0:0:
329,192,50849,1,0,0:0:0:0:
402,192,50849,1,0,0:0:0:0:
36,192,50849,1,0,0:0:0:0:
475,192,50849,1,0,0:0:0:0:
182,192,51012,1,0,0:0:0:0:
109,192,51175,1,0,0:0:0:0:
36,192,51175,1,0,0:0:0:0:
329,192,51175,1,0,0:0:0:0:
475,192,51175,1,0,0:0:0:0:
402,192,51175,1,0,0:0:0:0:
256,192,51338,1,0,0:0:0:0:
182,192,51502,1,0,0:0:0:0:
109,192,51502,1,0,0:0:0:0:
36,192,51502,1,0,0:0:0:0:
402,192,51502,1,0,0:0:0:0:
475,192,51502,1,0,0:0:0:0:
256,192,51665,1,0,0:0:0:0:
329,192,51746,1,0,0:0:0:0:
182,192,51746,1,0,0:0:0:0:
109,192,51828,1,0,0:0:0:0:
36,192,51828,1,0,0:0:0:0:
402,192,51828,1,0,0:0:0:0:
475,192,51828,1,0,0:0:0:0:
182,192,51991,1,0,0:0:0:0:
329,192,51991,1,0,0:0:0:0:
256,192,51991,1,0,0:0:0:0:
402,192,52154,1,0,0:0:0:0:
475,192,52154,1,0,0:0:0:0:
109,192,52235,1,0,0:0:0:0:
36,192,52235,1,0,0:0:0:0:
402,192,52317,1,0,0:0:0:0:
329,192,52317,1,0,0:0:0:0:
182,192,52398,1,0,0:0:0:0:
109,192,52398,1,0,0:0:0:0:
256,192,52480,1,0,0:0:0:0:
329,192,52480,1,0,0:0:0:0:
109,192,52561,1,0,0:0:0:0:
182,192,52561,1,0,0:0:0:0:
329,192,52643,1,0,0:0:0:0:
402,192,52643,1,0,0:0:0:0:
109,192,52724,1,0,0:0:0:0:
36,192,52724,1,0,0:0:0:0:
402,192,52806,1,0,0:0:0:0:
475,192,52806,1,0,0:0:0:0:
182,192,52887,1,0,0:0:0:0:
109,192,52887,1,0,0:0:0:0:
402,192,52969,1,0,0:0:0:0:
329,192,52969,1,0,0:0:0:0:
256,192,53050,1,0,0:0:0:0:
182,192,53050,1,0,0:0:0:0:
329,192,53132,1,0,0:0:0:0:
402,192,53132,1,0,0:0:0:0:
182,192,53213,1,0,0:0:0:0:
109,192,53213,1,0,0:0:0:0:
402,192,53295,1,0,0:0:0:0:
475,192,53295,1,0,0:0:0:0:
109,192,53377,1,0,0:0:0:0:
36,192,53377,1,0,0:0:0:0:
475,192,53458,1,0,0:0:0:0:
329,192,53540,1,0,0:0:0:0:
182,192,53621,1,0,0:0:0:0:
36,192,53703,1,0,0:0:0:0:
182,192,53784,1,0,0:0:0:0:
329,192,53866,1,0,0:0:0:0:
475,192,53947,1,0,0:0:0:0:
329,192,54029,1,0,0:0:0:0:
182,192,54110,1,0,0:0:0:0:
36,192,54192,1,0,0:0:0:0:
36,192,54762,128,0,56393:0:0:0:0:
475,192,54762,1,0,0:0:0:0:
182,192,54762,1,0,0:0:0:0:
402,192,54925,1,0,0:0:0:0:
329,192,55088,1,0,0:0:0:0:
256,192,55252,1,0,0:0:0:0:
109,192,55252,1,0,0:0:0:0:
182,192,55415,1,0,0:0:0:0:
475,192,55415,1,0,0:0:0:0:
329,192,55415,1,0,0:0:0:0:
109,192,55578,1,0,0:0:0:0:
475,192,55741,1,0,0:0:0:0:
256,192,55741,1,0,0:0:0:0:
402,192,55904,1,0,0:0:0:0:
329,192,56067,1,0,0:0:0:0:
256,192,56230,1,0,0:0:0:0:
182,192,56393,1,0,0:0:0:0:
329,192,56393,1,0,0:0:0:0:
109,192,56556,1,0,0:0:0:0:
475,192,56719,128,0,57045:0:0:0:0:
36,192,56719,1,0,0:0:0:0:
182,192,56719,1,0,0:0:0:0:
329,192,56719,1,0,0:0:0:0:
256,192,56882,1,0,0:0:0:0:
109,192,56882,1,0,0:0:0:0:
329,192,57045,128,0,57371:0:0:0:0:
182,192,57045,1,0,0:0:0:0:
109,192,57127,1,0,0:0:0:0:
36,192,57208,1,0,0:0:0:0:
109,192,57371,128,0,57616:0:0:0:0:
402,192,57371,1,0,0:0:0:0:
182,192,57371,1,0,0:0:0:0:
475,192,57534,1,0,0:0:0:0:
256,192,57616,128,0,57860:0:0:0:0:
36,192,57697,1,0,0:0:0:0:
402,192,57860,128,0,58349:0:0:0:0:
109,192,57860,1,0,0:0:0:0:
475,192,57860,1,0,0:0:0:0:
182,192,58023,1,0,0:0:0:0:
329,192,58023,1,0,0:0:0:0:
36,192,58023,1,0,0:0:0:0:
256,192,58186,1,0,0:0:0:0:
329,192,58349,1,0,0:0:0:0:
36,192,58349,1,0,0:0:0:0:
182,192,58431,1,0,0:0:0:0:
402,192,58512,1,0,0:0:0:0:
256,192,58594,1,0,0:0:0:0:
475,192,58675,1,0,0:0:0:0:
36,192,58838,1,0,0:0:0:0:
256,192,58920,1,0,0:0:0:0:
109,192,59002,1,0,0:0:0:0:
475,192,59002,1,0,0:0:0:0:
182,192,59165,1,0,0:0:0:0:
256,192,59328,1,0,0:0:0:0:
36,192,59328,1,0,0:0:0:0:
402,192,59328,1,0,0:0:0:0:
329,192,59491,1,0,0:0:0:0:
182,192,59491,1,0,0:0:0:0:
475,192,59572,1,0,0:0:0:0:
256,192,59654,128,0,59817:0:0:0:0:
109,192,59654,1,0,0:0:0:0:
402,192,59735,1,0,0:0:0:0:
182,192,59817,128,0,59980:0:0:0:0:
36,192,59817,1,0,0:0:0:0:
329,192,59898,1,0,0:0:0:0:
109,192,59980,128,0,60632:0:0:0:0:
475,192,59980,1,0,0:0:0:0:
256,192,60143,1,0,0:0:0:0:
329,192,60306,1,0,0:0:0:0:
402,192,60469,1,0,0:0:0:0:
256,192,60469,1,0,0:0:0:0:
36,192,60632,1,0,0:0:0:0:
182,192,60632,1,0,0:0:0:0:
475,192,60632,1,0,0:0:0:0:
329,192,60795,1,0,0:0:0:0:
256,192,60958,1,0,0:0:0:0:
109,192,60958,1,0,0:0:0:0:
402,192,61121,1,0,0:0:0:0:
329,192,61284,1,0,0:0:0:0:
475,192,61447,1,0,0:0:0:0:
402,192,61610,1,0,0:0:0:0:
109,192,61610,1,0,0:0:0:0:
256,192,61773,1,0,0:0:0:0:
402,192,61936,128,0,62262:0:0:0:0:
182,192,61936,1,0,0:0:0:0:
36,192,61936,1,0,0:0:0:0:
475,192,61936,1,0,0:0:0:0:
329,192,62099,1,0,0:0:0:0:
109,192,62099,1,0,0:0:0:0:
256,192,62262,1,0,0:0:0:0:
329,192,62344,1,0,0:0:0:0:
109,192,62425,128,0,62588:0:0:0:0:
402,192,62425,1,0,0:0:0:0:
475,192,62507,1,0,0:0:0:0:
256,192,62588,128,0,63241:0:0:0:0:
329,192,62588,1,0,0:0:0:0:
36,192,62588,1,0,0:0:0:0:
402,192,62752,1,0,0:0:0:0:
109,192,62833,1,0,0:0:0:0:
475,192,62915,1,0,0:0:0:0:
36,192,63078,1,0,0:0:0:0:
402,192,63078,1,0,0:0:0:0:
109,192,63241,1,0,0:0:0:0:
475,192,63241,1,0,0:0:0:0:
329,192,63241,1,0,0:0:0:0:
182,192,63404,1,0,0:0:0:0:
402,192,63567,1,0,0:0:0:0:
36,192,63567,1,0,0:0:0:0:
109,192,63648,1,0,0:0:0:0:
182,192,63730,1,0,0:0:0:0:
475,192,63730,1,0,0:0:0:0:
329,192,63730,1,0,0:0:0:0:
36,192,63893,128,0,64137:0:0:0:0:
475,192,63893,128,0,64219:0:0:0:0:
36,192,64219,128,0,64871:0:0:0:0:
329,192,64219,128,0,64463:0:0:0:0:
329,192,64545,128,0,64871:0:0:0:0:
182,192,64871,128,0,64993:0:0:0:0:
475,192,65197,1,0,0:0:0:0:
329,192,65197,1,0,0:0:0:0:
36,192,65197,1,0,0:0:0:0:
182,192,65197,1,0,0:0:0:0:
402,192,65360,1,0,0:0:0:0:
256,192,65360,1,0,0:0:0:0:
329,192,65523,1,0,0:0:0:0:
182,192,65523,1,0,0:0:0:0:
36,192,65523,1,0,0:0:0:0:
256,192,65686,1,0,0:0:0:0:
109,192,65686,1,0,0:0:0:0:
182,192,65849,1,0,0:0:0:0:
329,192,65849,1,0,0:0:0:0:
109,192,66012,1,0,0:0:0:0:
402,192,66012,1,0,0:0:0:0:
256,192,66012,1,0,0:0:0:0:
36,192,66175,1,0,0:0:0:0:
182,192,66175,1,0,0:0:0:0:
329,192,66175,1,0,0:0:0:0:
475,192,66338,1,0,0:0:0:0:
256,192,66338,1,0,0:0:0:0:
402,192,66502,1,0,0:0:0:0:
182,192,66502,1,0,0:0:0:0:
36,192,66502,1,0,0:0:0:0:
329,192,66665,1,0,0:0:0:0:
109,192,66665,1,0,0:0:0:0:
182,192,66746,1,0,0:0:0:0:
256,192,66828,1,0,0:0:0:0:
402,192,66828,1,0,0:0:0:0:
36,192,66828,1,0,0:0:0:0:
182,192,66991,1,0,0:0:0:0:
475,192,66991,1,0,0:0:0:0:
329,192,66991,1,0,0:0:0:0:
109,192,67154,1,0,0:0:0:0:
402,192,67154,1,0,0:0:0:0:
256,192,67154,1,0,0:0:0:0:
36,192,67317,1,0,0:0:0:0:
329,192,67317,1,0,0:0:0:0:
182,192,67317,1,0,0:0:0:0:
475,192,67480,1,0,0:0:0:0:
256,192,67480,1,0,0:0:0:0:
109,192,67480,1,0,0:0:0:0:
182,192,67561,1,0,0:0:0:0:
402,192,67643,1,0,0:0:0:0:
36,192,67643,1,0,0:0:0:0:
329,192,67806,1,0,0:0:0:0:
109,192,67806,1,0,0:0:0:0:
475,192,67806,1,0,0:0:0:0:
256,192,67806,1,0,0:0:0:0:
402,192,67969,1,0,0:0:0:0:
182,192,67969,1,0,0:0:0:0:
256,192,68050,1,0,0:0:0:0:
475,192,68132,1,0,0:0:0:0:
329,192,68132,1,0,0:0:0:0:
109,192,68132,1,0,0:0:0:0:
36,192,68295,1,0,0:0:0:0:
256,192,68295,1,0,0:0:0:0:
182,192,68295,1,0,0:0:0:0:
109,192,68458,1,0,0:0:0:0:
402,192,68458,1,0,0:0:0:0:
182,192,68621,1,0,0:0:0:0:
329,192,68621,1,0,0:0:0:0:
475,192,68621,1,0,0:0:0:0:
256,192,68784,1,0,0:0:0:0:
109,192,68784,1,0,0:0:0:0:
36,192,68784,1,0,0:0:0:0:
329,192,68947,1,0,0:0:0:0:
182,192,68947,1,0,0:0:0:0:
402,192,69110,1,0,0:0:0:0:
109,192,69110,1,0,0:0:0:0:
256,192,69110,1,0,0:0:0:0:
475,192,69273,1,0,0:0:0:0:
329,192,69273,1,0,0:0:0:0:
182,192,69355,1,0,0:0:0:0:
36,192,69436,1,0,0:0:0:0:
256,192,69436,1,0,0:0:0:0:
402,192,69436,1,0,0:0:0:0:
109,192,69599,1,0,0:0:0:0:
329,192,69599,1,0,0:0:0:0:
475,192,69599,1,0,0:0:0:0:
182,192,69762,1,0,0:0:0:0:
475,192,69762,1,0,0:0:0:0:
36,192,69762,1,0,0:0:0:0:
256,192,69925,1,0,0:0:0:0:
475,192,69925,1,0,0:0:0:0:
329,192,70088,1,0,0:0:0:0:
36,192,70088,1,0,0:0:0:0:
182,192,70088,1,0,0:0:0:0:
475,192,70088,1,0,0:0:0:0:
109,192,70170,1,0,0:0:0:0:
402,192,70252,1,0,0:0:0:0:
256,192,70252,1,0,0:0:0:0:
36,192,70252,1,0,0:0:0:0:
182,192,70333,1,0,0:0:0:0:
475,192,70415,1,0,0:0:0:0:
109,192,70415,1,0,0:0:0:0:
256,192,70415,1,0,0:0:0:0:
402,192,70415,1,0,0:0:0:0:
329,192,70578,1,0,0:0:0:0:
36,192,70578,1,0,0:0:0:0:
402,192,70741,1,0,0:0:0:0:
182,192,70741,1,0,0:0:0:0:
475,192,70741,1,0,0:0:0:0:
256,192,70904,1,0,0:0:0:0:
109,192,70904,1,0,0:0:0:0:
329,192,71067,1,0,0:0:0:0:
36,192,71067,1,0,0:0:0:0:
182,192,71230,1,0,0:0:0:0:
402,192,71230,1,0,0:0:0:0:
475,192,71230,1,0,0:0:0:0:
256,192,71393,1,0,0:0:0:0:
36,192,71393,1,0,0:0:0:0:
329,192,71393,1,0,0:0:0:0:
109,192,71556,1,0,0:0:0:0:
475,192,71556,1,0,0:0:0:0:
182,192,71719,1,0,0:0:0:0:
402,192,71719,1,0,0:0:0:0:
36,192,71882,1,0,0:0:0:0:
256,192,71882,1,0,0:0:0:0:
475,192,71963,1,0,0:0:0:0:
109,192,72045,1,0,0:0:0:0:
329,192,72045,1,0,0:0:0:0:
182,192,72045,1,0,0:0:0:0:
256,192,72208,1,0,0:0:0:0:
36,192,72208,1,0,0:0:0:0:
402,192,72208,1,0,0:0:0:0:
329,192,72371,1,0,0:0:0:0:
109,192,72371,1,0,0:0:0:0:
475,192,72371,1,0,0:0:0:0:
182,192,72534,1,0,0:0:0:0:
402,192,72534,1,0,0:0:0:0:
36,192,72534,1,0,0:0:0:0:
256,192,72697,1,0,0:0:0:0:
109,192,72697,1,0,0:0:0:0:
475,192,72697,1,0,0:0:0:0:
329,192,72779,1,0,0:0:0:0:
402,192,72860,1,0,0:0:0:0:
182,192,72860,1,0,0:0:0:0:
36,192,72860,1,0,0:0:0:0:
475,192,73023,1,0,0:0:0:0:
109,192,73023,1,0,0:0:0:0:
256,192,73023,1,0,0:0:0:0:
36,192,73023,1,0,0:0:0:0:
329,192,73186,1,0,0:0:0:0:
182,192,73186,1,0,0:0:0:0:
36,192,73349,1,0,0:0:0:0:
256,192,73349,1,0,0:0:0:0:
475,192,73349,1,0,0:0:0:0:
182,192,73512,1,0,0:0:0:0:
329,192,73512,1,0,0:0:0:0:
402,192,73675,1,0,0:0:0:0:
109,192,73675,1,0,0:0:0:0:
36,192,73675,1,0,0:0:0:0:
256,192,73838,1,0,0:0:0:0:
475,192,73838,1,0,0:0:0:0:
36,192,74002,1,0,0:0:0:0:
402,192,74002,1,0,0:0:0:0:
329,192,74002,1,0,0:0:0:0:
182,192,74165,1,0,0:0:0:0:
109,192,74165,1,0,0:0:0:0:
256,192,74165,1,0,0:0:0:0:
475,192,74328,1,0,0:0:0:0:
36,192,74328,1,0,0:0:0:0:
329,192,74491,1,0,0:0:0:0:
182,192,74491,1,0,0:0:0:0:
256,192,74491,1,0,0:0:0:0:
402,192,74654,1,0,0:0:0:0:
109,192,74654,1,0,0:0:0:0:
182,192,74735,1,0,0:0:0:0:
256,192,74817,1,0,0:0:0:0:
36,192,74817,1,0,0:0:0:0:
475,192,74980,1,0,0:0:0:0:
109,192,74980,1,0,0:0:0:0:
182,192,74980,1,0,0:0:0:0:
402,192,74980,1,0,0:0:0:0:
329,192,75143,1,0,0:0:0:0:
36,192,75143,1,0,0:0:0:0:
182,192,75306,1,0,0:0:0:0:
475,192,75306,1,0,0:0:0:0:
329,192,75306,1,0,0:0:0:0:
36,192,75469,1,0,0:0:0:0:
182,192,75469,1,0,0:0:0:0:
256,192,75632,1,0,0:0:0:0:
475,192,75632,1,0,0:0:0:0:
329,192,75632,1,0,0:0:0:0:
109,192,75632,1,0,0:0:0:0:
475,192,75795,1,0,0:0:0:0:
182,192,75795,1,0,0:0:0:0:
109,192,75958,1,0,0:0:0:0:
402,192,75958,1,0,0:0:0:0:
256,192,75958,1,0,0:0:0:0:
182,192,76121,1,0,0:0:0:0:
36,192,76121,1,0,0:0:0:0:
329,192,76284,1,0,0:0:0:0:
475,192,76284,1,0,0:0:0:0:
402,192,76447,1,0,0:0:0:0:
109,192,76447,1,0,0:0:0:0:
256,192,76447,1,0,0:0:0:0:
36,192,76610,1,0,0:0:0:0:
475,192,76610,1,0,0:0:0:0:
329,192,76610,1,0,0:0:0:0:
256,192,76773,1,0,0:0:0:0:
109,192,76773,1,0,0:0:0:0:
475,192,76936,1,0,0:0:0:0:
182,192,76936,1,0,0:0:0:0:
402,192,76936,1,0,0:0:0:0:
109,192,77099,1,0,0:0:0:0:
329,192,77099,1,0,0:0:0:0:
256,192,77181,1,0,0:0:0:0:
182,192,77262,1,0,0:0:0:0:
402,192,77262,1,0,0:0:0:0:
36,192,77262,1,0,0:0:0:0:
329,192,77425,1,0,0:0:0:0:
109,192,77425,1,0,0:0:0:0:
475,192,77425,1,0,0:0:0:0:
402,192,77588,1,0,0:0:0:0:
256,192,77588,1,0,0:0:0:0:
182,192,77588,1,0,0:0:0:0:
36,192,77752,1,0,0:0:0:0:
329,192,77752,1,0,0:0:0:0:
475,192,77752,1,0,0:0:0:0:
182,192,77915,1,0,0:0:0:0:
402,192,77915,1,0,0:0:0:0:
109,192,77915,1,0,0:0:0:0:
256,192,77996,1,0,0:0:0:0:
329,192,78078,1,0,0:0:0:0:
36,192,78078,1,0,0:0:0:0:
475,192,78078,1,0,0:0:0:0:
475,192,78241,1,0,0:0:0:0:
182,192,78241,1,0,0:0:0:0:
329,192,78241,1,0,0:0:0:0:
36,192,78241,1,0,0:0:0:0:
402,192,78404,1,0,0:0:0:0:
109,192,78404,1,0,0:0:0:0:
256,192,78567,1,0,0:0:0:0:
475,192,78567,1,0,0:0:0:0:
36,192,78567,1,0,0:0:0:0:
109,192,78730,1,0,0:0:0:0:
329,192,78730,1,0,0:0:0:0:
36,192,78893,1,0,0:0:0:0:
182,192,78893,1,0,0:0:0:0:
329,192,79056,1,0,0:0:0:0:
475,192,79056,1,0,0:0:0:0:
109,192,79056,1,0,0:0:0:0:
182,192,79219,1,0,0:0:0:0:
402,192,79219,1,0,0:0:0:0:
256,192,79219,1,0,0:0:0:0:
475,192,79382,1,0,0:0:0:0:
109,192,79382,1,0,0:0:0:0:
402,192,79545,1,0,0:0:0:0:
182,192,79545,1,0,0:0:0:0:
36,192,79545,1,0,0:0:0:0:
256,192,79708,1,0,0:0:0:0:
475,192,79708,1,0,0:0:0:0:
329,192,79790,1,0,0:0:0:0:
109,192,79871,1,0,0:0:0:0:
402,192,79871,1,0,0:0:0:0:
182,192,79871,1,0,0:0:0:0:
36,192,80034,1,0,0:0:0:0:
256,192,80034,1,0,0:0:0:0:
475,192,80034,1,0,0:0:0:0:
329,192,80197,1,0,0:0:0:0:
109,192,80197,1,0,0:0:0:0:
402,192,80197,1,0,0:0:0:0:
36,192,80197,1,0,0:0:0:0:
182,192,80360,1,0,0:0:0:0:
36,192,80360,1,0,0:0:0:0:
475,192,80360,1,0,0:0:0:0:
402,192,80523,1,0,0:0:0:0:
36,192,80523,1,0,0:0:0:0:
256,192,80523,1,0,0:0:0:0:
182,192,80605,1,0,0:0:0:0:
109,192,80686,1,0,0:0:0:0:
329,192,80686,1,0,0:0:0:0:
475,192,80686,1,0,0:0:0:0:
256,192,80768,1,0,0:0:0:0:
36,192,80849,1,0,0:0:0:0:
475,192,80849,1,0,0:0:0:0:
329,192,80849,1,0,0:0:0:0:
182,192,80849,1,0,0:0:0:0:
402,192,81012,1,0,0:0:0:0:
256,192,81012,1,0,0:0:0:0:
36,192,81175,1,0,0:0:0:0:
329,192,81175,1,0,0:0:0:0:
475,192,81175,1,0,0:0:0:0:
182,192,81338,1,0,0:0:0:0:
402,192,81338,1,0,0:0:0:0:
329,192,81502,1,0,0:0:0:0:
109,192,81502,1,0,0:0:0:0:
475,192,81665,1,0,0:0:0:0:
256,192,81665,1,0,0:0:0:0:
36,192,81665,1,0,0:0:0:0:
109,192,81828,1,0,0:0:0:0:
402,192,81828,1,0,0:0:0:0:
329,192,81828,1,0,0:0:0:0:
256,192,81991,1,0,0:0:0:0:
182,192,81991,1,0,0:0:0:0:
402,192,82154,1,0,0:0:0:0:
109,192,82154,1,0,0:0:0:0:
475,192,82154,1,0,0:0:0:0:
36,192,82317,1,0,0:0:0:0:
329,192,82317,1,0,0:0:0:0:
256,192,82398,1,0,0:0:0:0:
182,192,82480,1,0,0:0:0:0:
475,192,82480,1,0,0:0:0:0:
402,192,82480,1,0,0:0:0:0:
329,192,82643,1,0,0:0:0:0:
109,192,82643,1,0,0:0:0:0:
36,192,82643,1,0,0:0:0:0:
475,192,82806,1,0,0:0:0:0:
256,192,82806,1,0,0:0:0:0:
182,192,82806,1,0,0:0:0:0:
109,192,82969,1,0,0:0:0:0:
402,192,82969,1,0,0:0:0:0:
329,192,82969,1,0,0:0:0:0:
256,192,83132,1,0,0:0:0:0:
475,192,83132,1,0,0:0:0:0:
182,192,83132,1,0,0:0:0:0:
329,192,83213,1,0,0:0:0:0:
402,192,83295,1,0,0:0:0:0:
109,192,83295,1,0,0:0:0:0:
36,192,83295,1,0,0:0:0:0:
329,192,83458,1,0,0:0:0:0:
475,192,83458,1,0,0:0:0:0:
36,192,83458,1,0,0:0:0:0:
256,192,83458,1,0,0:0:0:0:
182,192,83621,1,0,0:0:0:0:
109,192,83621,1,0,0:0:0:0:
402,192,83784,1,0,0:0:0:0:
256,192,83784,1,0,0:0:0:0:
36,192,83784,1,0,0:0:0:0:
109,192,83947,1,0,0:0:0:0:
329,192,83947,1,0,0:0:0:0:
475,192,84110,1,0,0:0:0:0:
182,192,84110,1,0,0:0:0:0:
402,192,84110,1,0,0:0:0:0:
36,192,84273,1,0,0:0:0:0:
256,192,84273,1,0,0:0:0:0:
329,192,84436,1,0,0:0:0:0:
109,192,84436,1,0,0:0:0:0:
475,192,84436,1,0,0:0:0:0:
182,192,84599,1,0,0:0:0:0:
36,192,84599,1,0,0:0:0:0:
256,192,84599,1,0,0:0:0:0:
402,192,84762,1,0,0:0:0:0:
109,192,84925,1,0,0:0:0:0:
329,192,84925,1,0,0:0:0:0:
256,192,84925,1,0,0:0:0:0:
475,192,85088,1,0,0:0:0:0:
182,192,85088,1,0,0:0:0:0:
36,192,85088,1,0,0:0:0:0:
402,192,85170,1,0,0:0:0:0:
329,192,85252,1,0,0:0:0:0:
109,192,85252,1,0,0:0:0:0:
182,192,85415,1,0,0:0:0:0:
475,192,85415,1,0,0:0:0:0:
402,192,85415,1,0,0:0:0:0:
36,192,85578,1,0,0:0:0:0:
256,192,85578,1,0,0:0:0:0:
402,192,85741,1,0,0:0:0:0:
182,192,85741,1,0,0:0:0:0:
475,192,85822,1,0,0:0:0:0:
256,192,85904,1,0,0:0:0:0:
36,192,85904,1,0,0:0:0:0:
109,192,85985,1,0,0:0:0:0:
329,192,86067,1,0,0:0:0:0:
475,192,86067,1,0,0:0:0:0:
36,192,86067,1,0,0:0:0:0:
182,192,86067,1,0,0:0:0:0:
475,192,86230,1,0,0:0:0:0:
475,192,86393,1,0,0:0:0:0:
475,192,86556,1,0,0:0:0:0:
36,192,86719,1,0,0:0:0:0:
475,192,86719,1,0,0:0:0:0:
475,192,86882,1,0,0:0:0:0:
475,192,87045,1,0,0:0:0:0:
475,192,87208,1,0,0:0:0:0:
36,192,87371,1,0,0:0:0:0:
475,192,87371,1,0,0:0:0:0:
475,192,87534,1,0,0:0:0:0:
475,192,87697,1,0,0:0:0:0:
475,192,87860,1,0,0:0:0:0:
36,192,88023,1,0,0:0:0:0:
475,192,88023,1,0,0:0:0:0:
475,192,88186,1,0,0:0:0:0:
475,192,88349,1,0,0:0:0:0:
475,192,88512,1,0,0:0:0:0:
36,192,88675,1,0,0:0:0:0:
256,192,88675,1,0,0:0:0:0:
475,192,88675,1,0,0:0:0:0:
36,192,88838,1,0,0:0:0:0:
36,192,89002,1,0,0:0:0:0:
36,192,89165,1,0,0:0:0:0:
36,192,89328,1,0,0:0:0:0:
475,192,89328,1,0,0:0:0:0:
36,192,89491,1,0,0:0:0:0:
36,192,89654,1,0,0:0:0:0:
36,192,89817,1,0,0:0:0:0:
36,192,89980,1,0,0:0:0:0:
475,192,89980,1,0,0:0:0:0:
36,192,90143,1,0,0:0:0:0:
36,192,90306,1,0,0:0:0:0:
36,192,90469,1,0,0:0:0:0:
36,192,90632,1,0,0:0:0:0:
475,192,90632,1,0,0:0:0:0:
36,192,90795,1,0,0:0:0:0:
36,192,90958,1,0,0:0:0:0:
36,192,91121,1,0,0:0:0:0:
36,192,91284,1,0,0:0:0:0:
475,192,91284,1,0,0:0:0:0:
256,192,91284,1,0,0:0:0:0:
182,192,91447,1,0,0:0:0:0:
402,192,91447,1,0,0:0:0:0:
256,192,91610,1,0,0:0:0:0:
36,192,91610,1,0,0:0:0:0:
475,192,91610,1,0,0:0:0:0:
329,192,91773,1,0,0:0:0:0:
109,192,91773,1,0,0:0:0:0:
475,192,91936,1,0,0:0:0:0:
256,192,91936,1,0,0:0:0:0:
36,192,91936,1,0,0:0:0:0:
402,192,92099,1,0,0:0:0:0:
182,192,92099,1,0,0:0:0:0:
36,192,92262,1,0,0:0:0:0:
256,192,92262,1,0,0:0:0:0:
475,192,92262,1,0,0:0:0:0:
109,192,92425,1,0,0:0:0:0:
329,192,92425,1,0,0:0:0:0:
36,192,92588,1,0,0:0:0:0:
256,192,92588,1,0,0:0:0:0:
475,192,92588,1,0,0:0:0:0:
182,192,92752,1,0,0:0:0:0:
402,192,92752,1,0,0:0:0:0:
256,192,92915,1,0,0:0:0:0:
475,192,92915,1,0,0:0:0:0:
36,192,92915,1,0,0:0:0:0:
329,192,93078,1,0,0:0:0:0:
109,192,93078,1,0,0:0:0:0:
256,192,93241,1,0,0:0:0:0:
36,192,93241,1,0,0:0:0:0:
475,192,93241,1,0,0:0:0:0:
402,192,93404,1,0,0:0:0:0:
182,192,93404,1,0,0:0:0:0:
36,192,93567,1,0,0:0:0:0:
256,192,93567,1,0,0:0:0:0:
475,192,93567,1,0,0:0:0:0:
109,192,93730,1,0,0:0:0:0:
329,192,93730,1,0,0:0:0:0:
36,192,93893,1,0,0:0:0:0:
475,192,93893,1,0,0:0:0:0:
182,192,93893,1,0,0:0:0:0:
329,192,93893,1,0,0:0:0:0:
256,192,94056,1,0,0:0:0:0:
402,192,94056,1,0,0:0:0:0:
109,192,94056,1,0,0:0:0:0:
36,192,94219,1,0,0:0:0:0:
182,192,94219,1,0,0:0:0:0:
329,192,94219,1,0,0:0:0:0:
475,192,94219,1,0,0:0:0:0:
402,192,94382,1,0,0:0:0:0:
256,192,94382,1,0,0:0:0:0:
109,192,94382,1,0,0:0:0:0:
329,192,94545,1,0,0:0:0:0:
475,192,94545,1,0,0:0:0:0:
36,192,94545,1,0,0:0:0:0:
182,192,94545,1,0,0:0:0:0:
256,192,94708,1,0,0:0:0:0:
109,192,94708,1,0,0:0:0:0:
402,192,94708,1,0,0:0:0:0:
329,192,94871,1,0,0:0:0:0:
475,192,94871,1,0,0:0:0:0:
182,192,94871,1,0,0:0:0:0:
36,192,94871,1,0,0:0:0:0:
109,192,95034,1,0,0:0:0:0:
256,192,95034,1,0,0:0:0:0:
402,192,95034,1,0,0:0:0:0:
475,192,95197,1,0,0:0:0:0:
36,192,95197,1,0,0:0:0:0:
329,192,95279,1,0,0:0:0:0:
182,192,95360,1,0,0:0:0:0:
36,192,95442,1,0,0:0:0:0:
475,192,95523,1,0,0:0:0:0:
182,192,95523,1,0,0:0:0:0:
329,192,95605,1,0,0:0:0:0:
182,192,95686,1,0,0:0:0:0:
36,192,95768,1,0,0:0:0:0:
475,192,95849,128,0,96175:0:0:0:0:
256,192,95849,128,0,96012:0:0:0:0:
402,192,96012,128,0,96175:0:0:0:0:
182,192,96012,128,0,96338:0:0:0:0:
329,192,96175,128,0,96502:0:0:0:0:
109,192,96175,128,0,96338:0:0:0:0:
256,192,96338,128,0,96502:0:0:0:0:
36,192,96338,128,0,96502:0:0:0:0:
182,192,96502,128,0,98458:0:0:0:0:
475,192,96502,1,0,0:0:0:0:
402,192,96665,1,0,0:0:0:0:
475,192,96828,1,0,0:0:0:0:
109,192,96828,1,0,0:0:0:0:
329,192,96828,1,0,0:0:0:0:
256,192,96991,1,0,0:0:0:0:
36,192,97154,1,0,0:0:0:0:
402,192,97154,1,0,0:0:0:0:
329,192,97317,1,0,0:0:0:0:
475,192,97480,1,0,0:0:0:0:
109,192,97480,1,0,0:0:0:0:
256,192,97480,1,0,0:0:0:0:
36,192,97643,1,0,0:0:0:0:
329,192,97643,1,0,0:0:0:0:
402,192,97806,1,0,0:0:0:0:
256,192,97806,1,0,0:0:0:0:
109,192,97969,1,0,0:0:0:0:
329,192,97969,1,0,0:0:0:0:
475,192,98132,1,0,0:0:0:0:
36,192,98132,1,0,0:0:0:0:
256,192,98132,1,0,0:0:0:0:
109,192,98295,1,0,0:0:0:0:
402,192,98295,1,0,0:0:0:0:
36,192,98458,1,0,0:0:0:0:
329,192,98458,1,0,0:0:0:0:
256,192,98458,128,0,98784:0:0:0:0:
109,192,98621,1,0,0:0:0:0:
402,192,98621,1,0,0:0:0:0:
36,192,98784,128,0,99110:0:0:0:0:
475,192,98784,1,0,0:0:0:0:
182,192,98784,1,0,0:0:0:0:
329,192,98784,1,0,0:0:0:0:
109,192,98947,1,0,0:0:0:0:
182,192,99110,128,0,99355:0:0:0:0:
402,192,99110,1,0,0:0:0:0:
256,192,99110,1,0,0:0:0:0:
36,192,99273,1,0,0:0:0:0:
109,192,99355,128,0,99599:0:0:0:0:
475,192,99436,1,0,0:0:0:0:
329,192,99436,1,0,0:0:0:0:
256,192,99599,128,0,101393:0:0:0:0:
36,192,99599,1,0,0:0:0:0:
402,192,99762,1,0,0:0:0:0:
109,192,99762,1,0,0:0:0:0:
182,192,99925,1,0,0:0:0:0:
475,192,100088,1,0,0:0:0:0:
329,192,100088,1,0,0:0:0:0:
36,192,100088,1,0,0:0:0:0:
402,192,100252,1,0,0:0:0:0:
109,192,100252,1,0,0:0:0:0:
182,192,100415,1,0,0:0:0:0:
36,192,100415,1,0,0:0:0:0:
402,192,100578,1,0,0:0:0:0:
109,192,100578,1,0,0:0:0:0:
475,192,100741,1,0,0:0:0:0:
329,192,100741,1,0,0:0:0:0:
182,192,100741,1,0,0:0:0:0:
402,192,100904,1,0,0:0:0:0:
36,192,100904,1,0,0:0:0:0:
329,192,101067,1,0,0:0:0:0:
182,192,101067,1,0,0:0:0:0:
402,192,101230,1,0,0:0:0:0:
109,192,101230,1,0,0:0:0:0:
475,192,101393,1,0,0:0:0:0:
36,192,101393,128,0,101556:0:0:0:0:
329,192,101393,1,0,0:0:0:0:
182,192,101556,128,0,101719:0:0:0:0:
402,192,101556,1,0,0:0:0:0:
329,192,101719,128,0,103675:0:0:0:0:
36,192,101719,1,0,0:0:0:0:
256,192,101719,1,0,0:0:0:0:
182,192,101882,1,0,0:0:0:0:
475,192,102045,1,0,0:0:0:0:
109,192,102045,1,0,0:0:0:0:
256,192,102045,1,0,0:0:0:0:
402,192,102208,1,0,0:0:0:0:
36,192,102371,1,0,0:0:0:0:
182,192,102371,1,0,0:0:0:0:
256,192,102534,1,0,0:0:0:0:
475,192,102697,1,0,0:0:0:0:
109,192,102697,1,0,0:0:0:0:
402,192,102697,1,0,0:0:0:0:
36,192,102860,1,0,0:0:0:0:
256,192,102860,1,0,0:0:0:0:
182,192,103023,1,0,0:0:0:0:
402,192,103023,1,0,0:0:0:0:
109,192,103186,1,0,0:0:0:0:
256,192,103186,1,0,0:0:0:0:
475,192,103349,1,0,0:0:0:0:
36,192,103349,1,0,0:0:0:0:
182,192,103349,1,0,0:0:0:0:
109,192,103512,1,0,0:0:0:0:
402,192,103512,1,0,0:0:0:0:
256,192,103675,128,0,104002:0:0:0:0:
36,192,103675,1,0,0:0:0:0:
182,192,103675,1,0,0:0:0:0:
109,192,103838,1,0,0:0:0:0:
329,192,103838,1,0,0:0:0:0:
475,192,104002,1,0,0:0:0:0:
36,192,104002,1,0,0:0:0:0:
182,192,104002,1,0,0:0:0:0:
402,192,104165,128,0,104328:0:0:0:0:
329,192,104165,1,0,0:0:0:0:
109,192,104328,128,0,106284:0:0:0:0:
182,192,104328,1,0,0:0:0:0:
36,192,104328,1,0,0:0:0:0:
329,192,104491,1,0,0:0:0:0:
475,192,104654,1,0,0:0:0:0:
36,192,104654,1,0,0:0:0:0:
256,192,104654,1,0,0:0:0:0:
402,192,104817,1,0,0:0:0:0:
182,192,104980,1,0,0:0:0:0:
329,192,104980,1,0,0:0:0:0:
402,192,105143,1,0,0:0:0:0:
475,192,105306,1,0,0:0:0:0:
256,192,105306,1,0,0:0:0:0:
36,192,105306,1,0,0:0:0:0:
182,192,105469,1,0,0:0:0:0:
329,192,105469,1,0,0:0:0:0:
402,192,105632,1,0,0:0:0:0:
36,192,105632,1,0,0:0:0:0:
256,192,105795,1,0,0:0:0:0:
329,192,105795,1,0,0:0:0:0:
475,192,105958,1,0,0:0:0:0:
182,192,105958,1,0,0:0:0:0:
402,192,105958,1,0,0:0:0:0:
256,192,106121,1,0,0:0:0:0:
329,192,106121,1,0,0:0:0:0:
36,192,106284,128,0,106610:0:0:0:0:
182,192,106284,1,0,0:0:0:0:
402,192,106284,1,0,0:0:0:0:
256,192,106447,1,0,0:0:0:0:
475,192,106447,1,0,0:0:0:0:
182,192,106610,1,0,0:0:0:0:
402,192,106610,1,0,0:0:0:0:
475,192,106936,1,0,0:0:0:0:
402,192,106936,128,0,108893:0:0:0:0:
36,192,106936,1,0,0:0:0:0:
256,192,106936,1,0,0:0:0:0:
182,192,107099,1,0,0:0:0:0:
475,192,107262,1,0,0:0:0:0:
109,192,107262,1,0,0:0:0:0:
329,192,107262,1,0,0:0:0:0:
256,192,107425,1,0,0:0:0:0:
36,192,107588,1,0,0:0:0:0:
182,192,107588,1,0,0:0:0:0:
256,192,107752,1,0,0:0:0:0:
475,192,107915,1,0,0:0:0:0:
36,192,107915,1,0,0:0:0:0:
329,192,107915,1,0,0:0:0:0:
109,192,108078,1,0,0:0:0:0:
256,192,108078,1,0,0:0:0:0:
182,192,108241,1,0,0:0:0:0:
329,192,108241,1,0,0:0:0:0:
36,192,108404,1,0,0:0:0:0:
256,192,108404,1,0,0:0:0:0:
475,192,108567,1,0,0:0:0:0:
109,192,108567,1,0,0:0:0:0:
329,192,108567,1,0,0:0:0:0:
36,192,108730,1,0,0:0:0:0:
182,192,108730,1,0,0:0:0:0:
256,192,108893,128,0,109219:0:0:0:0:
109,192,108893,1,0,0:0:0:0:
329,192,108893,1,0,0:0:0:0:
36,192,109056,1,0,0:0:0:0:
402,192,109056,1,0,0:0:0:0:
475,192,109219,1,0,0:0:0:0:
109,192,109219,128,0,109545:0:0:0:0:
182,192,109219,1,0,0:0:0:0:
256,192,109382,1,0,0:0:0:0:
475,192,109545,128,0,109790:0:0:0:0:
402,192,109545,1,0,0:0:0:0:
182,192,109545,1,0,0:0:0:0:
36,192,109708,1,0,0:0:0:0:
329,192,109790,128,0,110034:0:0:0:0:
475,192,109871,1,0,0:0:0:0:
256,192,109871,1,0,0:0:0:0:
109,192,109871,1,0,0:0:0:0:
36,192,110034,128,0,111828:0:0:0:0:
182,192,110034,1,0,0:0:0:0:
402,192,110197,1,0,0:0:0:0:
109,192,110197,1,0,0:0:0:0:
182,192,110360,1,0,0:0:0:0:
475,192,110523,1,0,0:0:0:0:
256,192,110523,1,0,0:0:0:0:
109,192,110523,1,0,0:0:0:0:
402,192,110686,1,0,0:0:0:0:
182,192,110686,1,0,0:0:0:0:
329,192,110849,1,0,0:0:0:0:
109,192,110849,1,0,0:0:0:0:
256,192,111012,1,0,0:0:0:0:
182,192,111012,1,0,0:0:0:0:
475,192,111175,1,0,0:0:0:0:
402,192,111175,1,0,0:0:0:0:
109,192,111175,1,0,0:0:0:0:
256,192,111338,1,0,0:0:0:0:
329,192,111338,1,0,0:0:0:0:
402,192,111502,1,0,0:0:0:0:
182,192,111502,1,0,0:0:0:0:
256,192,111665,1,0,0:0:0:0:
109,192,111665,1,0,0:0:0:0:
475,192,111828,1,0,0:0:0:0:
402,192,111828,128,0,111991:0:0:0:0:
329,192,111828,1,0,0:0:0:0:
256,192,111991,128,0,112154:0:0:0:0:
182,192,111991,1,0,0:0:0:0:
109,192,112154,128,0,114110:0:0:0:0:
329,192,112154,1,0,0:0:0:0:
36,192,112154,1,0,0:0:0:0:
182,192,112317,1,0,0:0:0:0:
475,192,112480,1,0,0:0:0:0:
402,192,112480,1,0,0:0:0:0:
256,192,112480,1,0,0:0:0:0:
182,192,112643,1,0,0:0:0:0:
329,192,112806,1,0,0:0:0:0:
36,192,112806,1,0,0:0:0:0:
256,192,112969,1,0,0:0:0:0:
475,192,113132,1,0,0:0:0:0:
329,192,113132,1,0,0:0:0:0:
182,192,113132,1,0,0:0:0:0:
402,192,113295,1,0,0:0:0:0:
256,192,113295,1,0,0:0:0:0:
329,192,113458,1,0,0:0:0:0:
182,192,113458,1,0,0:0:0:0:
256,192,113621,1,0,0:0:0:0:
36,192,113621,1,0,0:0:0:0:
475,192,113784,1,0,0:0:0:0:
402,192,113784,1,0,0:0:0:0:
182,192,113784,1,0,0:0:0:0:
329,192,113947,1,0,0:0:0:0:
256,192,113947,1,0,0:0:0:0:
36,192,114110,128,0,114436:0:0:0:0:
402,192,114110,1,0,0:0:0:0:
182,192,114110,1,0,0:0:0:0:
329,192,114273,1,0,0:0:0:0:
109,192,114273,1,0,0:0:0:0:
475,192,114436,1,0,0:0:0:0:
402,192,114436,1,0,0:0:0:0:
182,192,114436,1,0,0:0:0:0:
329,192,114599,128,0,114762:0:0:0:0:
36,192,114599,1,0,0:0:0:0:
109,192,114681,1,0,0:0:0:0:
256,192,114762,128,0,116067:0:0:0:0:
182,192,114762,1,0,0:0:0:0:
402,192,114762,1,0,0:0:0:0:
329,192,114925,1,0,0:0:0:0:
475,192,115088,1,0,0:0:0:0:
36,192,115088,1,0,0:0:0:0:
182,192,115088,1,0,0:0:0:0:
402,192,115252,1,0,0:0:0:0:
109,192,115415,1,0,0:0:0:0:
329,192,115415,1,0,0:0:0:0:
402,192,115578,1,0,0:0:0:0:
475,192,115741,1,0,0:0:0:0:
36,192,115741,1,0,0:0:0:0:
182,192,115741,1,0,0:0:0:0:
109,192,115904,1,0,0:0:0:0:
402,192,115904,1,0,0:0:0:0:
36,192,116067,1,0,0:0:0:0:
475,192,116067,1,0,0:0:0:0:
36,192,116719,1,0,0:0:0:0:
182,192,116719,1,0,0:0:0:0:
256,192,116800,1,0,0:0:0:0:
402,192,116800,1,0,0:0:0:0:
36,192,116882,1,0,0:0:0:0:
182,192,116882,1,0,0:0:0:0:
256,192,116963,1,0,0:0:0:0:
402,192,116963,1,0,0:0:0:0:
36,192,117045,1,0,0:0:0:0:
182,192,117045,1,0,0:0:0:0:
329,192,117208,1,0,0:0:0:0:
475,192,117208,1,0,0:0:0:0:
109,192,117290,1,0,0:0:0:0:
256,192,117290,1,0,0:0:0:0:
36,192,117371,1,0,0:0:0:0:
475,192,117371,1,0,0:0:0:0:
329,192,117371,1,0,0:0:0:0:
182,192,117534,1,0,0:0:0:0:
36,192,117697,1,0,0:0:0:0:
475,192,117697,1,0,0:0:0:0:
256,192,117697,1,0,0:0:0:0:
402,192,117697,1,0,0:0:0:0:
109,192,117860,1,0,0:0:0:0:
36,192,118023,1,0,0:0:0:0:
182,192,118023,1,0,0:0:0:0:
329,192,118023,1,0,0:0:0:0:
402,192,118186,1,0,0:0:0:0:
36,192,118349,1,0,0:0:0:0:
475,192,118349,1,0,0:0:0:0:
109,192,118349,1,0,0:0:0:0:
256,192,118349,1,0,0:0:0:0:
402,192,118512,1,0,0:0:0:0:
36,192,118675,1,0,0:0:0:0:
182,192,118675,1,0,0:0:0:0:
329,192,118675,1,0,0:0:0:0:
109,192,118838,1,0,0:0:0:0:
36,192,119002,1,0,0:0:0:0:
475,192,119002,1,0,0:0:0:0:
256,192,119002,1,0,0:0:0:0:
402,192,119002,1,0,0:0:0:0:
109,192,119165,1,0,0:0:0:0:
36,192,119328,1,0,0:0:0:0:
329,192,119328,1,0,0:0:0:0:
182,192,119328,1,0,0:0:0:0:
402,192,119491,1,0,0:0:0:0:
36,192,119654,1,0,0:0:0:0:
475,192,119654,1,0,0:0:0:0:
109,192,119654,1,0,0:0:0:0:
256,192,119654,1,0,0:0:0:0:
182,192,119817,1,0,0:0:0:0:
329,192,119817,1,0,0:0:0:0:
36,192,119980,1,0,0:0:0:0:
402,192,119980,1,0,0:0:0:0:
256,192,119980,1,0,0:0:0:0:
329,192,120143,1,0,0:0:0:0:
36,192,120306,1,0,0:0:0:0:
475,192,120306,1,0,0:0:0:0:
182,192,120306,1,0,0:0:0:0:
402,192,120306,1,0,0:0:0:0:
256,192,120469,1,0,0:0:0:0:
36,192,120632,1,0,0:0:0:0:
109,192,120632,1,0,0:0:0:0:
329,192,120632,1,0,0:0:0:0:
182,192,120795,1,0,0:0:0:0:
36,192,120958,1,0,0:0:0:0:
475,192,120958,1,0,0:0:0:0:
109,192,120958,1,0,0:0:0:0:
329,192,120958,1,0,0:0:0:0:
256,192,121121,1,0,0:0:0:0:
36,192,121284,1,0,0:0:0:0:
402,192,121284,1,0,0:0:0:0:
182,192,121284,1,0,0:0:0:0:
329,192,121447,1,0,0:0:0:0:
36,192,121610,1,0,0:0:0:0:
475,192,121610,1,0,0:0:0:0:
402,192,121610,1,0,0:0:0:0:
182,192,121610,1,0,0:0:0:0:
36,192,121773,1,0,0:0:0:0:
256,192,121773,1,0,0:0:0:0:
36,192,121936,1,0,0:0:0:0:
475,192,121936,1,0,0:0:0:0:
182,192,121936,1,0,0:0:0:0:
329,192,121936,1,0,0:0:0:0:
109,192,122099,1,0,0:0:0:0:
256,192,122099,1,0,0:0:0:0:
36,192,122262,1,0,0:0:0:0:
475,192,122262,1,0,0:0:0:0:
182,192,122262,1,0,0:0:0:0:
329,192,122262,1,0,0:0:0:0:
256,192,122425,1,0,0:0:0:0:
36,192,122588,1,0,0:0:0:0:
109,192,122588,1,0,0:0:0:0:
402,192,122588,1,0,0:0:0:0:
256,192,122752,1,0,0:0:0:0:
36,192,122915,1,0,0:0:0:0:
475,192,122915,1,0,0:0:0:0:
182,192,122915,1,0,0:0:0:0:
329,192,122915,1,0,0:0:0:0:
256,192,123078,1,0,0:0:0:0:
36,192,123241,1,0,0:0:0:0:
109,192,123241,1,0,0:0:0:0:
402,192,123241,1,0,0:0:0:0:
256,192,123404,1,0,0:0:0:0:
36,192,123567,1,0,0:0:0:0:
475,192,123567,1,0,0:0:0:0:
182,192,123567,1,0,0:0:0:0:
329,192,123567,1,0,0:0:0:0:
256,192,123730,1,0,0:0:0:0:
36,192,123893,1,0,0:0:0:0:
109,192,123893,1,0,0:0:0:0:
402,192,123893,1,0,0:0:0:0:
256,192,124056,1,0,0:0:0:0:
36,192,124219,1,0,0:0:0:0:
475,192,124219,1,0,0:0:0:0:
402,192,124219,1,0,0:0:0:0:
109,192,124219,1,0,0:0:0:0:
256,192,124382,1,0,0:0:0:0:
36,192,124545,1,0,0:0:0:0:
109,192,124545,1,0,0:0:0:0:
402,192,124545,1,0,0:0:0:0:
256,192,124708,1,0,0:0:0:0:
36,192,124871,1,0,0:0:0:0:
475,192,124871,1,0,0:0:0:0:
182,192,124871,1,0,0:0:0:0:
329,192,124871,1,0,0:0:0:0:
402,192,125034,1,0,0:0:0:0:
256,192,125034,1,0,0:0:0:0:
36,192,125197,1,0,0:0:0:0:
182,192,125197,1,0,0:0:0:0:
329,192,125197,1,0,0:0:0:0:
109,192,125360,1,0,0:0:0:0:
36,192,125523,1,0,0:0:0:0:
475,192,125523,1,0,0:0:0:0:
256,192,125523,1,0,0:0:0:0:
402,192,125523,1,0,0:0:0:0:
329,192,125686,1,0,0:0:0:0:
36,192,125849,1,0,0:0:0:0:
109,192,125849,1,0,0:0:0:0:
256,192,125849,1,0,0:0:0:0:
402,192,126012,1,0,0:0:0:0:
36,192,126175,1,0,0:0:0:0:
475,192,126175,1,0,0:0:0:0:
182,192,126175,1,0,0:0:0:0:
329,192,126175,1,0,0:0:0:0:
109,192,126338,1,0,0:0:0:0:
36,192,126502,1,0,0:0:0:0:
402,192,126502,1,0,0:0:0:0:
182,192,126583,1,0,0:0:0:0:
329,192,126665,1,0,0:0:0:0:
475,192,126746,1,0,0:0:0:0:
36,192,126828,1,0,0:0:0:0:
256,192,126828,1,0,0:0:0:0:
182,192,126991,1,0,0:0:0:0:
36,192,127154,1,0,0:0:0:0:
475,192,127154,1,0,0:0:0:0:
329,192,127235,1,0,0:0:0:0:
182,192,127317,1,0,0:0:0:0:
36,192,127398,1,0,0:0:0:0:
36,192,127806,1,0,0:0:0:0:
475,192,127806,1,0,0:0:0:0:
109,192,127806,1,0,0:0:0:0:
182,192,127806,1,0,0:0:0:0:
256,192,127806,1,0,0:0:0:0:
329,192,127969,1,0,0:0:0:0:
36,192,128132,1,0,0:0:0:0:
475,192,128132,1,0,0:0:0:0:
256,192,128132,1,0,0:0:0:0:
182,192,128132,1,0,0:0:0:0:
402,192,128132,1,0,0:0:0:0:
109,192,128295,1,0,0:0:0:0:
36,192,128458,1,0,0:0:0:0:
182,192,128458,1,0,0:0:0:0:
402,192,128458,1,0,0:0:0:0:
329,192,128458,1,0,0:0:0:0:
475,192,128458,1,0,0:0:0:0:
256,192,128621,1,0,0:0:0:0:
36,192,128784,1,0,0:0:0:0:
475,192,128784,1,0,0:0:0:0:
329,192,128784,1,0,0:0:0:0:
182,192,128784,1,0,0:0:0:0:
109,192,128784,1,0,0:0:0:0:
256,192,128947,1,0,0:0:0:0:
36,192,129110,1,0,0:0:0:0:
182,192,129110,1,0,0:0:0:0:
329,192,129110,1,0,0:0:0:0:
402,192,129110,1,0,0:0:0:0:
475,192,129110,1,0,0:0:0:0:
109,192,129273,1,0,0:0:0:0:
36,192,129436,1,0,0:0:0:0:
475,192,129436,1,0,0:0:0:0:
182,192,129436,1,0,0:0:0:0:
329,192,129436,1,0,0:0:0:0:
402,192,129436,1,0,0:0:0:0:
256,192,129599,1,0,0:0:0:0:
36,192,129762,1,0,0:0:0:0:
329,192,129762,1,0,0:0:0:0:
109,192,129762,1,0,0:0:0:0:
182,192,129762,1,0,0:0:0:0:
475,192,129762,1,0,0:0:0:0:
256,192,129925,1,0,0:0:0:0:
329,192,130007,1,0,0:0:0:0:
36,192,130088,1,0,0:0:0:0:
402,192,130088,1,0,0:0:0:0:
182,192,130088,1,0,0:0:0:0:
109,192,130088,1,0,0:0:0:0:
475,192,130088,1,0,0:0:0:0:
36,192,130252,1,0,0:0:0:0:
256,192,130252,1,0,0:0:0:0:
36,192,130415,1,0,0:0:0:0:
475,192,130415,1,0,0:0:0:0:
182,192,130415,1,0,0:0:0:0:
329,192,130415,1,0,0:0:0:0:
402,192,130415,1,0,0:0:0:0:
256,192,130578,1,0,0:0:0:0:
36,192,130741,1,0,0:0:0:0:
475,192,130741,1,0,0:0:0:0:
329,192,130741,1,0,0:0:0:0:
109,192,130741,1,0,0:0:0:0:
182,192,130741,1,0,0:0:0:0:
256,192,130904,1,0,0:0:0:0:
36,192,131067,1,0,0:0:0:0:
182,192,131067,1,0,0:0:0:0:
475,192,131067,1,0,0:0:0:0:
329,192,131067,1,0,0:0:0:0:
402,192,131067,1,0,0:0:0:0:
256,192,131230,1,0,0:0:0:0:
36,192,131393,1,0,0:0:0:0:
329,192,131393,1,0,0:0:0:0:
475,192,131393,1,0,0:0:0:0:
182,192,131393,1,0,0:0:0:0:
109,192,131393,1,0,0:0:0:0:
402,192,131556,1,0,0:0:0:0:
36,192,131719,1,0,0:0:0:0:
329,192,131719,1,0,0:0:0:0:
475,192,131719,1,0,0:0:0:0:
182,192,131719,1,0,0:0:0:0:
109,192,131719,1,0,0:0:0:0:
256,192,131882,1,0,0:0:0:0:
182,192,131963,1,0,0:0:0:0:
36,192,132045,1,0,0:0:0:0:
109,192,132045,1,0,0:0:0:0:
475,192,132045,1,0,0:0:0:0:
402,192,132045,1,0,0:0:0:0:
329,192,132045,1,0,0:0:0:0:
256,192,132208,1,0,0:0:0:0:
36,192,132208,1,0,0:0:0:0:
36,192,132371,1,0,0:0:0:0:
109,192,132371,1,0,0:0:0:0:
475,192,132371,1,0,0:0:0:0:
182,192,132371,1,0,0:0:0:0:
402,192,132371,1,0,0:0:0:0:
109,192,132534,1,0,0:0:0:0:
329,192,132534,1,0,0:0:0:0:
256,192,132616,1,0,0:0:0:0:
36,192,132697,1,0,0:0:0:0:
402,192,132697,1,0,0:0:0:0:
475,192,132697,1,0,0:0:0:0:
182,192,132697,1,0,0:0:0:0:
329,192,132779,1,0,0:0:0:0:
36,192,132860,1,0,0:0:0:0:
256,192,132860,1,0,0:0:0:0:
36,192,133023,1,0,0:0:0:0:
475,192,133023,1,0,0:0:0:0:
182,192,133023,1,0,0:0:0:0:
329,192,133023,1,0,0:0:0:0:
475,192,133186,1,0,0:0:0:0:
329,192,133186,1,0,0:0:0:0:
36,192,133349,1,0,0:0:0:0:
402,192,133349,1,0,0:0:0:0:
256,192,133349,1,0,0:0:0:0:
182,192,133349,1,0,0:0:0:0:
402,192,133512,1,0,0:0:0:0:
256,192,133512,1,0,0:0:0:0:
36,192,133675,1,0,0:0:0:0:
329,192,133675,1,0,0:0:0:0:
182,192,133675,1,0,0:0:0:0:
475,192,133675,1,0,0:0:0:0:
329,192,133838,1,0,0:0:0:0:
182,192,133838,1,0,0:0:0:0:
36,192,134002,1,0,0:0:0:0:
256,192,134002,1,0,0:0:0:0:
109,192,134002,1,0,0:0:0:0:
402,192,134002,1,0,0:0:0:0:
256,192,134165,1,0,0:0:0:0:
109,192,134165,1,0,0:0:0:0:
36,192,134328,1,0,0:0:0:0:
182,192,134328,1,0,0:0:0:0:
329,192,134328,1,0,0:0:0:0:
475,192,134328,1,0,0:0:0:0:
182,192,134491,1,0,0:0:0:0:
329,192,134491,1,0,0:0:0:0:
256,192,134654,1,0,0:0:0:0:
402,192,134654,1,0,0:0:0:0:
36,192,134654,1,0,0:0:0:0:
109,192,134654,1,0,0:0:0:0:
256,192,134817,1,0,0:0:0:0:
402,192,134817,1,0,0:0:0:0:
36,192,134980,1,0,0:0:0:0:
329,192,134980,1,0,0:0:0:0:
475,192,134980,1,0,0:0:0:0:
182,192,134980,1,0,0:0:0:0:
329,192,135143,1,0,0:0:0:0:
475,192,135143,1,0,0:0:0:0:
256,192,135224,1,0,0:0:0:0:
36,192,135306,1,0,0:0:0:0:
182,192,135306,1,0,0:0:0:0:
402,192,135306,1,0,0:0:0:0:
475,192,135306,1,0,0:0:0:0:
329,192,135469,1,0,0:0:0:0:
109,192,135469,1,0,0:0:0:0:
402,192,135632,1,0,0:0:0:0:
36,192,135632,1,0,0:0:0:0:
475,192,135713,1,0,0:0:0:0:
109,192,135713,1,0,0:0:0:0:
402,192,135795,1,0,0:0:0:0:
182,192,135795,1,0,0:0:0:0:
329,192,135877,1,0,0:0:0:0:
109,192,135877,1,0,0:0:0:0:
402,192,135958,1,0,0:0:0:0:
36,192,135958,1,0,0:0:0:0:
475,192,136040,1,0,0:0:0:0:
109,192,136040,1,0,0:0:0:0:
182,192,136121,1,0,0:0:0:0:
402,192,136121,1,0,0:0:0:0:
109,192,136203,1,0,0:0:0:0:
329,192,136203,1,0,0:0:0:0:
36,192,136284,1,0,0:0:0:0:
402,192,136284,1,0,0:0:0:0:
109,192,136366,1,0,0:0:0:0:
475,192,136366,1,0,0:0:0:0:
182,192,136447,1,0,0:0:0:0:
402,192,136447,1,0,0:0:0:0:
329,192,136529,1,0,0:0:0:0:
109,192,136529,1,0,0:0:0:0:
402,192,136610,1,0,0:0:0:0:
36,192,136610,1,0,0:0:0:0:
109,192,136692,1,0,0:0:0:0:
475,192,136692,1,0,0:0:0:0:
182,192,136773,1,0,0:0:0:0:
402,192,136773,1,0,0:0:0:0:
109,192,136855,1,0,0:0:0:0:
329,192,136855,1,0,0:0:0:0:
