osu file format v14

[General]
AudioFilename: audio.mp3
AudioLeadIn: 0
PreviewTime: 74043
Countdown: 0
SampleSet: Soft
StackLeniency: 0.4
Mode: 0
LetterboxInBreaks: 0
WidescreenStoryboard: 0

[Editor]
Bookmarks: 16457,24685,32914,41142,49371,57600,65828,74057,90514,98742,106971
DistanceSpacing: 2.1
BeatDivisor: 4
GridSize: 4
TimelineZoom: 1.9

[Metadata]
Title:carol of the circles
TitleUnicode:carol of the circles
Artist:nekodex
ArtistUnicode:nekodex
Creator:hypercyte
Version:insane
Source:osu!
Tags:osu christmas theme song 2019 hypercute haruto haruto_aizawa featured artist fa bells instrumental orchestral orchestra orchestrate mappers mapper's guild mpg
BeatmapID:2264137
BeatmapSetID:1078322

[Difficulty]
HPDrainRate:6.4
CircleSize:4.4
OverallDifficulty:8
ApproachRate:9
SliderMultiplier:1.74
SliderTickRate:1

[Events]
//Background and Video events
0,0,"by BlankSensei.jpg",0,0
//Break Periods
2,66014,73443
//Storyboard Layer 0 (Background)
//Storyboard Layer 1 (Fail)
//Storyboard Layer 2 (Pass)
//Storyboard Layer 3 (Foreground)
//Storyboard Layer 4 (Overlay)
//Storyboard Sound Samples

[TimingPoints]
-14,342.857142857143,3,2,4,44,1,0
-14,-200,3,2,4,44,0,0
16443,-100,3,2,4,44,0,0
16700,-100,3,2,4,5,0,0
16786,-100,3,2,4,44,0,0
17386,-100,3,2,4,5,0,0
17471,-100,3,2,4,44,0,0
18414,-100,3,2,4,5,0,0
18500,-100,3,2,4,44,0,0
19443,-100,3,2,4,5,0,0
19528,-100,3,2,4,44,0,0
20214,-86.9565217391304,3,2,4,44,0,0
20471,-86.9565217391304,3,2,4,5,0,0
20557,-86.9565217391304,3,2,4,44,0,0
20900,-100,3,2,4,44,0,0
21500,-100,3,2,4,5,0,0
21586,-100,3,2,4,44,0,0
22528,-100,3,2,4,5,0,0
22614,-100,3,2,4,44,0,0
23643,-86.9565217391304,3,2,4,44,0,0
23900,-86.9565217391304,3,2,4,5,0,0
23986,-86.9565217391304,3,2,4,44,0,0
24243,-86.9565217391304,3,2,4,5,0,0
24328,-86.9565217391304,3,2,4,44,0,0
24586,-86.9565217391304,3,2,4,5,0,0
24671,-83.3333333333333,3,2,4,64,0,0
24928,-83.3333333333333,3,2,4,5,0,0
25014,-83.3333333333333,3,2,4,64,0,0
25614,-83.3333333333333,3,2,4,5,0,0
25700,-83.3333333333333,3,2,4,64,0,0
26643,-83.3333333333333,3,2,4,5,0,0
26728,-83.3333333333333,3,2,4,64,0,0
27671,-83.3333333333333,3,2,4,5,0,0
27757,-83.3333333333333,3,2,4,64,0,0
28443,-76.9230769230769,3,2,4,64,0,0
28700,-76.9230769230769,3,2,4,5,0,0
28786,-76.9230769230769,3,2,4,64,0,0
29043,-76.9230769230769,3,2,4,5,0,0
29128,-83.3333333333333,3,2,4,64,0,0
30757,-83.3333333333333,3,2,4,5,0,0
30843,-83.3333333333333,3,2,4,64,0,0
32128,-83.3333333333333,3,2,4,5,0,0
32214,-83.3333333333333,3,2,4,64,0,0
32471,-83.3333333333333,3,2,4,5,0,0
32557,-83.3333333333333,3,2,4,64,0,0
32814,-83.3333333333333,3,2,4,5,0,0
32900,-76.9230769230769,3,2,4,84,0,0
33843,-76.9230769230769,3,2,4,5,0,0
33928,-76.9230769230769,3,2,4,84,0,0
34871,-76.9230769230769,3,2,4,5,0,0
34957,-76.9230769230769,3,2,4,84,0,0
35900,-76.9230769230769,3,2,4,5,0,0
35986,-76.9230769230769,3,2,4,84,0,0
36928,-76.9230769230769,3,2,4,5,0,0
37014,-76.9230769230769,3,2,4,84,0,0
37957,-76.9230769230769,3,2,4,5,0,0
38043,-76.9230769230769,3,2,4,84,0,0
38986,-76.9230769230769,3,2,4,5,0,0
39071,-76.9230769230769,3,2,4,84,0,0
40100,-71.4285714285714,3,2,4,84,0,0
40357,-71.4285714285714,3,2,4,5,0,0
40443,-71.4285714285714,3,2,4,84,0,0
40700,-71.4285714285714,3,2,4,5,0,0
40786,-71.4285714285714,3,2,4,84,0,0
41128,-200,3,2,44,34,0,0
41471,-153.846153846154,3,2,44,44,0,0
41814,-125,3,2,44,54,0,0
42157,-105.263157894737,3,2,44,64,0,0
42500,-90.9090909090909,3,2,44,74,0,0
43186,-200,3,2,44,34,0,0
43528,-153.846153846154,3,2,44,44,0,0
43871,-125,3,2,44,54,0,0
44214,-105.263157894737,3,2,44,64,0,0
44557,-90.9090909090909,3,2,44,74,0,0
45243,-200,3,2,44,34,0,0
45585,-153.846153846154,3,2,44,44,0,0
45928,-125,3,2,44,54,0,0
46271,-105.263157894737,3,2,44,64,0,0
46614,-90.9090909090909,3,2,44,74,0,0
47300,-200,3,2,44,34,0,0
47642,-153.846153846154,3,2,44,44,0,0
47985,-125,3,2,44,54,0,0
48328,-83.3333333333333,3,2,4,64,0,0
48586,-83.3333333333333,3,2,4,5,0,0
48671,-83.3333333333333,3,2,4,64,0,0
48928,-83.3333333333333,3,2,4,5,0,0
49014,-83.3333333333333,3,2,4,64,0,0
49357,-100,3,2,4,74,0,0
56900,-83.3333333333333,3,2,4,74,0,0
57157,-83.3333333333333,3,2,4,5,0,0
57243,-83.3333333333333,3,2,4,74,0,0
57500,-83.3333333333333,3,2,4,5,0,0
57586,-83.3333333333333,3,2,4,74,0,0
57843,-83.3333333333333,3,2,4,5,0,0
57928,-95.2380952380952,3,2,4,74,0,0
64014,-95.2380952380952,3,2,4,5,0,0
64100,-95.2380952380952,3,2,4,74,0,0
64786,-80,3,2,4,74,0,0
65043,-80,3,2,4,5,0,0
65128,-80,3,2,4,74,0,0
65386,-80,3,2,4,5,0,0
65471,-80,3,2,4,74,0,0
74043,-200,3,2,4,44,0,0
89471,-86.9565217391304,3,2,4,44,0,0
89728,-86.9565217391304,3,2,4,5,0,0
89814,-86.9565217391304,3,2,4,44,0,0
90071,-86.9565217391304,3,2,4,5,0,0
90157,-86.9565217391304,3,2,4,44,0,0
90414,-86.9565217391304,3,2,4,5,0,0
90500,-86.9565217391304,3,2,4,44,0,0
90757,-86.9565217391304,3,2,4,5,0,0
90843,-100,3,2,4,44,0,0
91443,-100,3,2,4,5,0,0
91528,-100,3,2,4,44,0,0
92471,-100,3,2,4,5,0,0
92557,-100,3,2,4,44,0,0
93500,-100,3,2,4,5,0,0
93586,-100,3,2,4,44,0,0
94271,-86.9565217391304,3,2,4,44,0,0
94528,-86.9565217391304,3,2,4,5,0,0
94614,-86.9565217391304,3,2,4,44,0,0
94871,-86.9565217391304,3,2,4,5,0,0
94957,-100,3,2,4,44,0,0
95557,-100,3,2,4,5,0,0
95643,-100,3,2,4,44,0,0
96586,-100,3,2,4,5,0,0
96671,-100,3,2,4,44,0,0
97614,-100,3,2,4,5,0,0
97700,-86.9565217391304,3,2,4,44,0,0
97957,-86.9565217391304,3,2,4,5,0,0
98043,-86.9565217391304,3,2,4,44,0,0
98300,-86.9565217391304,3,2,4,5,0,0
98386,-86.9565217391304,3,2,4,44,0,0
98643,-86.9565217391304,3,2,4,5,0,0
98728,-83.3333333333333,3,2,4,64,0,0
99671,-83.3333333333333,3,2,4,5,0,0
99757,-83.3333333333333,3,2,4,64,0,0
100700,-83.3333333333333,3,2,4,5,0,0
100786,-83.3333333333333,3,2,4,64,0,0
101728,-83.3333333333333,3,2,4,5,0,0
101814,-83.3333333333333,3,2,4,64,0,0
102500,-76.9230769230769,3,2,4,64,0,0
102757,-76.9230769230769,3,2,4,5,0,0
102843,-76.9230769230769,3,2,4,64,0,0
103100,-76.9230769230769,3,2,4,5,0,0
103186,-83.3333333333333,3,2,4,64,0,0
103786,-83.3333333333333,3,2,4,5,0,0
103871,-83.3333333333333,3,2,4,64,0,0
104814,-83.3333333333333,3,2,4,5,0,0
104900,-83.3333333333333,3,2,4,64,0,0
105843,-83.3333333333333,3,2,4,5,0,0
105928,-83.3333333333333,3,2,4,64,0,0
106186,-83.3333333333333,3,2,4,5,0,0
106271,-83.3333333333333,3,2,4,64,0,0
106528,-83.3333333333333,3,2,4,5,0,0
106614,-83.3333333333333,3,2,4,64,0,0
106957,-76.9230769230769,3,2,4,84,0,0
107900,-76.9230769230769,3,2,4,5,0,0
107986,-76.9230769230769,3,2,4,84,0,0
108928,-76.9230769230769,3,2,4,5,0,0
109014,-76.9230769230769,3,2,4,84,0,0
109957,-76.9230769230769,3,2,4,5,0,0
110043,-76.9230769230769,3,2,4,84,0,0
110728,-71.4285714285714,3,2,4,84,0,0
110986,-71.4285714285714,3,2,4,5,0,0
111071,-71.4285714285714,3,2,4,84,0,0
111328,-71.4285714285714,3,2,4,5,0,0
111414,-76.9230769230769,3,2,4,84,0,0
112014,-76.9230769230769,3,2,4,5,0,0
112100,-76.9230769230769,3,2,4,84,0,0
114071,-76.9230769230769,3,2,4,5,0,0
114157,-76.9230769230769,3,2,4,84,0,0
114414,-76.9230769230769,3,2,4,5,0,0
114500,-76.9230769230769,3,2,4,84,0,0
114757,-76.9230769230769,3,2,4,5,0,0
114843,-76.9230769230769,3,2,4,84,0,0

[Colours]
Combo1 : 244,185,243
Combo2 : 212,212,212

[HitObjects]
256,192,15071,12,0,16271,0:0:0:0:
256,192,16443,6,0,B|222:186|222:186|164:195|164:195|126:189,1,130.5,12|0,0:0|0:0,0:0:0:0:
127,189,16786,2,0,P|111:148|140:109,1,87,2|2,0:1|0:1,0:0:0:0:
324,282,17128,6,0,B|356:278|375:246|359:222|380:192|407:187,1,130.5,10|0,0:0|0:0,0:0:0:0:
311,302,17471,2,0,L|208:290,1,87,8|0,0:0|0:0,0:0:0:0:
123,277,17814,1,2,0:1:0:0:
123,277,17986,1,2,0:1:0:0:
430,319,18157,6,0,B|424:270|424:270|415:253|415:253|409:191,1,130.5,10|0,0:0|0:0,0:0:0:0:
448,326,18500,2,0,L|465:221,1,87,8|0,0:0|0:0,0:0:0:0:
487,132,18843,1,2,0:1:0:0:
487,132,19014,1,2,0:1:0:0:
236,68,19186,6,0,P|173:88|154:161,1,130.5,10|0,0:0|0:0,0:0:0:0:
256,77,19528,2,0,P|270:38|249:-3,1,87,8|0,0:0|0:0,0:0:0:0:
163,159,19871,1,2,0:1:0:0:
163,159,20043,1,2,0:1:0:0:
243,324,20214,6,0,B|265:301|286:298|286:298|387:328,1,150.075002862454,14|0,0:0|0:0,0:0:0:0:
225,341,20557,2,0,B|194:271|194:271|227:203,1,150.075002862454,12|0,0:0|0:0,0:0:0:0:
163,159,20900,2,0,P|204:168|226:205,1,87,2|2,0:1|0:1,0:0:0:0:
85,21,21243,6,0,P|69:94|8:119,1,130.5,10|0,0:0|0:0,0:0:0:0:
80,10,21586,2,0,L|183:24,1,87,8|0,0:0|0:0,0:0:0:0:
264,41,21928,1,2,0:1:0:0:
264,41,22100,1,2,0:1:0:0:
382,179,22271,6,0,B|441:172|441:172|462:178|462:178|520:170,1,130.5,10|0,0:0|0:0,0:0:0:0:
369,192,22614,2,0,L|261:176,1,87,8|0,0:0|0:0,0:0:0:0:
184,170,22957,1,2,0:1:0:0:
184,170,23128,1,2,0:1:0:0:
65,328,23300,6,0,L|164:301,1,87,10|0,0:0|0:0,0:0:0:0:
244,81,23643,6,0,B|223:70|194:76|194:76|158:123|187:178,1,150.075002862454,12|0,0:0|0:0,0:0:0:0:
307,165,23986,2,0,B|326:152|335:123|335:123|313:69|250:67,1,150.075002862454,12|0,0:0|0:0,0:0:0:0:
205,172,24328,2,0,B|205:195|226:217|226:217|284:225|317:172,1,150.075002862454,14|0,0:0|0:0,0:0:0:0:
443,84,24671,6,0,B|465:95|471:117|471:117|438:240,1,156.599995220947,12|0,0:0|0:0,0:0:0:0:
418,80,25014,1,2,0:1:0:0:
457,0,25186,1,2,0:1:0:0:
235,17,25357,6,0,B|176:29|176:29|148:48|148:48|78:61,1,156.599995220947,10|0,0:0|0:0,0:0:0:0:
255,14,25700,2,0,P|281:73|245:117,1,104.399996813965,8|0,0:0|0:0,0:0:0:0:
91,200,26043,1,2,0:1:0:0:
147,265,26214,1,2,0:1:0:0:
318,209,26386,6,0,P|381:214|433:302,1,156.599995220947,10|0,0:0|0:0,0:0:0:0:
303,204,26728,2,0,P|359:170|410:182,1,104.399996813965,8|0,0:0|0:0,0:0:0:0:
486,371,27071,1,2,0:1:0:0:
426,305,27243,1,2,0:1:0:0:
234,361,27414,6,0,B|198:362|173:328|186:306|153:272|111:273,1,156.599995220947,10|0,0:0|0:0,0:0:0:0:
188,285,27757,2,0,P|173:228|196:178,1,104.399996813965,8|0,0:0|0:0,0:0:0:0:
385,124,28100,1,2,0:1:0:0:
372,46,28271,1,2,0:1:0:0:
316,225,28443,6,0,L|263:56,1,169.64999223404,14|0,0:0|0:0,0:0:0:0:
321,207,28786,2,0,L|371:46,1,169.64999223404,12|0,0:0|0:0,0:0:0:0:
371,45,29128,1,2,0:1:0:0:
446,204,29300,1,2,0:1:0:0:
512,155,29471,6,0,P|512:104|466:69,1,104.399996813965,10|0,0:0|0:0,0:0:0:0:
320,213,29814,2,0,L|216:194,1,104.399996813965,8|0,0:0|0:0,0:0:0:0:
34,229,30157,1,2,0:1:0:0:
91,151,30328,1,2,0:1:0:0:
208,352,30500,6,0,B|267:334|267:334|326:332|326:332|372:316,1,156.599995220947,10|0,0:0|0:0,0:0:0:0:
185,355,30843,2,0,P|158:331|173:265,1,104.399996813965,8|0,0:0|0:0,0:0:0:0:
412,170,31186,1,2,0:1:0:0:
444,93,31357,1,2,0:1:0:0:
259,19,31528,6,0,P|277:90|280:146,1,104.399996813965,10|0,0:0|0:0,0:0:0:0:
111,219,31871,6,0,B|151:202|151:202|272:254,1,156.599995220947,12|0,0:0|0:0,0:0:0:0:
85,232,32214,2,0,B|50:205|50:205|34:75,1,156.599995220947,12|0,0:0|0:0,0:0:0:0:
108,253,32557,2,0,B|102:296|102:296|-2:374,1,156.599995220947,14|0,0:0|0:0,0:0:0:0:
161,355,32900,6,0,P|229:350|285:378,1,113.099994822693,12|0,0:0|0:0,0:0:0:0:
426,296,33243,1,2,0:1:0:0:
312,185,33414,1,2,0:1:0:0:
363,123,33586,6,0,L|334:295,1,169.64999223404,10|0,0:0|0:0,0:0:0:0:
366,100,33928,2,0,B|417:73|417:73|475:102,1,113.099994822693,8|0,0:0|0:0,0:0:0:0:
207,205,34271,1,2,0:1:0:0:
45,95,34443,1,2,0:1:0:0:
96,33,34614,6,0,P|155:41|157:144,1,169.64999223404,10|0,0:0|0:0,0:0:0:0:
207,205,34957,2,0,P|139:249|133:289,1,113.099994822693,8|0,0:0|0:0,0:0:0:0:
278,371,35300,1,2,0:1:0:0:
355,153,35471,1,2,0:1:0:0:
390,223,35643,6,0,B|340:246|340:246|222:209,1,169.64999223404,10|0,0:0|0:0,0:0:0:0:
410,215,35986,2,0,P|452:263|438:307,1,113.099994822693,8|0,0:0|0:0,0:0:0:0:
265,127,36328,1,2,0:1:0:0:
98,249,36500,1,2,0:1:0:0:
50,179,36671,6,0,B|67:156|92:151|92:151|212:200,1,169.64999223404,14|0,0:0|0:0,0:0:0:0:
29,182,37014,2,0,P|54:100|42:44,1,113.099994822693,12|0,0:0|0:0,0:0:0:0:
265,127,37357,1,2,0:1:0:0:
410,57,37528,1,2,0:1:0:0:
479,105,37700,6,0,P|494:177|415:229,1,169.64999223404,10|0,0:0|0:0,0:0:0:0:
390,317,38043,2,0,P|325:278|274:285,1,113.099994822693,8|0,0:0|0:0,0:0:0:0:
113,353,38386,1,2,0:1:0:0:
155,158,38557,1,2,0:1:0:0:
84,88,38728,6,0,P|16:99|5:198,1,169.64999223404,10|0,0:0|0:0,0:0:0:0:
20,278,39071,2,0,P|77:280|121:242,1,113.099994822693,8|0,0:0|0:0,0:0:0:0:
269,112,39414,1,2,0:1:0:0:
386,242,39586,1,2,0:1:0:0:
474,203,39757,6,0,P|398:187|366:222,1,113.099994822693,10|0,0:0|0:0,0:0:0:0:
107,121,40100,6,0,B|136:91|136:91|164:257,1,182.699994424439,12|0,0:0|0:0,0:0:0:0:
272,249,40443,2,0,B|243:219|243:219|215:385,1,182.699994424439,12|0,0:0|0:0,0:0:0:0:
218,369,40786,1,14,0:0:0:0:
218,369,41128,6,0,P|205:335|191:316,1,43.5,2|0,0:0|0:0,0:0:0:0:
265,288,41471,2,0,P|278:254|296:233,1,56.5499974113466,2|0,0:0|0:0,0:0:0:0:
180,203,41814,2,0,P|156:176|123:162,1,69.6,2|0,0:0|0:0,0:0:0:0:
287,127,42157,2,0,P|315:95|352:80,1,82.649997793007,2|0,0:0|0:0,0:0:0:0:
189,22,42500,2,0,P|111:6|-6:31,1,191.400005841065,2|0,0:0|0:0,0:0:0:0:
8,353,43186,6,0,P|33:329|46:304,1,43.5,2|0,0:0|0:0,0:0:0:0:
113,353,43528,2,0,P|151:348|178:357,1,56.5499974113466,2|0,0:0|0:0,0:0:0:0:
114,245,43871,2,0,P|127:209|125:167,1,69.6,2|0,0:0|0:0,0:0:0:0:
264,258,44214,2,0,P|301:293|309:338,1,82.649997793007,2|0,0:0|0:0,0:0:0:0:
334,131,44557,2,0,P|411:75|435:-21,1,191.400005841065,2|0,0:0|0:0,0:0:0:0:
504,353,45243,6,0,P|479:329|466:304,1,43.5,2|0,0:0|0:0,0:0:0:0:
399,353,45586,2,0,P|361:348|334:357,1,56.5499974113466,2|0,0:0|0:0,0:0:0:0:
398,245,45928,2,0,P|385:209|387:167,1,69.6,2|0,0:0|0:0,0:0:0:0:
248,258,46271,2,0,P|211:293|203:338,1,82.649997793007,2|0,0:0|0:0,0:0:0:0:
178,131,46614,2,0,P|101:75|77:-21,1,191.400005841065,2|0,0:0|0:0,0:0:0:0:
294,369,47300,6,0,P|307:335|321:316,1,43.5,2|0,0:0|0:0,0:0:0:0:
247,288,47643,2,0,P|234:254|216:233,1,56.5499974113466,2|0,0:0|0:0,0:0:0:0:
332,203,47986,2,0,P|356:176|389:162,1,69.6,2|0,0:0|0:0,0:0:0:0:
236,78,48328,6,0,B|182:91|182:91|145:129|145:129|76:142,1,156.599995220947,12|0,0:0|0:0,0:0:0:0:
252,55,48671,2,0,B|306:68|306:68|343:106|343:106|412:119,1,156.599995220947,12|0,0:0|0:0,0:0:0:0:
236,78,49014,2,0,B|218:127|218:127|245:176,1,104.399996813965,12|0,0:0|0:0,0:0:0:0:
66,303,49357,6,0,P|100:268|153:269,1,87,12|0,0:0|0:0,0:0:0:0:
364,353,49700,1,8,0:0:0:0:
408,259,49871,2,0,L|308:276,1,87,8|2,0:1|0:3,0:0:0:0:
194,338,50214,1,0,0:0:0:0:
127,281,50386,1,8,0:0:0:0:
169,123,50557,1,0,0:0:0:0:
18,42,50728,2,0,P|56:89|66:133,1,87,8|8,0:0|0:1,0:0:0:0:
194,338,51071,2,0,P|210:297|239:266,1,87,2|0,0:3|0:0,0:0:0:0:
298,46,51414,6,0,B|368:61|368:61|390:85|390:85|465:99,1,174,8|8,0:0|0:0,0:0:0:0:
270,41,51928,2,0,P|238:75|246:119,1,87,8|2,0:1|0:3,0:0:0:0:
359,238,52271,1,0,0:0:0:0:
264,284,52443,1,8,0:0:0:0:
109,180,52614,1,0,0:0:0:0:
9,335,52786,2,0,P|76:298|110:288,1,87,8|8,0:0|0:1,0:0:0:0:
282,197,53128,2,0,P|349:234|383:244,1,87,2|0,0:3|0:0,0:0:0:0:
290,85,53471,6,0,P|202:57|178:138,1,174,8|8,0:0|0:0,0:0:0:0:
307,79,53986,2,0,P|278:45|228:32,1,87,8|2,0:1|0:3,0:0:0:0:
134,270,54328,1,0,0:0:0:0:
71,193,54500,1,8,0:0:0:0:
161,80,54671,1,0,0:0:0:0:
249,253,54843,2,0,P|244:307|224:340,1,87,8|8,0:0|0:1,0:0:0:0:
31,281,55186,2,0,P|36:227|56:194,1,87,2|0,0:3|0:0,0:0:0:0:
313,103,55528,6,0,P|368:142|421:138,1,87,8|0,0:0|0:0,0:0:0:0:
466,102,55871,1,8,0:0:0:0:
438,265,56043,2,0,P|450:208|482:190,1,87,8|2,0:1|0:3,0:0:0:0:
329,324,56386,1,0,0:0:0:0:
251,273,56557,1,12,0:0:0:0:
65,321,56728,1,0,0:0:0:0:
238,109,56900,6,0,B|253:151|253:151|230:216|230:216|245:263,1,156.599995220947,12|0,0:0|0:0,0:0:0:0:
243,256,57243,2,0,B|255:213|255:213|227:149|227:149|239:101,1,156.599995220947,12|0,0:0|0:0,0:0:0:0:
258,29,57586,6,0,B|307:25|337:59|324:84|356:110|400:104,1,156.599995220947,12|0,0:0|0:0,0:0:0:0:
405,101,57928,1,8,0:0:0:0:
385,237,58100,2,0,P|438:189|471:187,1,91.3499972122193,8|2,0:1|0:3,0:0:0:0:
322,331,58443,1,0,0:0:0:0:
221,276,58614,1,8,0:0:0:0:
229,126,58786,1,0,0:0:0:0:
98,34,58957,2,0,P|47:62|31:129,1,91.3499972122193,8|8,0:0|0:1,0:0:0:0:
249,126,59300,2,0,P|300:98|316:31,1,91.3499972122193,2|0,0:3|0:0,0:0:0:0:
116,234,59643,6,0,B|176:224|176:224|242:234|242:234|302:222,1,182.699994424439,8|8,0:0|0:0,0:0:0:0:
93,241,60157,2,0,P|77:287|111:324,1,91.3499972122193,8|2,0:1|0:3,0:0:0:0:
278,327,60500,1,0,0:0:0:0:
304,233,60671,1,8,0:0:0:0:
428,140,60843,1,0,0:0:0:0:
369,0,61014,2,0,L|258:14,1,91.3499972122193,8|8,0:0|0:1,0:0:0:0:
197,135,61357,2,0,L|287:123,1,91.3499972122193,2|0,0:3|0:0,0:0:0:0:
69,49,61700,6,0,P|26:130|108:198,1,182.699994424439,8|8,0:0|0:0,0:0:0:0:
72,64,62214,2,0,P|38:119|49:153,1,91.3499972122193,8|2,0:1|0:3,0:0:0:0:
267,119,62557,1,0,0:0:0:0:
345,266,62728,1,8,0:0:0:0:
276,367,62900,1,0,0:0:0:0:
207,317,63071,2,0,P|197:261|233:229,1,91.3499972122193,8|8,0:0|0:1,0:0:0:0:
217,327,63414,1,2,0:3:0:0:
102,82,63757,6,0,B|149:96|149:96|182:128|182:128|240:141,1,137.024995818329,8|0,0:0|0:0,0:0:0:0:
222,137,64100,1,8,0:0:0:0:
295,51,64271,2,0,P|293:97|331:122,1,91.3499972122193,8|2,0:1|0:3,0:0:0:0:
412,113,64614,1,0,0:0:0:0:
476,255,64786,2,0,B|437:228|392:242|398:268|357:281|322:257,1,163.125,12|0,0:0|0:0,0:0:0:0:
322,257,65128,2,0,B|360:229|405:242|399:268|441:279|475:254,1,163.125,12|0,0:0|0:0,0:0:0:0:
512,181,65471,2,0,B|525:128|525:128|492:72,1,108.75,12|0,0:0|0:0,0:0:0:0:
454,21,65814,5,12,0:0:0:0:
202,178,74043,6,0,L|110:188,2,87,2|2|2,0:1|0:0|0:0,0:0:0:0:
372,241,75414,2,0,P|401:219|408:201,1,43.5,2|0,0:0|0:0,0:0:0:0:
357,147,75757,2,0,P|361:110|354:93,1,43.5,2|0,0:0|0:0,0:0:0:0:
276,96,76100,6,0,P|239:75|192:91,2,87,2|2|2,0:1|0:0|0:0,0:0:0:0:
323,263,77471,2,0,L|312:321,1,43.5,2|2,0:0|0:0,0:0:0:0:
299,384,77814,1,2,0:0:0:0:
118,202,78157,6,0,B|160:212|160:212|208:196,2,87,2|2|2,0:1|0:0|0:0,0:0:0:0:
404,96,79528,2,0,L|392:187,1,87,2|2,0:0|0:0,0:0:0:0:
385,281,80043,5,0,0:0:0:0:
385,281,80214,2,0,L|373:190,2,87,2|2|2,0:1|0:0|0:0,0:0:0:0:
169,384,81586,2,0,L|164:332,1,43.5,2|2,0:0|0:0,0:0:0:0:
157,259,81928,1,2,0:0:0:0:
28,146,82271,6,0,B|70:168|115:153|113:129|162:119|204:142,1,174,2|2,0:1|0:0,0:0:0:0:
407,97,83643,2,0,P|434:113|444:131,1,43.5,2|0,0:0|0:0,0:0:0:0:
386,191,83986,2,0,P|393:221|388:241,1,43.5,2|0,0:0|0:0,0:0:0:0:
297,248,84328,6,0,B|276:269|259:273|259:273|212:266,2,87,2|2|2,0:1|0:0|0:0,0:0:0:0:
46,100,85700,2,0,P|29:141|55:187,1,87,2|2,0:0|0:0,0:0:0:0:
126,205,86214,5,2,0:1:0:0:
126,205,86386,2,0,L|216:191,1,87,2|2,0:1|0:0,0:0:0:0:
354,168,87071,1,2,0:0:0:0:
374,157,87757,2,0,P|410:203|405:238,1,87,2|2,0:0|0:0,0:0:0:0:
300,122,88271,5,2,0:1:0:0:
300,122,88443,2,0,P|306:70|333:49,2,87,2|2|2,0:1|0:0|0:0,0:0:0:0:
209,186,89471,6,0,B|97:171|97:171|86:149|96:126,1,150.075002862454,12|0,0:1|0:0,0:0:0:0:
239,194,89814,2,0,B|282:298|282:298|268:319|243:321,1,150.075002862454,12|0,0:1|0:0,0:0:0:0:
225,166,90157,2,0,B|293:76|293:76|318:77|333:98,1,150.075002862454,12|0,0:1|0:0,0:0:0:0:
209,186,90500,6,0,B|97:171|97:171|86:149|96:126,1,150.075002862454,12|0,0:0|0:0,0:0:0:0:
151,79,90843,2,0,P|148:48|102:16,1,87,2|2,0:1|0:1,0:0:0:0:
17,280,91186,6,0,L|145:260,1,130.5,10|0,0:0|0:0,0:0:0:0:
162,260,91528,2,0,B|191:267|191:267|210:293|210:293|236:301,1,87,8|0,0:0|0:0,0:0:0:0:
328,333,91871,1,2,0:1:0:0:
328,333,92043,1,2,0:1:0:0:
455,123,92214,6,0,P|491:170|460:242,1,130.5,10|0,0:0|0:0,0:0:0:0:
461,233,92557,2,0,L|337:225,1,87,8|0,0:0|0:0,0:0:0:0:
258,217,92900,1,2,0:1:0:0:
258,217,93071,1,2,0:1:0:0:
38,34,93243,6,0,B|49:83|49:83|44:112|44:112|61:168,1,130.5,10|0,0:0|0:0,0:0:0:0:
66,173,93586,2,0,P|115:183|145:158,1,87,8|0,0:0|0:0,0:0:0:0:
168,62,93928,1,2,0:1:0:0:
168,62,94100,1,2,0:1:0:0:
393,224,94271,6,0,B|390:173|390:173|415:132|415:132|411:81,1,150.075002862454,14|0,0:0|0:0,0:0:0:0:
403,250,94614,2,0,B|340:292|340:292|265:264,1,150.075002862454,12|0,0:0|0:0,0:0:0:0:
250,256,94957,2,0,P|197:280|188:304,1,87,2|2,0:1|0:1,0:0:0:0:
5,369,95300,6,0,B|28:339|28:339|8:228,1,130.5,10|0,0:0|0:0,0:0:0:0:
8,233,95643,2,0,P|48:205|92:209,1,87,8|0,0:0|0:0,0:0:0:0:
148,285,95986,1,2,0:1:0:0:
148,285,96157,1,2,0:1:0:0:
392,225,96328,6,0,P|316:213|289:169,1,130.5,10|0,0:0|0:0,0:0:0:0:
293,165,96671,2,0,P|325:146|378:151,1,87,8|0,0:0|0:0,0:0:0:0:
404,252,97014,1,2,0:1:0:0:
404,252,97186,1,2,0:1:0:0:
155,182,97357,6,0,B|192:180|209:143|197:125|215:95|263:92,1,130.5,10|0,0:0|0:0,0:0:0:0:
139,200,97700,6,0,P|90:167|98:85,1,150.075002862454,12|0,0:0|0:0,0:0:0:0:
243,95,98043,2,0,P|238:153|163:188,1,150.075002862454,12|0,0:0|0:0,0:0:0:0:
99,54,98386,2,0,P|152:28|219:75,1,150.075002862454,14|0,0:0|0:0,0:0:0:0:
303,40,98728,6,0,B|314:57|333:61|333:61|410:45,1,104.399996813965,12|0,0:0|0:0,0:0:0:0:
493,209,99071,1,2,0:1:0:0:
425,284,99243,1,2,0:1:0:0:
268,213,99414,6,0,B|197:213|197:213|165:233|165:233|105:236,1,156.599995220947,10|0,0:0|0:0,0:0:0:0:
297,211,99757,2,0,P|314:164|282:120,1,104.399996813965,8|0,0:0|0:0,0:0:0:0:
100,238,100100,1,2,0:1:0:0:
22,178,100271,1,2,0:1:0:0:
162,29,100443,6,0,P|182:68|113:138,1,156.599995220947,10|0,0:0|0:0,0:0:0:0:
147,16,100786,2,0,B|195:0|195:0|261:16,1,104.399996813965,8|0,0:0|0:0,0:0:0:0:
400,124,101128,1,2,0:1:0:0:
488,61,101300,1,2,0:1:0:0:
377,144,101471,6,0,B|341:155|312:144|312:144|288:126|288:126|251:110|220:125,1,156.599995220947,10|0,0:0|0:0,0:0:0:0:
400,124,101814,2,0,P|413:80|375:41,1,104.399996813965,8|0,0:0|0:0,0:0:0:0:
247,202,102157,1,2,0:1:0:0:
145,148,102328,1,2,0:1:0:0:
14,263,102500,6,0,P|82:241|189:241,1,169.64999223404,14|0,0:0|0:0,0:0:0:0:
0,261,102843,2,0,P|34:194|72:92,1,169.64999223404,12|0,0:0|0:0,0:0:0:0:
146,148,103186,2,0,P|209:114|271:115,1,104.399996813965,2|2,0:1|0:1,0:0:0:0:
441,137,103528,6,0,P|371:150|373:237,1,156.599995220947,10|0,0:0|0:0,0:0:0:0:
457,116,103871,2,0,P|389:104|345:130,1,104.399996813965,8|0,0:0|0:0,0:0:0:0:
280,311,104214,1,2,0:1:0:0:
186,272,104386,1,2,0:1:0:0:
34,336,104557,6,0,B|63:321|70:303|70:303|42:171,1,156.599995220947,10|0,0:0|0:0,0:0:0:0:
26,356,104900,2,0,L|153:329,1,104.399996813965,8|0,0:0|0:0,0:0:0:0:
337,282,105243,1,2,0:1:0:0:
269,213,105414,1,2,0:1:0:0:
290,58,105586,6,0,B|316:89|316:89|287:228,1,156.599995220947,10|0,0:0|0:0,0:0:0:0:
145,287,105928,6,0,B|162:245|162:245|293:204,1,156.599995220947,12|0,0:0|0:0,0:0:0:0:
416,302,106271,2,0,B|376:309|376:309|270:214,1,156.599995220947,12|0,0:0|0:0,0:0:0:0:
290,58,106614,2,0,P|232:74|221:122,1,104.399996813965,14|0,0:0|0:0,0:0:0:0:
169,364,106957,6,0,P|231:338|285:325,1,113.099994822693,12|0,0:0|0:0,0:0:0:0:
445,250,107300,1,2,0:1:0:0:
291,137,107471,1,2,0:1:0:0:
375,79,107643,6,0,L|349:260,1,169.64999223404,10|0,0:0|0:0,0:0:0:0:
376,59,107986,2,0,P|434:33|482:65,1,113.099994822693,8|0,0:0|0:0,0:0:0:0:
250,231,108328,1,2,0:1:0:0:
84,132,108500,1,2,0:1:0:0:
36,200,108671,6,0,B|54:218|76:220|76:220|218:176,1,169.64999223404,10|0,0:0|0:0,0:0:0:0:
23,191,109014,2,0,P|36:254|85:274,1,113.099994822693,8|0,0:0|0:0,0:0:0:0:
299,341,109357,1,2,0:1:0:0:
403,171,109528,1,2,0:1:0:0:
484,210,109700,6,0,P|496:253|402:308,1,169.64999223404,10|0,0:0|0:0,0:0:0:0:
473,198,110043,2,0,P|485:127|511:71,1,113.099994822693,8|0,0:0|0:0,0:0:0:0:
334,42,110386,1,2,0:1:0:0:
213,179,110557,1,2,0:1:0:0:
295,215,110728,6,0,P|303:173|207:85,1,182.699994424439,14|0,0:0|0:0,0:0:0:0:
300,236,111071,2,0,P|352:180|452:188,1,182.699994424439,12|0,0:0|0:0,0:0:0:0:
448,97,111414,2,0,P|481:77|489:3,1,113.099994822693,2|2,0:1|0:1,0:0:0:0:
280,52,111757,6,0,B|217:48|217:48|159:65|159:65|106:61,1,169.64999223404,10|0,0:0|0:0,0:0:0:0:
299,56,112100,2,0,P|317:112|276:154,1,113.099994822693,8|0,0:0|0:0,0:0:0:0:
57,240,112443,1,2,0:1:0:0:
215,347,112614,1,2,0:1:0:0:
260,279,112786,6,0,P|320:278|359:318,1,113.099994822693,10|0,0:0|0:0,0:0:0:0:
493,79,113128,2,0,B|495:98|481:118|481:118|400:138,1,113.099994822693,8|0,0:0|0:0,0:0:0:0:
235,69,113471,1,2,0:1:0:0:
126,256,113643,1,2,0:1:0:0:
260,279,113814,6,0,B|286:264|286:264|286:235|286:235|199:137,1,169.64999223404,10|0,0:0|0:0,0:0:0:0:
126,256,114157,2,0,B|125:286|125:286|151:300|151:300|279:274,1,169.64999223404,12|0,0:0|0:0,0:0:0:0:
212,152,114500,2,0,B|186:136|186:136|160:151|160:151|119:275,1,169.64999223404,12|0,0:0|0:0,0:0:0:0:
81,359,114843,5,14,0:0:0:0:
