osu file format v14

[General]
AudioFilename: audio.mp3
AudioLeadIn: 0
PreviewTime: 74043
Countdown: 0
SampleSet: Soft
StackLeniency: 0.7
Mode: 0
LetterboxInBreaks: 0
WidescreenStoryboard: 1

[Editor]
Bookmarks: 16457,24685,32914,41142,49371,57600,65828,74057,90514,98742,106971
DistanceSpacing: 1.4
BeatDivisor: 4
GridSize: 4
TimelineZoom: 1.9

[Metadata]
Title:carol of the circles
TitleUnicode:carol of the circles
Artist:nekodex
ArtistUnicode:nekodex
Creator:hypercyte
Version:hard
Source:osu!
Tags:osu christmas theme song 2019 hypercute haruto haruto_aizawa featured artist fa bells instrumental orchestral orchestra orchestrate mappers mapper's guild mpg
BeatmapID:2258864
BeatmapSetID:1078322

[Difficulty]
HPDrainRate:5.4
CircleSize:4
OverallDifficulty:6
ApproachRate:8
SliderMultiplier:1.54
SliderTickRate:1

[Events]
//Background and Video events
0,0,"by BlankSensei.jpg",0,0
//Break Periods
2,66014,73293
//Storyboard Layer 0 (Background)
//Storyboard Layer 1 (Fail)
//Storyboard Layer 2 (Pass)
//Storyboard Layer 3 (Foreground)
//Storyboard Layer 4 (Overlay)
//Storyboard Sound Samples

[TimingPoints]
-14,342.857142857143,3,2,4,44,1,0
-14,-100,3,2,4,44,0,0
16443,-100,3,2,4,44,0,0
20214,-100,3,2,4,44,0,0
20471,-100,3,2,4,5,0,0
20557,-100,3,2,4,44,0,0
20900,-100,3,2,4,44,0,0
23643,-100,3,2,4,44,0,0
23900,-100,3,2,4,5,0,0
23986,-100,3,2,4,44,0,0
24243,-100,3,2,4,5,0,0
24328,-100,3,2,4,44,0,0
24671,-100,3,2,4,64,0,0
28443,-100,3,2,4,64,0,0
28700,-100,3,2,4,5,0,0
28786,-100,3,2,4,64,0,0
29128,-100,3,2,4,64,0,0
32128,-100,3,2,4,5,0,0
32214,-100,3,2,4,64,0,0
32471,-100,3,2,4,5,0,0
32557,-100,3,2,4,64,0,0
32900,-100,3,2,4,84,0,0
40100,-100,3,2,4,84,0,0
40357,-100,3,2,4,5,0,0
40443,-100,3,2,4,84,0,0
40700,-100,3,2,4,5,0,0
40786,-100,3,2,4,84,0,0
41128,-133.333333333333,3,2,44,34,0,0
41471,-133.333333333333,3,2,44,44,0,0
41814,-133.333333333333,3,2,44,54,0,0
42157,-133.333333333333,3,2,44,64,0,0
42500,-133.333333333333,3,2,44,74,0,0
43186,-133.333333333333,3,2,44,34,0,0
43528,-133.333333333333,3,2,44,44,0,0
43871,-133.333333333333,3,2,44,54,0,0
44214,-133.333333333333,3,2,44,64,0,0
44557,-133.333333333333,3,2,44,74,0,0
45243,-133.333333333333,3,2,44,34,0,0
45585,-133.333333333333,3,2,44,44,0,0
45928,-133.333333333333,3,2,44,54,0,0
46271,-133.333333333333,3,2,44,64,0,0
46614,-133.333333333333,3,2,44,74,0,0
47300,-133.333333333333,3,2,44,34,0,0
47642,-133.333333333333,3,2,44,44,0,0
47985,-133.333333333333,3,2,44,54,0,0
48328,-100,3,2,4,64,0,0
48586,-100,3,2,4,5,0,0
48671,-100,3,2,4,64,0,0
48928,-100,3,2,4,5,0,0
49014,-100,3,2,4,64,0,0
49357,-100,3,2,4,74,0,0
56814,-100,3,2,4,5,0,0
56900,-100,3,2,4,74,0,0
57157,-100,3,2,4,5,0,0
57243,-100,3,2,4,74,0,0
57928,-100,3,2,4,74,0,0
64786,-100,3,2,4,74,0,0
65043,-100,3,2,4,5,0,0
65128,-100,3,2,4,74,0,0
65386,-100,3,2,4,5,0,0
65471,-100,3,2,4,74,0,0
74043,-153.846153846154,3,2,4,44,0,0
89471,-100,3,2,4,44,0,0
89728,-100,3,2,4,5,0,0
89814,-100,3,2,4,44,0,0
90071,-100,3,2,4,5,0,0
90157,-100,3,2,4,44,0,0
90843,-100,3,2,4,44,0,0
94271,-100,3,2,4,44,0,0
94528,-100,3,2,4,5,0,0
94614,-100,3,2,4,44,0,0
94957,-100,3,2,4,44,0,0
97700,-100,3,2,4,44,0,0
97957,-100,3,2,4,5,0,0
98043,-100,3,2,4,44,0,0
98300,-100,3,2,4,5,0,0
98386,-100,3,2,4,44,0,0
98728,-100,3,2,4,64,0,0
102500,-100,3,2,4,64,0,0
102757,-100,3,2,4,5,0,0
102843,-100,3,2,4,64,0,0
103186,-100,3,2,4,64,0,0
106186,-100,3,2,4,5,0,0
106271,-100,3,2,4,64,0,0
106528,-100,3,2,4,5,0,0
106614,-100,3,2,4,64,0,0
106957,-100,3,2,4,84,0,0
110728,-100,3,2,4,84,0,0
111414,-100,3,2,4,84,0,0
114414,-100,3,2,4,5,0,0
114500,-100,3,2,4,84,0,0
114757,-100,3,2,4,5,0,0
114843,-100,3,2,4,84,0,0

[Colours]
Combo1 : 244,185,243
Combo2 : 212,212,212

[HitObjects]
146,120,16443,6,0,B|197:116|197:116|258:137|258:137|297:134,1,154,12|2,0:0|0:1,0:0:0:0:
403,146,16957,1,2,0:1:0:0:
403,146,17128,6,0,P|416:200|400:234,1,77,10|0,0:0|0:0,0:0:0:0:
341,302,17471,2,0,B|292:307|267:287|275:264|246:237|198:238,1,154,8|2,0:0|0:1,0:0:0:0:
101,259,17986,1,2,0:1:0:0:
101,259,18157,6,0,P|72:225|77:182,1,77,10|0,0:0|0:0,0:0:0:0:
149,119,18500,2,0,P|166:73|69:20,1,154,8|2,0:0|0:1,0:0:0:0:
0,61,19014,1,2,0:1:0:0:
0,61,19186,6,0,P|-6:116|11:146,1,77,10|0,0:0|0:0,0:0:0:0:
88,199,19528,2,0,L|70:369,1,154,8|2,0:0|0:1,0:0:0:0:
177,379,20043,1,2,0:1:0:0:
243,294,20214,6,0,B|298:313|298:313|367:290,1,115.5,14|0,0:0|0:0,0:0:0:0:
377,246,20557,2,0,P|433:232|487:313,2,154,12|2|10,0:0|0:1|0:0,0:0:0:0:
167,192,21586,6,0,P|157:120|225:76,1,154,8|2,0:0|0:1,0:0:0:0:
313,27,22100,1,2,0:1:0:0:
313,27,22271,6,0,L|406:39,1,77,10|0,0:0|0:0,0:0:0:0:
495,60,22614,2,0,B|480:123|480:123|487:162|487:162|475:224,1,154,8|2,0:0|0:1,0:0:0:0:
452,315,23128,1,2,0:1:0:0:
452,315,23300,2,0,P|395:280|377:280,1,77,10|0,0:0|0:0,0:0:0:0:
297,211,23643,6,0,B|248:240|248:240|181:224,1,115.5,12|0,0:0|0:0,0:0:0:0:
138,217,23986,2,0,P|117:167|161:114,1,115.5,12|0,0:0|0:0,0:0:0:0:
200,108,24328,1,14,0:0:0:0:
400,186,24671,6,0,P|388:110|409:30,1,154,12|2,0:0|0:1,0:0:0:0:
299,12,25186,1,2,0:1:0:0:
299,12,25357,2,0,L|189:33,1,77,10|0,0:0|0:0,0:0:0:0:
115,30,25700,6,0,B|93:82|93:82|140:195,1,154,8|2,0:0|0:1,0:0:0:0:
111,278,26214,1,2,0:1:0:0:
111,278,26386,2,0,P|185:252|193:252,1,77,10|0,0:0|0:0,0:0:0:0:
269,189,26728,6,0,P|335:221|420:224,1,154,8|2,0:0|0:1,0:0:0:0:
485,142,27243,1,2,0:1:0:0:
485,142,27414,2,0,L|469:56,1,77,10|0,0:0|0:0,0:0:0:0:
368,30,27757,6,0,B|313:44|313:44|280:84|280:84|230:96,1,154,8|2,0:0|0:1,0:0:0:0:
136,52,28271,1,2,0:1:0:0:
52,120,28443,6,0,B|42:164|42:164|84:256,1,115.5,14|0,0:0|0:0,0:0:0:0:
122,212,28786,2,0,P|182:188|248:244,2,154,12|2|10,0:0|0:1|0:0,0:0:0:0:
277,361,29814,6,0,L|443:318,1,154,8|2,0:0|0:1,0:0:0:0:
491,236,30328,1,2,0:1:0:0:
491,236,30500,2,0,P|490:174|466:149,1,77,10|0,0:0|0:0,0:0:0:0:
437,65,30843,6,0,P|404:121|300:125,1,154,8|2,0:0|0:1,0:0:0:0:
232,73,31357,1,2,0:1:0:0:
232,73,31528,2,0,P|185:52|146:60,1,77,10|0,0:0|0:0,0:0:0:0:
49,45,31871,6,0,B|18:66|22:97|22:97|61:156,1,115.5,12|0,0:0|0:0,0:0:0:0:
103,154,32214,2,0,P|127:200|96:259,1,115.5,12|0,0:0|0:0,0:0:0:0:
54,278,32557,1,14,0:0:0:0:
259,213,32900,6,0,L|417:199,1,154,12|2,0:0|0:1,0:0:0:0:
508,248,33414,1,2,0:1:0:0:
508,248,33586,2,0,L|493:334,1,77,10|0,0:0|0:0,0:0:0:0:
396,366,33928,6,0,L|224:362,1,154,8|2,0:0|0:1,0:0:0:0:
133,359,34443,1,2,0:1:0:0:
133,359,34614,2,0,B|119:321|119:321|130:282,1,77,10|0,0:0|0:0,0:0:0:0:
57,204,34957,6,0,P|122:200|156:120,1,154,8|2,0:0|0:1,0:0:0:0:
123,23,35471,1,2,0:1:0:0:
123,23,35643,2,0,P|178:12|210:28,1,77,10|0,0:0|0:0,0:0:0:0:
277,90,35986,6,0,P|336:93|396:21,1,154,8|2,0:0|0:1,0:0:0:0:
503,23,36500,1,2,0:1:0:0:
503,23,36671,2,0,P|481:73|489:172,1,154,14|12,0:0|0:0,0:0:0:0:
349,335,37357,5,2,0:1:0:0:
349,335,37528,1,2,0:1:0:0:
276,264,37700,2,0,P|220:264|197:280,1,77,10|0,0:0|0:0,0:0:0:0:
103,314,38043,6,0,L|91:229,1,77,8|0,0:0|0:0,0:0:0:0:
33,147,38386,1,2,0:1:0:0:
33,147,38557,1,2,0:1:0:0:
94,58,38728,2,0,P|166:81|237:25,1,154,10|8,0:0|0:0,0:0:0:0:
294,247,39414,6,0,P|350:241|378:218,1,77,2|2,0:1|0:1,0:0:0:0:
471,208,39757,2,0,P|492:160|477:118,1,77,10|0,0:0|0:0,0:0:0:0:
407,64,40100,6,0,P|363:15|291:22,1,115.5,12|0,0:0|0:0,0:0:0:0:
296,61,40443,2,0,P|231:74|201:140,1,115.5,12|0,0:0|0:0,0:0:0:0:
220,164,40786,1,14,0:0:0:0:
263,351,41128,6,0,P|191:354|148:324,1,115.500004405976,2|2,0:0|0:0,0:0:0:0:
12,256,41814,2,0,P|20:215|40:192,1,57.7500022029878,2|0,0:0|0:0,0:0:0:0:
31,121,42157,2,0,P|65:97|96:95,1,57.7500022029878,2|0,0:0|0:0,0:0:0:0:
135,34,42500,2,0,P|176:42|218:115,1,115.500004405976,2|0,0:0|0:0,0:0:0:0:
240,259,43186,6,0,P|312:262|355:232,1,115.500004405976,2|2,0:0|0:0,0:0:0:0:
509,245,43871,2,0,P|501:204|481:181,1,57.7500022029878,2|0,0:0|0:0,0:0:0:0:
508,111,44214,2,0,P|473:87|442:85,1,57.7500022029878,2|0,0:0|0:0,0:0:0:0:
399,28,44557,2,0,P|358:36|316:109,1,115.500004405976,2|0,0:0|0:0,0:0:0:0:
282,251,45243,6,0,P|210:254|167:224,1,115.500004405976,2|2,0:0|0:0,0:0:0:0:
13,237,45928,2,0,P|21:196|41:173,1,57.7500022029878,2|0,0:0|0:0,0:0:0:0:
14,103,46271,2,0,P|48:79|79:77,1,57.7500022029878,2|0,0:0|0:0,0:0:0:0:
123,20,46614,2,0,P|164:28|206:101,1,115.500004405976,2|0,0:0|0:0,0:0:0:0:
281,227,47300,6,0,P|332:231|392:178,2,115.500004405976,2|2|2,0:0|0:0|0:0,0:0:0:0:
88,128,48328,6,0,B|76:171|76:171|86:213|86:213|75:254,1,115.5,12|0,0:0|0:0,0:0:0:0:
67,292,48671,2,0,P|92:344|152:323,1,115.5,12|0,0:0|0:0,0:0:0:0:
169,289,49014,1,12,0:0:0:0:
223,80,49357,6,0,B|297:53|297:53|379:87,1,154,12|8,0:0|0:0,0:0:0:0:
465,124,49871,1,8,0:1:0:0:
465,124,50043,2,0,P|468:173|445:206,1,77,2|0,0:3|0:0,0:0:0:0:
434,295,50386,2,0,L|341:284,1,77,8|0,0:0|0:0,0:0:0:0:
261,333,50728,1,8,0:0:0:0:
261,333,50900,1,8,0:1:0:0:
175,267,51071,1,2,0:3:0:0:
73,76,51414,6,0,P|150:52|206:95,1,154,8|8,0:0|0:0,0:0:0:0:
294,152,51928,1,8,0:1:0:0:
294,152,52100,2,0,L|371:134,1,77,2|0,0:3|0:0,0:0:0:0:
477,136,52443,2,0,P|500:185|487:219,1,77,8|0,0:0|0:0,0:0:0:0:
420,282,52786,1,8,0:0:0:0:
420,282,52957,1,8,0:1:0:0:
314,259,53128,1,2,0:3:0:0:
147,121,53471,6,0,B|103:124|80:162|99:183|67:219|23:218,1,154,8|8,0:0|0:0,0:0:0:0:
19,324,53986,1,8,0:1:0:0:
19,324,54157,2,0,L|110:316,1,77,2|0,0:3|0:0,0:0:0:0:
197,280,54500,2,0,L|296:287,1,77,8|0,0:0|0:0,0:0:0:0:
366,341,54843,1,8,0:0:0:0:
366,341,55014,1,8,0:1:0:0:
464,297,55186,1,2,0:3:0:0:
481,82,55528,6,0,B|426:70|426:70|379:42|379:42|336:34,1,154,8|8,0:0|0:0,0:0:0:0:
228,20,56043,1,8,0:1:0:0:
228,20,56214,2,0,L|135:36,1,77,2|0,0:3|0:0,0:0:0:0:
86,119,56557,6,0,B|98:138|111:144|111:144|210:133,1,115.5,12|0,0:0|0:0,0:0:0:0:
244,140,56900,2,0,P|299:164|298:237,1,115.5,12|0,0:0|0:0,0:0:0:0:
283,261,57243,1,12,0:0:0:0:
469,369,57586,6,0,P|453:284|458:188,1,154,12|8,0:0|0:0,0:0:0:0:
496,117,58100,1,8,0:1:0:0:
496,117,58271,2,0,P|500:59|482:20,1,77,2|0,0:3|0:0,0:0:0:0:
389,12,58614,2,0,L|308:18,1,77,8|0,0:0|0:0,0:0:0:0:
230,89,58957,2,0,L|149:83,1,77,8|8,0:0|0:1,0:0:0:0:
45,75,59300,1,2,0:3:0:0:
35,284,59643,6,0,B|93:267|93:267|141:267|141:267|195:252,1,154,8|8,0:0|0:0,0:0:0:0:
273,193,60157,1,8,0:1:0:0:
273,193,60328,2,0,P|323:199|353:224,1,77,2|0,0:3|0:0,0:0:0:0:
446,177,60671,2,0,P|477:216|480:255,1,77,8|0,0:0|0:0,0:0:0:0:
477,349,61014,2,0,L|390:336,1,77,8|8,0:0|0:1,0:0:0:0:
293,321,61357,1,2,0:3:0:0:
84,375,61700,6,0,P|96:310|81:213,1,154,8|8,0:0|0:0,0:0:0:0:
13,142,62214,1,8,0:1:0:0:
13,142,62386,2,0,P|17:92|48:67,1,77,2|0,0:3|0:0,0:0:0:0:
138,47,62728,2,0,L|292:76,1,154,8|8,0:0|0:0,0:0:0:0:
395,97,63243,1,8,0:1:0:0:
395,97,63414,1,2,0:3:0:0:
481,291,63757,6,0,B|446:294|409:264|432:241|396:209|361:210,1,154,8|8,0:0|0:0,0:0:0:0:
278,280,64271,1,8,0:1:0:0:
278,280,64443,1,2,0:3:0:0:
71,218,64786,6,0,P|39:171|95:112,1,115.5,12|0,0:0|0:0,0:0:0:0:
115,122,65128,2,0,P|139:70|218:89,1,115.5,12|0,0:0|0:0,0:0:0:0:
223,111,65471,1,12,0:0:0:0:
176,321,65814,5,12,0:0:0:0:
324,148,74043,6,0,L|429:142,2,100.099995417786,2|2|2,0:1|0:0|0:0,0:0:0:0:
44,165,75414,1,2,0:0:0:0:
44,165,75757,1,2,0:0:0:0:
157,82,76100,6,0,B|204:100|204:100|252:86,2,100.099995417786,2|2|2,0:1|0:0|0:0,0:0:0:0:
62,345,77471,1,2,0:0:0:0:
62,345,77643,1,2,0:0:0:0:
62,345,77814,2,0,L|170:316,1,100.099995417786,2|2,0:0|0:1,0:0:0:0:
292,275,78500,5,2,0:0:0:0:
292,275,78843,1,2,0:0:0:0:
292,275,79528,6,0,P|307:206|273:178,1,100.099995417786,2|2,0:0|0:0,0:0:0:0:
209,178,80043,1,0,0:0:0:0:
209,178,80214,2,0,P|194:109|228:81,2,100.099995417786,2|2|2,0:1|0:0|0:0,0:0:0:0:
488,151,81586,1,2,0:0:0:0:
488,151,81757,1,2,0:0:0:0:
488,151,81928,1,2,0:0:0:0:
393,47,82271,6,0,L|281:56,2,100.099995417786,2|2|2,0:1|0:0|0:0,0:0:0:0:
354,325,83643,1,2,0:0:0:0:
354,325,83986,1,2,0:0:0:0:
224,273,84328,6,0,P|203:223|217:173,2,100.099995417786,2|2|2,0:1|0:0|0:0,0:0:0:0:
44,56,85700,1,2,0:0:0:0:
50,63,85871,1,2,0:0:0:0:
50,63,86043,1,2,0:0:0:0:
105,191,86386,6,0,P|157:185|190:143,2,100.099995417786,2|2|2,0:1|0:0|0:0,0:0:0:0:
336,32,87757,2,0,L|452:52,1,100.099995417786,2|2,0:0|0:0,0:0:0:0:
512,66,88271,1,2,0:1:0:0:
512,66,88443,6,0,P|522:119|496:165,2,100.099995417786,2|2|2,0:1|0:0|0:0,0:0:0:0:
340,196,89471,6,0,B|289:198|289:198|267:206|267:206|209:208,1,115.5,12|0,0:1|0:0,0:0:0:0:
172,212,89814,2,0,P|138:179|164:112,1,115.5,12|0,0:1|0:0,0:0:0:0:
203,95,90157,1,12,0:1:0:0:
413,140,90500,6,0,B|460:125|460:125|392:36,1,154,12|2,0:0|0:1,0:0:0:0:
291,14,91014,1,2,0:1:0:0:
291,14,91186,6,0,L|198:18,1,77,10|0,0:0|0:0,0:0:0:0:
148,103,91528,2,0,B|185:101|214:128|206:151|231:171|280:166,1,154,8|2,0:0|0:1,0:0:0:0:
378,211,92043,1,2,0:1:0:0:
378,211,92214,6,0,P|397:251|381:291,1,77,10|0,0:0|0:0,0:0:0:0:
305,347,92557,2,0,L|136:322,1,154,8|2,0:0|0:1,0:0:0:0:
44,338,93071,1,2,0:1:0:0:
44,338,93243,6,0,P|38:283|55:253,1,77,10|0,0:0|0:0,0:0:0:0:
132,200,93586,2,0,L|302:182,1,154,8|2,0:0|0:1,0:0:0:0:
366,111,94100,1,2,0:1:0:0:
301,24,94271,6,0,B|246:43|246:43|177:20,1,115.5,14|0,0:0|0:0,0:0:0:0:
138,16,94614,2,0,B|141:78|141:78|133:109|133:109|140:174,2,154,12|2|10,0:0|0:1|0:0,0:0:0:0:
256,197,95643,6,0,P|328:207|372:139,1,154,8|2,0:0|0:1,0:0:0:0:
458,82,96157,1,2,0:1:0:0:
458,82,96328,6,0,L|470:175,1,77,10|0,0:0|0:0,0:0:0:0:
494,262,96671,2,0,P|475:317|386:306,1,154,8|2,0:0|0:1,0:0:0:0:
292,266,97186,1,2,0:1:0:0:
292,266,97357,2,0,P|255:275|227:301,1,77,10|0,0:0|0:0,0:0:0:0:
119,316,97700,6,0,B|148:267|148:267|132:200,1,115.5,12|0,0:0|0:0,0:0:0:0:
88,182,98043,2,0,L|112:56,1,115.5,12|0,0:0|0:0,0:0:0:0:
121,15,98386,1,14,0:0:0:0:
263,176,98728,6,0,P|339:164|419:185,1,154,12|2,0:0|0:1,0:0:0:0:
509,231,99243,1,2,0:1:0:0:
509,231,99414,2,0,P|511:280|494:328,1,77,10|0,0:0|0:0,0:0:0:0:
405,350,99757,6,0,B|353:328|353:328|252:346,1,154,8|2,0:0|0:1,0:0:0:0:
148,350,100271,1,2,0:1:0:0:
148,350,100443,2,0,P|174:276|174:268,1,77,10|0,0:0|0:0,0:0:0:0:
140,175,100786,6,0,P|170:134|260:168,1,154,8|2,0:0|0:1,0:0:0:0:
339,230,101300,1,2,0:1:0:0:
339,230,101471,2,0,P|387:225|432:211,1,77,10|0,0:0|0:0,0:0:0:0:
481,131,101814,6,0,B|426:117|426:117|393:77|393:77|343:65,1,154,8|2,0:0|0:1,0:0:0:0:
261,2,102328,1,2,0:1:0:0:
158,37,102500,6,0,B|148:48|143:69|143:69|185:161,1,115.5,14|0,0:0|0:0,0:0:0:0:
187,194,102843,2,0,P|127:170|61:226,2,154,12|2|10,0:0|0:1|0:0,0:0:0:0:
315,367,103871,6,0,L|481:324,1,154,8|2,0:0|0:1,0:0:0:0:
502,227,104386,1,2,0:1:0:0:
502,227,104557,2,0,P|501:165|477:140,1,77,10|0,0:0|0:0,0:0:0:0:
427,69,104900,6,0,P|385:130|311:139,1,154,8|2,0:0|0:1,0:0:0:0:
238,59,105414,1,2,0:1:0:0:
238,59,105586,2,0,P|191:38|152:46,1,77,10|0,0:0|0:0,0:0:0:0:
83,109,105928,6,0,B|114:130|110:161|110:161|71:220,1,115.5,12|0,0:0|0:0,0:0:0:0:
45,246,106271,2,0,P|60:295|124:315,1,115.5,12|0,0:0|0:0,0:0:0:0:
164,291,106614,1,14,0:0:0:0:
282,111,106957,6,0,L|435:124,1,154,12|2,0:0|0:1,0:0:0:0:
495,214,107471,1,2,0:1:0:0:
495,214,107643,2,0,P|493:249|477:291,1,77,10|0,0:0|0:0,0:0:0:0:
374,313,107986,6,0,B|301:316|301:316|282:324|282:324|200:326,1,154,8|2,0:0|0:1,0:0:0:0:
112,321,108500,1,2,0:1:0:0:
112,321,108671,2,0,B|98:283|98:283|109:244,1,77,10|0,0:0|0:0,0:0:0:0:
174,162,109014,6,0,P|109:158|75:78,1,154,8|2,0:0|0:1,0:0:0:0:
162,22,109528,1,2,0:1:0:0:
161,22,109700,2,0,P|196:34|234:26,1,77,10|0,0:0|0:0,0:0:0:0:
341,20,110043,6,0,L|317:205,1,154,8|2,0:0|0:1,0:0:0:0:
232,235,110557,1,2,0:1:0:0:
232,235,110728,2,0,B|159:212|159:212|76:236,1,154,14|12,0:0|0:0,0:0:0:0:
255,366,111414,5,2,0:1:0:0:
255,366,111586,1,2,0:1:0:0:
330,288,111757,2,0,P|386:288|409:304,1,77,10|0,0:0|0:0,0:0:0:0:
492,357,112100,6,0,P|509:328|504:272,1,77,8|0,0:0|0:0,0:0:0:0:
456,190,112443,1,2,0:1:0:0:
456,190,112614,1,2,0:1:0:0:
470,83,112786,2,0,B|400:116|400:116|327:81,1,154,10|8,0:0|0:0,0:0:0:0:
137,180,113471,6,0,L|213:192,1,77,2|2,0:1|0:1,0:0:0:0:
319,208,113814,2,0,P|336:249|329:281,1,77,10|0,0:0|0:0,0:0:0:0:
262,365,114157,6,0,P|228:327|149:329,1,115.5,12|0,0:0|0:0,0:0:0:0:
115,339,114500,2,0,P|104:268|64:216,1,115.5,12|0,0:0|0:0,0:0:0:0:
30,211,114843,1,14,0:0:0:0:
