osu file format v14

[General]
AudioFilename: audio.mp3
AudioLeadIn: 0
PreviewTime: 74043
Countdown: 0
SampleSet: Soft
StackLeniency: 0.7
Mode: 0
LetterboxInBreaks: 0
WidescreenStoryboard: 1

[Editor]
Bookmarks: 16457,24685,32914,41142,49371,57600,65828,74057,90514,98742,106971
DistanceSpacing: 1
BeatDivisor: 4
GridSize: 4
TimelineZoom: 1.9

[Metadata]
Title:carol of the circles
TitleUnicode:carol of the circles
Artist:nekodex
ArtistUnicode:nekodex
Creator:hypercyte
Version:easy
Source:osu!
Tags:osu christmas theme song 2019 hypercute haruto haruto_aizawa featured artist fa bells instrumental orchestral orchestra orchestrate mappers mapper's guild mpg
BeatmapID:2258955
BeatmapSetID:1078322

[Difficulty]
HPDrainRate:3
CircleSize:3
OverallDifficulty:3
ApproachRate:3
SliderMultiplier:0.94
SliderTickRate:1

[Events]
//Background and Video events
0,0,"by BlankSensei.jpg",0,0
//Break Periods
2,40985,46888
2,66014,72603
//Storyboard Layer 0 (Background)
//Storyboard Layer 1 (Fail)
//Storyboard Layer 2 (Pass)
//Storyboard Layer 3 (Foreground)
//Storyboard Layer 4 (Overlay)
//Storyboard Sound Samples

[TimingPoints]
-14,342.857142857143,3,2,4,44,1,0
-14,-100,3,2,4,44,0,0
16443,-100,3,2,4,44,0,0
20214,-100,3,2,4,44,0,0
20900,-100,3,2,4,44,0,0
23643,-100,3,2,4,44,0,0
24671,-100,3,2,4,64,0,0
28443,-100,3,2,4,64,0,0
29128,-100,3,2,4,64,0,0
32900,-100,3,2,4,84,0,0
40100,-100,3,2,4,84,0,0
41128,-100,3,2,44,34,0,0
41471,-100,3,2,44,44,0,0
41814,-100,3,2,44,54,0,0
42157,-100,3,2,44,64,0,0
42500,-100,3,2,44,74,0,0
43186,-100,3,2,44,34,0,0
43528,-100,3,2,44,44,0,0
43871,-100,3,2,44,54,0,0
44214,-100,3,2,44,64,0,0
44557,-100,3,2,44,74,0,0
45243,-100,3,2,44,34,0,0
45585,-100,3,2,44,44,0,0
45928,-100,3,2,44,54,0,0
46271,-100,3,2,44,64,0,0
46614,-100,3,2,44,74,0,0
47300,-100,3,2,44,34,0,0
47642,-100,3,2,44,44,0,0
47985,-100,3,2,44,54,0,0
48328,-100,3,2,4,64,0,0
49357,-100,3,2,4,74,0,0
56900,-100,3,2,4,74,0,0
57928,-100,3,2,4,74,0,0
64786,-100,3,2,4,74,0,0
74043,-100,3,2,4,44,0,0
89471,-100,3,2,4,44,0,0
90843,-100,3,2,4,44,0,0
94271,-100,3,2,4,44,0,0
94957,-100,3,2,4,44,0,0
97700,-100,3,2,4,44,0,0
98728,-100,3,2,4,64,0,0
102500,-100,3,2,4,64,0,0
103186,-100,3,2,4,64,0,0
106957,-100,3,2,4,84,0,0
110728,-100,3,2,4,84,0,0
111414,-100,3,2,4,84,0,0

[Colours]
Combo1 : 244,185,243
Combo2 : 212,212,212

[HitObjects]
99,140,16443,6,0,B|146:141|177:195|154:226|194:264|240:260,1,188,12|10,0:0|0:0,0:0:0:0:
313,220,17471,1,8,0:0:0:0:
384,45,18157,1,10,0:0:0:0:
472,76,18500,1,8,0:0:0:0:
490,263,19186,1,10,0:0:0:0:
419,325,19528,1,8,0:0:0:0:
239,269,20214,6,0,B|201:275|201:275|185:284|185:284|138:291,1,94,14|12,0:0|0:0,0:0:0:0:
49,128,21243,1,10,0:0:0:0:
102,50,21586,1,8,0:0:0:0:
276,119,22271,1,10,0:0:0:0:
362,81,22614,1,8,0:0:0:0:
494,213,23300,1,10,0:0:0:0:
414,262,23643,6,0,B|371:240|371:240|318:251,2,94,12|12|14,0:0|0:0|0:0,0:0:0:0:
451,348,24671,1,12,0:0:0:0:
264,327,25357,1,10,0:0:0:0:
177,363,25700,1,8,0:0:0:0:
135,179,26386,1,10,0:0:0:0:
70,110,26728,1,8,0:0:0:0:
257,100,27414,1,10,0:0:0:0:
338,52,27757,1,8,0:0:0:0:
486,167,28443,6,0,P|486:220|451:250,1,94,14|12,0:0|0:0,0:0:0:0:
364,246,29128,1,2,0:1:0:0:
292,185,29471,1,10,0:0:0:0:
199,203,29814,1,8,0:0:0:0:
23,269,30500,1,10,0:0:0:0:
82,341,30843,1,8,0:0:0:0:
264,295,31528,1,10,0:0:0:0:
358,295,31871,6,0,P|360:342|401:374,2,94,12|12|14,0:0|0:0|0:0,0:0:0:0:
427,231,32900,2,0,P|441:173|424:127,1,94,12|2,0:0|0:1,0:0:0:0:
371,68,33586,1,10,0:0:0:0:
283,101,33928,2,0,L|174:94,1,94,8|2,0:0|0:1,0:0:0:0:
100,62,34614,1,10,0:0:0:0:
31,126,34957,2,0,B|13:171|13:171|42:230,1,94,8|2,0:0|0:1,0:0:0:0:
100,277,35643,1,10,0:0:0:0:
174,219,35986,2,0,L|282:230,1,94,8|2,0:0|0:1,0:0:0:0:
358,252,36671,6,0,B|402:247|402:247|421:250|421:250|459:244,2,94,14|12|2,0:0|0:0|0:1,0:0:0:0:
297,324,37700,1,10,0:0:0:0:
213,367,38043,2,0,L|110:357,1,94,8|2,0:0|0:1,0:0:0:0:
44,300,38728,1,10,0:0:0:0:
109,232,39071,2,0,P|127:176|111:138,1,94,8|2,0:0|0:1,0:0:0:0:
60,68,39757,1,10,0:0:0:0:
132,8,40100,6,0,L|226:25,2,94,12|12|14,0:0|0:0|0:0,0:0:0:0:
330,229,48328,6,0,L|434:205,2,94,12|12|12,0:0|0:0|0:0,0:0:0:0:
248,275,49357,6,0,B|204:275|173:230|200:198|166:154|110:160,1,188,12|2,0:0|0:3,0:0:0:0:
50,93,50386,1,8,0:0:0:0:
110,21,50728,2,0,P|172:21|205:50,1,94,8|2,0:0|0:3,0:0:0:0:
256,111,51414,6,0,L|449:82,1,188,8|2,0:0|0:3,0:0:0:0:
493,161,52443,1,8,0:0:0:0:
422,223,52786,2,0,P|399:264|410:312,1,94,8|2,0:0|0:3,0:0:0:0:
330,361,53471,6,0,B|258:357|258:357|206:346|206:346|139:343,1,188,8|2,0:0|0:3,0:0:0:0:
72,280,54500,1,8,0:0:0:0:
116,197,54843,2,0,P|170:184|221:186,1,94,8|2,0:0|0:3,0:0:0:0:
290,229,55528,6,0,P|361:235|443:144,1,188,8|2,0:0|0:3,0:0:0:0:
421,65,56557,5,12,0:0:0:0:
335,26,56900,1,12,0:0:0:0:
253,72,57243,1,12,0:0:0:0:
163,44,57586,6,0,L|58:28,2,94,12|8|2,0:0|0:0|0:3,0:0:0:0:
172,137,58614,2,0,L|166:236,1,94,8|8,0:0|0:0,0:0:0:0:
161,325,59300,1,2,0:3:0:0:
250,353,59643,6,0,B|294:346|317:294|299:274|318:225|370:218,1,188,8|2,0:0|0:3,0:0:0:0:
459,218,60671,1,8,0:0:0:0:
498,132,61014,2,0,P|461:67|432:60,1,94,8|2,0:0|0:3,0:0:0:0:
355,38,61700,6,0,B|311:45|288:97|306:117|287:166|235:173,1,188,8|2,0:0|0:3,0:0:0:0:
146,160,62728,2,0,P|100:179|78:227,2,94,8|8|2,0:0|0:0|0:3,0:0:0:0:
185,245,63757,6,0,B|229:252|252:304|234:324|253:373|300:379,1,188,8|2,0:0|0:3,0:0:0:0:
387,344,64786,5,12,0:0:0:0:
438,265,65128,1,12,0:0:0:0:
381,189,65471,1,12,0:0:0:0:
429,108,65814,1,12,0:0:0:0:
224,50,74043,6,0,L|116:56,2,94,2|2|2,0:1|0:0|0:0,0:0:0:0:
379,156,75414,2,0,B|325:157|301:196|321:226|293:269|242:269,1,188,2|2,0:0|0:1,0:0:0:0:
159,230,76443,1,2,0:0:0:0:
174,137,76786,1,2,0:0:0:0:
11,42,77471,2,0,L|17:149,1,94,2|2,0:0|0:0,0:0:0:0:
71,212,78157,6,0,L|77:319,2,94,2|2|2,0:1|0:0|0:0,0:0:0:0:
171,52,79528,2,0,P|244:44|304:134,1,188,2|2,0:0|0:1,0:0:0:0:
293,223,80557,1,2,0:0:0:0:
210,268,80900,1,2,0:0:0:0:
375,356,81586,2,0,B|417:332|417:332|472:342,1,94,2|2,0:0|0:0,0:0:0:0:
461,246,82271,6,0,P|484:221|493:151,2,94,2|2|2,0:1|0:0|0:0,0:0:0:0:
278,198,83643,2,0,B|229:191|206:152|223:122|191:84|137:86,1,188,2|2,0:0|0:1,0:0:0:0:
51,112,84671,1,2,0:0:0:0:
32,204,85014,1,2,0:0:0:0:
184,314,85700,2,0,B|224:309|224:309|245:313|245:313|284:306,1,94,2|2,0:0|0:0,0:0:0:0:
367,282,86386,6,0,P|395:329|385:371,2,94,2|2|2,0:1|0:0|0:0,0:0:0:0:
210,178,87757,2,0,P|200:110|313:85,1,188,2|2,0:0|0:1,0:0:0:0:
357,144,88786,1,2,0:0:0:0:
450,138,89128,1,2,0:0:0:0:
497,219,89471,6,0,L|481:322,1,94,12|12,0:1|0:1,0:0:0:0:
397,353,90157,1,12,0:1:0:0:
328,284,90500,6,0,B|281:283|250:229|273:198|233:160|187:164,1,188,12|10,0:0|0:0,0:0:0:0:
114,206,91528,1,8,0:0:0:0:
92,19,92214,1,10,0:0:0:0:
182,0,92557,1,8,0:0:0:0:
363,48,93243,1,10,0:0:0:0:
453,24,93586,1,8,0:0:0:0:
457,212,94271,6,0,B|451:250|451:250|442:266|442:266|435:313,1,94,14|12,0:0|0:0,0:0:0:0:
257,360,95300,1,10,0:0:0:0:
171,320,95643,1,8,0:0:0:0:
145,133,96328,1,10,0:0:0:0:
54,156,96671,1,8,0:0:0:0:
80,342,97357,1,10,0:0:0:0:
152,282,97700,6,0,B|195:304|195:304|248:293,2,94,12|12|14,0:0|0:0|0:0,0:0:0:0:
133,189,98728,1,12,0:0:0:0:
295,94,99414,1,10,0:0:0:0:
400,114,99757,1,8,0:0:0:0:
433,299,100443,1,10,0:0:0:0:
347,338,100786,1,8,0:0:0:0:
190,234,101471,1,10,0:0:0:0:
111,285,101814,1,8,0:0:0:0:
11,125,102500,6,0,P|21:64|59:44,1,94,14|12,0:0|0:0,0:0:0:0:
137,31,103186,1,2,0:1:0:0:
223,68,103528,1,10,0:0:0:0:
218,161,103871,1,8,0:0:0:0:
389,238,104557,1,10,0:0:0:0:
352,324,104900,1,8,0:0:0:0:
178,252,105586,1,10,0:0:0:0:
99,303,105928,6,0,P|101:350|142:382,2,94,12|12|14,0:0|0:0|0:0,0:0:0:0:
64,215,106957,2,0,L|88:107,1,94,12|2,0:0|0:1,0:0:0:0:
155,61,107643,1,10,0:0:0:0:
224,124,107986,2,0,P|277:140|333:131,1,94,8|2,0:0|0:1,0:0:0:0:
403,105,108671,1,10,0:0:0:0:
455,182,109014,2,0,B|475:222|475:222|457:267,1,94,8|2,0:0|0:1,0:0:0:0:
405,346,109700,1,10,0:0:0:0:
345,273,110043,2,0,P|304:250|245:256,1,94,8|2,0:0|0:1,0:0:0:0:
166,272,110728,6,0,B|171:316|171:316|168:335|168:335|174:373,2,94,14|12|2,0:0|0:0|0:1,0:0:0:0:
103,201,111757,1,10,0:0:0:0:
148,118,112100,2,0,L|251:128,1,94,8|2,0:0|0:1,0:0:0:0:
324,82,112786,1,10,0:0:0:0:
401,135,113128,2,0,P|419:191|403:229,1,94,8|2,0:0|0:1,0:0:0:0:
327,271,113814,1,10,0:0:0:0:
390,340,114157,6,0,L|489:360,2,94,12|12|14,0:0|0:0|0:0,0:0:0:0:
