osu file format v14

[General]
AudioFilename: audio.mp3
AudioLeadIn: 0
PreviewTime: -1
Countdown: 1
SampleSet: Normal
StackLeniency: 0.7
Mode: 0
LetterboxInBreaks: 0
WidescreenStoryboard: 0

[Editor]
DistanceSpacing: 0.8
BeatDivisor: 4
GridSize: 32
TimelineZoom: 1

[Metadata]
Title:aureole (osu! xmas 2017)
TitleUnicode:aureole (osu! xmas 2017)
Artist:nekodex
ArtistUnicode:nekodex
Creator:TuTuRoXx
Version:Normal
Source:
Tags:
BeatmapID:1495641
BeatmapSetID:707254

[Difficulty]
HPDrainRate:5
CircleSize:3
OverallDifficulty:6
ApproachRate:8
SliderMultiplier:1.4
SliderTickRate:1

[Events]
//Background and Video events
//Break Periods
//Storyboard Layer 0 (Background)
//Storyboard Layer 1 (Fail)
//Storyboard Layer 2 (Pass)
//Storyboard Layer 3 (Foreground)
//Storyboard Sound Samples

[TimingPoints]
1250,428.571428571429,4,1,0,100,1,0
32570,-100,4,1,0,100,0,1
74999,-100,4,1,0,100,0,0

[HitObjects]
100,242,1285,5,0,0:0:0:0:
114,149,1499,1,0,0:0:0:0:
128,64,1714,1,4,0:0:0:0:
256,128,2142,1,0,0:0:0:0:
109,214,2571,5,0,0:0:0:0:
190,246,2785,1,0,0:0:0:0:
278,258,3000,1,0,0:0:0:0:
350,228,3214,1,0,0:0:0:0:
405,177,3428,1,4,0:0:0:0:
341,65,3857,5,0,0:0:0:0:
303,193,4285,1,0,0:0:0:0:
109,214,4714,5,0,0:0:0:0:
190,246,4928,1,0,0:0:0:0:
278,258,5142,1,4,0:0:0:0:
314,120,5571,5,0,0:0:0:0:
154,86,6000,1,0,0:0:0:0:
205,229,6427,2,0,P|293:260|364:238,1,140,0|4,0:0|0:0,0:0:0:0:
384,138,7285,1,0,0:0:0:0:
251,68,7713,1,0,0:0:0:0:
120,162,8142,5,0,0:0:0:0:
246,158,8357,1,0,0:0:0:0:
186,227,8571,1,4,0:0:0:0:
310,306,9000,2,0,P|392:267|390:196,1,140
393,90,9857,1,0,0:0:0:0:
232,91,10285,1,4,0:0:0:0:
346,268,10714,5,0,0:0:0:0:
182,269,11142,1,0,0:0:0:0:
141,195,11356,2,0,L|108:123,1,70
246,54,12000,1,4,0:0:0:0:
326,146,12428,2,0,L|188:214,1,140
54,259,13285,1,0,0:0:0:0:
188,341,13714,1,4,0:0:0:0:
200,80,15000,6,0,L|254:87,2,35
342,110,15428,1,4,0:0:0:0:
373,250,15857,6,0,P|296:287|221:281,1,140
160,243,16500,1,0,0:0:0:0:
114,162,16714,1,0,0:0:0:0:
137,74,16928,1,0,0:0:0:0:
226,49,17142,1,4,0:0:0:0:
339,100,17571,6,0,P|404:145|386:208,1,140
345,264,18428,5,0,0:0:0:0:
345,264,18535,1,0,0:0:0:0:
345,264,18642,2,0,P|321:313|287:315,1,70,0|4,0:0|0:0,0:0:0:0:
196,298,19285,1,0,0:0:0:0:
128,193,19714,1,0,0:0:0:0:
173,107,19928,5,0,0:0:0:0:
173,107,20035,1,0,0:0:0:0:
173,107,20142,1,0,0:0:0:0:
270,89,20357,1,0,0:0:0:0:
351,140,20571,1,4,0:0:0:0:
351,289,21000,5,0,0:0:0:0:
127,288,21428,1,0,0:0:0:0:
351,289,21857,5,0,0:0:0:0:
127,288,22285,2,0,P|103:240|143:154,1,140
196,101,22928,1,0,0:0:0:0:
294,101,23142,1,4,0:0:0:0:
196,101,23571,5,0,0:0:0:0:
128,158,24000,2,0,P|104:206|144:292,1,140
351,289,24857,5,4,0:0:0:0:
261,290,25071,1,0,0:0:0:0:
178,290,25285,1,0,0:0:0:0:
351,289,25714,2,0,P|368:235|309:163,1,140
253,125,26357,1,0,0:0:0:0:
151,125,26570,2,0,P|98:144|120:223,1,140,4|0,0:0|0:0,0:0:0:0:
169,282,27428,2,0,L|335:282,11,140
294,63,32571,5,0,0:0:0:0:
294,63,32678,1,0,0:0:0:0:
294,63,32785,1,0,0:0:0:0:
291,338,33428,1,4,0:0:0:0:
294,63,34285,5,0,0:0:0:0:
294,63,34392,1,0,0:0:0:0:
294,63,34499,1,0,0:0:0:0:
70,65,35142,1,4,0:0:0:0:
69,103,35250,1,0,0:0:0:0:
67,140,35357,1,0,0:0:0:0:
67,179,35464,1,0,0:0:0:0:
68,226,35571,2,0,P|130:262|194:239,1,140
238,204,36428,2,0,P|281:240|274:273,1,70
322,321,36857,1,4,0:0:0:0:
294,63,37714,5,0,0:0:0:0:
294,63,37821,1,0,0:0:0:0:
294,63,37927,2,0,L|294:147,1,70
301,337,38570,1,4,0:0:0:0:
153,124,38999,5,0,0:0:0:0:
242,63,39213,1,0,0:0:0:0:
287,162,39427,1,0,0:0:0:0:
160,261,39856,5,0,0:0:0:0:
160,261,39963,1,0,0:0:0:0:
160,261,40070,1,0,0:0:0:0:
245,284,40285,1,4,0:0:0:0:
245,284,40713,5,0,0:0:0:0:
245,284,40820,1,0,0:0:0:0:
245,284,40927,1,0,0:0:0:0:
164,251,41142,2,0,P|113:219|103:187,1,70,4|0,0:0|0:0,0:0:0:0:
238,69,41999,5,0,0:0:0:0:
364,124,42427,2,0,P|361:178|343:212,1,70
297,256,42856,1,4,0:0:0:0:
106,73,43285,5,0,0:0:0:0:
118,74,43392,1,0,0:0:0:0:
92,74,43499,2,0,L|161:74,1,70,0|4,0:0|0:0,0:0:0:0:
406,73,44142,5,0,0:0:0:0:
394,74,44249,1,0,0:0:0:0:
420,74,44356,2,0,L|351:74,1,70,0|4,0:0|0:0,0:0:0:0:
283,72,44785,1,0,0:0:0:0:
455,52,45427,5,0,0:0:0:0:
102,340,46285,5,4,0:0:0:0:
125,53,46713,6,0,L|170:89,2,35
226,127,47142,1,4,0:0:0:0:
387,53,47570,6,0,L|342:89,2,35
284,122,47999,2,4,P|284:169|299:201,1,70
256,192,48856,5,4,0:0:0:0:
314,248,49070,1,0,0:0:0:0:
197,136,49285,1,0,0:0:0:0:
192,244,49499,1,0,0:0:0:0:
316,133,49713,1,0,0:0:0:0:
374,282,50142,5,0,0:0:0:0:
374,282,50250,1,0,0:0:0:0:
374,282,50356,2,0,P|373:346|355:376,1,70,0|4,0:0|0:0,0:0:0:0:
138,282,50998,5,0,0:0:0:0:
138,282,51106,1,0,0:0:0:0:
138,282,51212,2,0,P|139:346|157:376,1,70,0|4,0:0|0:0,0:0:0:0:
221,346,51642,1,4,0:0:0:0:
162,196,52285,5,0,0:0:0:0:
306,196,52713,5,0,0:0:0:0:
305,159,52820,1,0,0:0:0:0:
305,124,52927,1,0,0:0:0:0:
305,88,53035,1,0,0:0:0:0:
306,52,53142,2,4,L|149:55,1,140,4|0,0:0|0:0,0:0:0:0:
160,181,53999,1,0,0:0:0:0:
405,193,55070,5,4,0:0:0:0:
162,188,55713,5,0,0:0:0:0:
306,188,56141,5,0,0:0:0:0:
305,225,56248,1,0,0:0:0:0:
305,260,56355,1,0,0:0:0:0:
305,296,56463,1,0,0:0:0:0:
306,332,56570,2,4,L|149:329,1,140,4|0,0:0|0:0,0:0:0:0:
160,203,57427,1,0,0:0:0:0:
421,192,58499,6,0,P|442:136|423:120,1,70,4|0,0:0|0:0,0:0:0:0:
351,81,59142,5,0,0:0:0:0:
323,113,59249,1,0,0:0:0:0:
297,140,59356,1,0,0:0:0:0:
268,164,59463,1,0,0:0:0:0:
241,193,59570,2,0,L|359:78,1,140,4|0,0:0|0:0,0:0:0:0:
254,193,60427,5,0,0:0:0:0:
383,192,60856,1,0,0:0:0:0:
126,193,61285,2,0,L|206:192,1,70,0|4,0:0|0:0,0:0:0:0:
383,192,62142,1,0,0:0:0:0:
258,191,62999,5,0,0:0:0:0:
129,192,63428,1,0,0:0:0:0:
385,192,63856,1,0,0:0:0:0:
254,191,64285,1,0,0:0:0:0:
126,191,64713,2,0,P|123:135|136:118,1,70,0|4,0:0|0:0,0:0:0:0:
297,91,65570,5,0,0:0:0:0:
161,81,65999,5,0,0:0:0:0:
189,113,66106,1,0,0:0:0:0:
215,140,66213,1,0,0:0:0:0:
244,164,66320,1,0,0:0:0:0:
271,193,66427,2,0,L|153:78,1,140,4|4,0:0|0:0,0:0:0:0:
85,212,67285,5,0,0:0:0:0:
210,313,67713,1,0,0:0:0:0:
208,164,68142,2,0,L|288:166,1,70
366,168,68570,1,4,0:0:0:0:
161,303,69427,5,0,0:0:0:0:
189,271,69534,1,0,0:0:0:0:
215,244,69641,1,0,0:0:0:0:
244,220,69748,1,0,0:0:0:0:
271,191,69855,2,4,L|153:306,1,140
256,320,70713,6,0,B|321:222|480:255|531:64|382:-8|273:128|273:128|264:152|256:159|244:151|232:129|232:129|128:-8|-21:63|33:255|191:222|205:278,1,980,0|4,0:0|0:0,0:0:0:0:
