osu file format v14

[General]
AudioFilename: audio.mp3
AudioLeadIn: 0
PreviewTime: -1
Countdown: 1
SampleSet: Normal
StackLeniency: 0.7
Mode: 0
LetterboxInBreaks: 0
WidescreenStoryboard: 1

[Editor]
DistanceSpacing: 0.8
BeatDivisor: 4
GridSize: 32
TimelineZoom: 1

[Metadata]
Title:aureole (osu! xmas 2017)
TitleUnicode:aureole (osu! xmas 2017)
Artist:nekodex
ArtistUnicode:nekodex
Creator:TuTuRoXx
Version:Insane
Source:
Tags:
BeatmapID:1495640
BeatmapSetID:707254

[Difficulty]
HPDrainRate:7
CircleSize:3
OverallDifficulty:8
ApproachRate:8
SliderMultiplier:1.4
SliderTickRate:1

[Events]
//Background and Video events
//Break Periods
2,27627,31820
//Storyboard Layer 0 (Background)
//Storyboard Layer 1 (Fail)
//Storyboard Layer 2 (Pass)
//Storyboard Layer 3 (Foreground)
//Storyboard Sound Samples

[TimingPoints]
1250,428.571428571429,4,1,0,100,1,0
32570,428.571428571429,4,1,0,100,1,0
32570,-100,4,1,0,100,0,1
74999,-100,4,1,0,100,0,0

[HitObjects]
101,72,1285,5,0,0:0:0:0:
200,193,1499,1,0,0:0:0:0:
291,303,1713,1,4,0:0:0:0:
443,43,2142,5,0,0:0:0:0:
91,347,2570,5,0,0:0:0:0:
221,349,2785,1,0,0:0:0:0:
350,348,2999,1,0,0:0:0:0:
351,223,3213,1,0,0:0:0:0:
258,129,3427,1,4,0:0:0:0:
79,263,3856,5,0,0:0:0:0:
79,263,3963,1,0,0:0:0:0:
79,263,4070,1,0,0:0:0:0:
82,54,4285,1,0,0:0:0:0:
230,345,4713,5,0,0:0:0:0:
412,341,4928,1,0,0:0:0:0:
407,217,5142,1,4,0:0:0:0:
324,130,5356,1,0,0:0:0:0:
191,129,5570,1,0,0:0:0:0:
102,224,5785,2,0,L|143:257,1,35
408,41,6427,6,0,L|365:74,1,35
80,325,6856,1,4,0:0:0:0:
198,86,8142,5,0,0:0:0:0:
237,113,8249,1,0,0:0:0:0:
274,137,8356,1,0,0:0:0:0:
394,221,8570,1,4,0:0:0:0:
261,305,8999,5,0,0:0:0:0:
254,306,9106,1,0,0:0:0:0:
254,306,9213,2,0,P|176:309|163:298,1,70,0|4,0:0|0:0,0:0:0:0:
187,57,9856,5,0,0:0:0:0:
417,322,10285,6,0,P|413:239|256:129,1,280
125,127,11356,1,0,0:0:0:0:
125,262,11570,1,0,0:0:0:0:
256,262,11785,1,0,0:0:0:0:
256,127,11999,2,0,L|321:132,1,35,4|0,0:0|0:0,0:0:0:0:
423,258,12642,6,0,L|417:323,1,35,4|0,0:0|0:0,0:0:0:0:
423,258,13285,6,0,L|417:323,1,35,4|0,0:0|0:0,0:0:0:0:
115,292,13713,2,0,P|103:217|157:208,1,140
415,122,14999,5,0,0:0:0:0:
398,89,15106,1,0,0:0:0:0:
376,54,15213,2,0,P|333:67|303:96,1,70
281,108,15535,1,0,0:0:0:0:
253,137,15642,1,0,0:0:0:0:
222,167,15749,1,0,0:0:0:0:
192,191,15856,1,0,0:0:0:0:
162,223,15963,1,0,0:0:0:0:
129,254,16070,2,0,L|276:253,1,140
412,218,16713,5,0,0:0:0:0:
425,176,16820,1,0,0:0:0:0:
437,131,16927,1,0,0:0:0:0:
448,88,17034,1,0,0:0:0:0:
455,46,17142,2,0,B|374:49|322:49|303:66,1,140,0|4,0:0|0:0,0:0:0:0:
281,108,18427,5,0,0:0:0:0:
253,137,18534,1,0,0:0:0:0:
222,167,18641,1,0,0:0:0:0:
192,191,18748,1,0,0:0:0:0:
129,254,18856,2,0,L|276:253,1,140
231,108,19927,1,0,0:0:0:0:
259,137,20034,1,0,0:0:0:0:
290,167,20141,1,0,0:0:0:0:
320,191,20248,1,0,0:0:0:0:
350,223,20355,1,0,0:0:0:0:
383,254,20463,1,0,0:0:0:0:
383,254,20570,2,0,L|236:253,1,140,0|4,0:0|0:0,0:0:0:0:
109,319,21427,5,0,0:0:0:0:
416,316,21856,1,0,0:0:0:0:
257,63,22285,6,0,L|313:107,1,70
233,120,22713,2,0,L|292:165,1,70
431,245,23142,1,0,0:0:0:0:
324,333,23356,1,0,0:0:0:0:
179,332,23570,1,0,0:0:0:0:
181,106,23999,5,4,0:0:0:0:
431,108,24427,1,0,0:0:0:0:
441,342,24856,5,0,0:0:0:0:
310,341,25070,1,0,0:0:0:0:
196,345,25285,2,0,P|135:317|124:241,1,140,0|4,0:0|0:0,0:0:0:0:
164,46,26356,6,0,L|209:85,1,35
443,339,26999,2,0,L|401:292,1,35
166,45,27427,1,0,0:0:0:0:
146,88,32570,5,0,0:0:0:0:
171,227,32784,1,0,0:0:0:0:
283,142,32998,1,0,0:0:0:0:
327,267,33212,1,0,0:0:0:0:
179,340,33427,1,4,0:0:0:0:
116,217,33641,1,0,0:0:0:0:
256,83,33855,1,0,0:0:0:0:
402,216,34070,1,0,0:0:0:0:
256,83,34284,1,0,0:0:0:0:
116,217,34498,1,4,0:0:0:0:
179,340,34712,1,0,0:0:0:0:
327,267,34927,1,0,0:0:0:0:
283,142,35141,1,4,0:0:0:0:
171,227,35355,1,0,0:0:0:0:
384,225,35570,1,0,0:0:0:0:
384,63,35784,1,0,0:0:0:0:
173,64,35998,1,0,0:0:0:0:
173,64,36212,1,0,0:0:0:0:
384,63,36427,1,0,0:0:0:0:
384,225,36641,1,0,0:0:0:0:
171,227,36855,1,4,0:0:0:0:
283,142,37070,1,0,0:0:0:0:
327,267,37284,1,0,0:0:0:0:
179,340,37498,1,0,0:0:0:0:
116,217,37712,1,0,0:0:0:0:
256,83,37927,1,4,0:0:0:0:
402,216,38141,1,0,0:0:0:0:
256,83,38355,1,0,0:0:0:0:
116,217,38570,1,4,0:0:0:0:
179,340,38784,1,0,0:0:0:0:
283,142,38998,1,0,0:0:0:0:
327,267,39212,1,0,0:0:0:0:
171,227,39427,1,0,0:0:0:0:
366,88,39641,1,0,0:0:0:0:
341,227,39855,1,0,0:0:0:0:
229,142,40069,1,0,0:0:0:0:
185,267,40284,1,4,0:0:0:0:
333,340,40498,1,0,0:0:0:0:
396,217,40712,1,0,0:0:0:0:
256,83,40926,1,0,0:0:0:0:
110,216,41141,1,0,0:0:0:0:
256,83,41355,1,4,0:0:0:0:
396,217,41569,1,0,0:0:0:0:
333,340,41783,1,0,0:0:0:0:
185,267,41998,1,4,0:0:0:0:
229,142,42212,1,0,0:0:0:0:
341,227,42426,1,0,0:0:0:0:
128,225,42641,1,0,0:0:0:0:
128,63,42855,1,0,0:0:0:0:
339,64,43069,1,0,0:0:0:0:
339,64,43283,1,0,0:0:0:0:
128,63,43498,1,0,0:0:0:0:
128,225,43712,1,4,0:0:0:0:
341,227,43926,1,0,0:0:0:0:
229,142,44141,1,0,0:0:0:0:
185,267,44355,1,0,0:0:0:0:
333,340,44569,1,0,0:0:0:0:
396,217,44784,1,4,0:0:0:0:
256,83,44998,1,0,0:0:0:0:
110,216,45212,1,0,0:0:0:0:
256,83,45426,1,4,0:0:0:0:
396,217,45641,1,0,0:0:0:0:
333,340,45855,1,0,0:0:0:0:
229,142,46069,1,0,0:0:0:0:
185,267,46283,1,0,0:0:0:0:
341,237,46498,5,0,0:0:0:0:
341,237,46605,1,0,0:0:0:0:
341,237,46712,1,0,0:0:0:0:
188,260,46927,5,0,0:0:0:0:
188,260,47034,1,0,0:0:0:0:
188,260,47141,1,0,0:0:0:0:
257,73,47355,5,0,0:0:0:0:
257,73,47462,1,0,0:0:0:0:
257,73,47569,1,0,0:0:0:0:
425,197,47784,5,0,0:0:0:0:
425,197,47891,1,0,0:0:0:0:
425,197,47998,1,0,0:0:0:0:
88,193,48212,5,0,0:0:0:0:
88,193,48319,1,0,0:0:0:0:
88,193,48426,1,0,0:0:0:0:
299,277,48641,5,0,0:0:0:0:
299,277,48748,1,0,0:0:0:0:
299,277,48855,1,0,0:0:0:0:
161,208,49070,5,0,0:0:0:0:
161,208,49177,1,0,0:0:0:0:
161,208,49284,1,0,0:0:0:0:
325,95,49498,5,0,0:0:0:0:
325,95,49605,1,0,0:0:0:0:
325,95,49712,1,0,0:0:0:0:
391,293,49927,5,0,0:0:0:0:
391,293,50034,1,0,0:0:0:0:
391,293,50141,1,0,0:0:0:0:
117,96,50355,5,0,0:0:0:0:
117,96,50462,1,0,0:0:0:0:
117,96,50569,1,0,0:0:0:0:
325,95,50784,5,0,0:0:0:0:
325,95,50891,1,0,0:0:0:0:
325,95,50998,1,0,0:0:0:0:
391,293,51213,5,0,0:0:0:0:
391,293,51320,1,0,0:0:0:0:
391,293,51427,1,0,0:0:0:0:
117,96,51641,5,0,0:0:0:0:
117,96,51748,1,0,0:0:0:0:
117,96,51855,1,0,0:0:0:0:
325,95,52070,5,0,0:0:0:0:
325,95,52177,1,0,0:0:0:0:
325,95,52284,1,0,0:0:0:0:
360,82,52712,5,0,0:0:0:0:
221,107,52926,1,0,0:0:0:0:
306,219,53140,1,0,0:0:0:0:
181,263,53354,1,0,0:0:0:0:
108,115,53569,1,4,0:0:0:0:
231,52,53783,1,0,0:0:0:0:
365,192,53997,1,0,0:0:0:0:
232,338,54212,1,0,0:0:0:0:
365,192,54426,1,0,0:0:0:0:
231,52,54640,1,4,0:0:0:0:
108,115,54854,1,0,0:0:0:0:
181,263,55069,1,0,0:0:0:0:
306,219,55283,1,4,0:0:0:0:
221,107,55497,1,0,0:0:0:0:
223,320,55712,1,0,0:0:0:0:
385,320,55926,1,0,0:0:0:0:
384,109,56140,1,0,0:0:0:0:
384,109,56354,1,0,0:0:0:0:
385,320,56569,1,0,0:0:0:0:
223,320,56783,1,0,0:0:0:0:
221,107,56997,1,4,0:0:0:0:
306,219,57212,1,0,0:0:0:0:
181,263,57426,1,0,0:0:0:0:
108,115,57640,1,0,0:0:0:0:
231,52,57854,1,0,0:0:0:0:
365,192,58069,1,4,0:0:0:0:
232,338,58283,1,0,0:0:0:0:
365,192,58497,1,0,0:0:0:0:
231,52,58712,1,4,0:0:0:0:
108,115,58926,1,0,0:0:0:0:
306,219,59140,1,0,0:0:0:0:
181,263,59354,1,0,0:0:0:0:
221,107,59569,1,0,0:0:0:0:
360,302,59783,1,0,0:0:0:0:
221,277,59997,1,0,0:0:0:0:
306,165,60211,1,0,0:0:0:0:
181,121,60426,1,4,0:0:0:0:
108,269,60640,1,0,0:0:0:0:
231,332,60854,1,0,0:0:0:0:
365,192,61068,1,0,0:0:0:0:
232,46,61283,1,0,0:0:0:0:
365,192,61497,1,4,0:0:0:0:
231,332,61711,1,0,0:0:0:0:
108,269,61925,1,0,0:0:0:0:
181,121,62140,1,4,0:0:0:0:
306,165,62354,1,0,0:0:0:0:
221,277,62568,1,0,0:0:0:0:
223,64,62783,1,0,0:0:0:0:
385,64,62997,1,0,0:0:0:0:
384,275,63211,1,0,0:0:0:0:
384,275,63425,1,0,0:0:0:0:
385,64,63640,1,0,0:0:0:0:
223,64,63854,1,4,0:0:0:0:
221,277,64068,1,0,0:0:0:0:
306,165,64283,1,0,0:0:0:0:
181,121,64497,1,0,0:0:0:0:
108,269,64711,1,0,0:0:0:0:
231,332,64926,1,4,0:0:0:0:
365,192,65140,1,0,0:0:0:0:
232,46,65354,1,0,0:0:0:0:
365,192,65568,1,4,0:0:0:0:
231,332,65783,1,0,0:0:0:0:
108,269,65997,1,0,0:0:0:0:
306,165,66211,1,0,0:0:0:0:
181,121,66425,1,0,0:0:0:0:
171,147,66641,5,0,0:0:0:0:
171,147,66748,1,0,0:0:0:0:
171,147,66855,1,0,0:0:0:0:
324,124,67070,5,0,0:0:0:0:
324,124,67177,1,0,0:0:0:0:
324,124,67284,1,0,0:0:0:0:
255,311,67498,5,0,0:0:0:0:
255,311,67605,1,0,0:0:0:0:
255,311,67712,1,0,0:0:0:0:
87,187,67927,5,0,0:0:0:0:
87,187,68034,1,0,0:0:0:0:
87,187,68141,1,0,0:0:0:0:
424,191,68355,5,0,0:0:0:0:
424,191,68462,1,0,0:0:0:0:
424,191,68569,1,0,0:0:0:0:
212,106,68784,5,0,0:0:0:0:
212,106,68891,1,0,0:0:0:0:
212,106,68998,1,0,0:0:0:0:
350,175,69213,5,0,0:0:0:0:
350,175,69320,1,0,0:0:0:0:
350,175,69427,1,0,0:0:0:0:
186,288,69641,5,0,0:0:0:0:
186,288,69748,1,0,0:0:0:0:
186,288,69855,1,0,0:0:0:0:
120,90,70070,5,0,0:0:0:0:
120,90,70177,1,0,0:0:0:0:
120,90,70284,1,0,0:0:0:0:
394,287,70498,5,0,0:0:0:0:
394,287,70605,1,0,0:0:0:0:
394,287,70712,1,0,0:0:0:0:
186,288,70927,5,0,0:0:0:0:
186,288,71034,1,0,0:0:0:0:
186,288,71141,1,0,0:0:0:0:
120,90,71356,5,0,0:0:0:0:
120,90,71463,1,0,0:0:0:0:
120,90,71570,1,0,0:0:0:0:
394,287,71784,5,0,0:0:0:0:
394,287,71891,1,0,0:0:0:0:
394,287,71998,1,0,0:0:0:0:
186,288,72213,5,0,0:0:0:0:
186,288,72320,1,0,0:0:0:0:
186,288,72427,1,0,0:0:0:0:
350,175,72641,5,0,0:0:0:0:
350,175,72748,1,0,0:0:0:0:
350,175,72855,1,0,0:0:0:0:
186,288,73069,5,0,0:0:0:0:
186,288,73176,1,0,0:0:0:0:
186,288,73283,1,0,0:0:0:0:
120,90,73498,5,0,0:0:0:0:
120,90,73605,1,0,0:0:0:0:
120,90,73712,1,0,0:0:0:0:
