osu file format v14

[General]
AudioFilename: audio.mp3
AudioLeadIn: 0
PreviewTime: 32558
Countdown: 1
SampleSet: Soft
StackLeniency: 0.7
Mode: 0
LetterboxInBreaks: 0
WidescreenStoryboard: 1

[Editor]
Bookmarks: 1701
DistanceSpacing: 1.4
BeatDivisor: 8
GridSize: 32
TimelineZoom: 1.8

[Metadata]
Title:aureole (osu! xmas 2017)
TitleUnicode:aureole (osu! xmas 2017)
Artist:nekodex
ArtistUnicode:nekodex
Creator:Lumael
Version:normal
Source:osu!
Tags:christmas christ 2017 theme song
BeatmapID:1494329
BeatmapSetID:706762

[Difficulty]
HPDrainRate:4
CircleSize:4
OverallDifficulty:5
ApproachRate:5.5
SliderMultiplier:1.4
SliderTickRate:1

[Events]
//Background and Video events
0,0,"5904245-osu-wallpaper.png",0,0
//Break Periods
2,29129,31433
//Storyboard Layer 0 (Background)
//Storyboard Layer 1 (Fail)
//Storyboard Layer 2 (Pass)
//Storyboard Layer 3 (Foreground)
//Storyboard Sound Samples

[TimingPoints]
1701,857.142857142857,4,2,1,40,1,0
32558,-100,4,2,1,60,0,1
73700,-100,4,2,1,40,0,0
75415,-100,4,2,1,30,0,0
77129,-100,4,2,1,20,0,0
78843,-100,4,2,1,30,0,0
80558,-100,4,2,1,20,0,0

[Colours]
Combo1 : 164,40,40
Combo2 : 255,0,128
Combo3 : 255,128,255
Combo4 : 171,200,55

[HitObjects]
72,336,1272,5,0,0:0:0:0:
129,256,1701,2,0,P|163:246|265:286,1,140,2|8,0:0|0:0,0:0:0:0:
341,329,2986,1,2,0:0:0:0:
401,251,3415,2,0,P|425:213|427:142,1,105,2|0,0:0|0:0,0:0:0:0:
408,109,4272,2,0,L|327:115,1,70,8|2,0:0|0:0,0:0:0:0:
249,156,5129,6,0,L|163:152,1,70,2|0,0:0|0:0,0:0:0:0:
140,182,5772,2,0,P|109:224|106:248,1,70,2|0,0:0|0:0,0:0:0:0:
117,288,6415,1,2,0:0:0:0:
195,346,6843,2,0,L|276:338,1,70,2|0,0:0|0:0,0:0:0:0:
339,275,7700,1,8,0:0:0:0:
407,344,8129,2,0,L|455:338,1,35,2|2,0:0|0:0,0:0:0:0:
471,300,8558,6,0,P|477:263|472:217,1,70,2|0,0:0|0:0,0:0:0:0:
468,182,9200,2,0,P|462:145|467:99,1,70,2|0,0:0|0:0,0:0:0:0:
479,66,9843,1,2,0:0:0:0:
389,25,10272,2,0,P|347:49|316:55,1,70,2|0,0:0|0:0,0:0:0:0:
246,110,11129,1,8,0:0:0:0:
159,62,11558,1,2,0:0:0:0:
71,104,11986,6,0,P|57:133|50:184,1,70,2|0,0:0|0:0,0:0:0:0:
68,215,12629,2,0,P|82:244|89:295,1,70,2|0,0:0|0:0,0:0:0:0:
58,319,13272,1,2,0:0:0:0:
145,363,13700,2,0,P|184:366|251:293,1,140,2|8,0:0|0:0,0:0:0:0:
212,208,14986,2,0,L|202:159,1,35,2|2,0:0|0:0,0:0:0:0:
213,125,15415,6,0,L|297:117,1,70,2|0,0:0|0:0,0:0:0:0:
296,165,16058,2,0,L|365:171,1,70,2|2,0:0|0:0,0:0:0:0:
385,215,16700,1,0,0:0:0:0:
457,151,17129,2,0,P|466:112|409:24,1,140,2|8,0:0|0:0,0:0:0:0:
327,63,18415,2,0,L|279:68,1,35,2|2,0:0|0:0,0:0:0:0:
247,46,18843,6,0,P|210:38|166:44,1,70,2|0,0:0|0:0,0:0:0:0:
107,108,19700,2,0,P|72:110|38:102,1,70,8|2,0:0|0:0,0:0:0:0:
13,145,20343,1,0,0:0:0:0:
13,145,20558,2,0,P|9:170|9:227,1,70,2|0,0:0|0:0,0:0:0:0:
78,282,21415,1,8,0:0:0:0:
240,172,22272,6,0,P|284:178|322:192,1,70,2|0,0:0|0:0,0:0:0:0:
338,224,22915,2,0,P|382:218|420:204,1,70,2|0,0:0|0:0,0:0:0:0:
426,165,23558,1,2,0:0:0:0:
376,80,23986,2,0,P|396:46|430:31,2,70,2|0|8,0:0|0:0|0:0,0:0:0:0:
293,133,25272,1,2,0:0:0:0:
209,81,25700,6,0,P|165:68|134:66,1,70,2|0,0:0|0:0,0:0:0:0:
99,91,26343,2,0,P|64:120|50:147,1,70,2|0,0:0|0:0,0:0:0:0:
68,187,26986,1,2,0:0:0:0:
125,266,27415,2,0,P|164:260|197:244,2,70,2|0|8,0:0|0:0|0:0,0:0:0:0:
69,338,32558,6,0,P|94:292|179:257,1,140,6|8,3:2|0:0,0:0:0:0:
363,221,34272,1,0,0:0:0:0:
363,221,34486,2,0,P|403:234|430:263,1,70,0|0,3:0|0:0,0:0:0:0:
450,293,35129,1,10,0:0:0:0:
477,198,35558,1,2,0:0:0:0:
450,103,35986,6,0,P|421:80|377:71,1,70,0|2,3:2|0:0,0:0:0:0:
345,85,36629,1,2,0:0:0:0:
345,85,36843,2,0,P|305:106|212:82,1,140,8|0,0:0|0:0,0:0:0:0:
169,71,37915,1,0,3:0:0:0:
169,71,38129,1,0,0:0:0:0:
80,113,38558,2,0,P|58:148|53:178,1,70,8|2,0:0|0:0,0:0:0:0:
46,224,39200,1,2,0:0:0:0:
46,224,39415,6,0,B|65:264|65:264|171:258,1,140,2|8,3:2|0:0,0:0:0:0:
346,192,41129,1,0,0:0:0:0:
346,192,41343,2,0,P|376:216|395:248,1,70,0|0,3:0|0:0,0:0:0:0:
375,288,41986,2,0,L|267:298,1,105,10|2,0:0|0:0,0:0:0:0:
225,278,42843,6,0,P|201:253|188:229,2,52.5,2|0|0,3:2|0:0|0:0,0:0:0:0:
245,322,43700,2,0,P|217:352|121:367,1,140,8|0,0:0|0:0,0:0:0:0:
78,345,44772,1,0,3:0:0:0:
78,345,44986,1,0,0:0:0:0:
89,247,45415,2,0,P|101:220|109:169,1,70,10|0,0:0|0:0,0:0:0:0:
47,103,46272,6,0,P|71:118|188:103,1,140,6|8,3:2|0:0,0:0:0:0:
356,30,47986,1,0,0:0:0:0:
356,30,48200,2,0,P|335:60|322:99,1,70,0|0,3:0|0:0,0:0:0:0:
356,127,48843,2,0,P|373:173|376:197,1,70,10|2,0:0|0:0,0:0:0:0:
300,252,49700,6,0,P|270:262|220:255,1,70,0|2,3:2|0:0,0:0:0:0:
191,231,50343,1,2,0:0:0:0:
191,231,50558,2,0,P|199:266|138:349,1,140,10|0,0:0|0:0,0:0:0:0:
95,350,51629,1,0,3:0:0:0:
95,350,51843,1,0,0:0:0:0:
36,271,52272,2,0,P|49:236|54:191,1,70,8|2,0:0|0:0,0:0:0:0:
51,154,52915,1,2,0:0:0:0:
51,154,53129,6,0,P|74:177|181:195,1,140,2|8,3:2|0:0,0:0:0:0:
336,83,54843,1,0,0:0:0:0:
336,83,55058,2,0,P|301:107|259:116,1,70,0|0,3:0|0:0,0:0:0:0:
229,133,55700,2,0,P|243:160|249:237,1,105,10|0,0:0|0:0,0:0:0:0:
222,274,56558,6,0,P|205:308|197:327,2,52.5,2|0|0,3:2|0:0|0:0,0:0:0:0:
266,295,57415,1,8,0:0:0:0:
456,356,58272,1,0,0:0:0:0:
456,356,58486,2,0,P|498:332|517:307,1,70,0|0,3:0|0:0,0:0:0:0:
489,271,59129,2,0,P|476:238|476:194,1,70,10|0,0:0|0:0,0:0:0:0:
449,169,59772,1,0,0:0:0:0:
449,169,59986,6,0,P|408:192|317:155,1,140,6|8,3:2|0:0,0:0:0:0:
214,67,61486,2,0,P|197:102|134:127,1,105,0|0,3:0|3:0,0:0:0:0:
53,78,62558,2,0,L|36:181,1,105,10|2,0:0|0:0,0:0:0:0:
18,227,63415,6,0,P|35:269|125:324,1,140,2|10,3:2|0:0,0:0:0:0:
281,225,65129,1,0,0:0:0:0:
281,225,65343,2,0,P|327:212|355:212,1,70,0|0,3:0|0:0,0:0:0:0:
396,223,65986,1,10,0:0:0:0:
476,163,66415,2,0,P|486:128|487:122,1,35,0|2,0:0|0:0,0:0:0:0:
461,86,66843,6,0,P|392:91|342:45,1,140,2|8,3:2|0:0,0:0:0:0:
196,23,68343,2,0,P|212:58|219:134,1,105,0|0,3:0|3:0,0:0:0:0:
153,196,69415,2,0,L|39:188,1,105,10|2,0:0|0:0,0:0:0:0:
17,226,70272,6,0,P|2:249|48:346,1,140,2|8,3:2|0:0,0:0:0:0:
223,273,71986,1,0,0:0:0:0:
223,273,72200,2,0,P|263:268|295:270,1,70,0|0,3:0|0:0,0:0:0:0:
336,248,72843,2,0,P|363:257|419:265,2,70,8|0|2,0:0|0:0|0:0,0:0:0:0:
256,192,73808,12,0,80558,3:0:0:0:
