osu file format v14

[General]
AudioFilename: audio.mp3
AudioLeadIn: 0
PreviewTime: 32558
Countdown: 1
SampleSet: Soft
StackLeniency: 0.7
Mode: 0
LetterboxInBreaks: 0
WidescreenStoryboard: 0

[Editor]
Bookmarks: 1701
DistanceSpacing: 1.4
BeatDivisor: 8
GridSize: 32
TimelineZoom: 1.8

[Metadata]
Title:aureole (osu! xmas 2017)
TitleUnicode:aureole (osu! xmas 2017)
Artist:nekodex
ArtistUnicode:nekodex
Creator:Lumael
Version:christmas circles
Source:osu!
Tags:christmas christ 2017 theme song
BeatmapID:1494327
BeatmapSetID:706762

[Difficulty]
HPDrainRate:5
CircleSize:5
OverallDifficulty:6
ApproachRate:7
SliderMultiplier:2
SliderTickRate:1

[Events]
//Background and Video events
0,0,"5904245-osu-wallpaper.png",0,0
//Break Periods
2,29129,31658
//Storyboard Layer 0 (Background)
//Storyboard Layer 1 (Fail)
//Storyboard Layer 2 (Pass)
//Storyboard Layer 3 (Foreground)
//Storyboard Sound Samples

[TimingPoints]
1701,857.142857142857,4,2,1,40,1,0
32558,-90.9090909090909,4,2,1,60,0,1
73700,-100,4,2,1,40,0,0
75415,-100,4,2,1,30,0,0
77129,-100,4,2,1,20,0,0
78843,-100,4,2,1,30,0,0
80558,-100,4,2,1,20,0,0

[Colours]
Combo1 : 164,40,40
Combo2 : 255,0,128
Combo3 : 255,128,255
Combo4 : 171,200,55

[HitObjects]
37,352,1272,6,0,P|32:327|35:301,1,50,2|0,0:0|0:0,0:0:0:0:
73,244,1701,2,0,P|120:257|168:245,1,100,2|0,0:0|0:0,0:0:0:0:
283,326,2558,1,8,0:0:0:0:
303,259,2772,2,0,P|289:225|269:200,2,50,0|2|0,0:0|0:0|0:0,0:0:0:0:
283,326,3415,1,2,0:0:0:0:
283,326,3629,2,0,P|326:293|388:291,1,100,0|0,3:0|0:0,0:0:0:0:
425,243,4272,2,0,P|466:289|528:286,1,100,8|2,0:0|0:0,0:0:0:0:
491,224,4915,1,2,0:0:0:0:
474,156,5129,6,0,L|486:55,1,100,2|0,0:0|0:0,0:0:0:0:
431,12,5772,1,2,0:0:0:0:
431,12,5986,2,0,P|379:43|337:40,1,100,8|2,0:0|0:0,0:0:0:0:
201,33,6843,1,2,0:0:0:0:
201,33,7058,2,0,P|239:46|288:104,1,100,0|0,3:0|0:0,0:0:0:0:
232,138,7700,2,0,L|227:253,1,100,8|2,0:0|0:0,0:0:0:0:
277,287,8343,1,2,0:0:0:0:
332,244,8558,6,0,B|401:220|417:270|483:245,1,150,2|2,0:0|0:0,0:0:0:0:
505,181,9415,2,0,P|483:135|434:112,1,100,8|2,0:0|0:0,0:0:0:0:
303,88,10272,1,2,0:0:0:0:
303,88,10486,2,0,P|361:60|383:24,1,100,0|0,3:0|0:0,0:0:0:0:
445,56,11129,1,8,0:0:0:0:
445,56,11343,2,0,P|428:98|434:140,1,50,2|2,0:0|0:0,0:0:0:0:
504,219,11986,6,0,L|403:206,1,100,2|0,0:0|0:0,0:0:0:0:
339,232,12629,1,2,0:0:0:0:
339,232,12843,2,0,L|239:244,1,100,8|2,0:0|0:0,0:0:0:0:
142,144,13700,1,2,0:0:0:0:
142,144,13915,2,0,P|171:96|231:73,1,100,0|0,3:0|0:0,0:0:0:0:
258,26,14558,2,0,P|296:66|356:73,1,100,8|2,0:0|0:0,0:0:0:0:
396,37,15200,1,2,0:0:0:0:
459,6,15415,6,0,B|479:32|479:32|468:118,1,100,2|0,0:0|0:0,0:0:0:0:
441,162,16058,1,2,0:0:0:0:
488,214,16272,1,10,0:0:0:0:
435,260,16486,2,0,L|370:256,1,50,0|2,0:0|0:0,0:0:0:0:
339,203,16915,1,0,0:0:0:0:
288,250,17129,1,2,0:0:0:0:
288,250,17343,2,0,P|290:281|287:309,1,50,0|0,3:0|0:0,0:0:0:0:
242,352,17772,1,2,0:0:0:0:
242,352,17986,2,0,P|290:343|345:355,1,100,8|2,0:0|0:0,0:0:0:0:
398,313,18629,1,2,0:0:0:0:
447,264,18843,6,0,L|453:212,1,50,2|0,0:0|0:0,0:0:0:0:
395,173,19272,2,0,L|389:121,1,50
431,68,19700,1,8,0:0:0:0:
431,68,19915,2,0,P|463:61|491:59,2,50,0|2|0,0:0|0:0|0:0,0:0:0:0:
389,123,20558,1,2,0:0:0:0:
389,123,20772,2,0,P|333:122|283:97,1,100,0|0,3:0|0:0,0:0:0:0:
244,155,21415,2,0,P|188:156|138:181,1,100,8|0,0:0|0:0,0:0:0:0:
26,242,22272,6,0,P|61:192|58:150,1,100,2|0,0:0|0:0,0:0:0:0:
0,126,22915,1,2,0:0:0:0:
0,126,23129,2,0,P|55:121|103:77,1,100,8|2,0:0|0:0,0:0:0:0:
208,19,23986,1,2,0:0:0:0:
208,19,24200,2,0,P|251:30|267:36,2,50,0|0|0,3:0|0:0|0:0,0:0:0:0:
151,60,24843,1,8,0:0:0:0:
151,60,25058,2,0,L|150:113,1,50,0|2,0:0|0:0,0:0:0:0:
185,170,25486,1,0,0:0:0:0:
185,170,25700,6,0,L|186:223,2,50,2|0|0,0:0|0:0|0:0,0:0:0:0:
232,118,26343,1,2,0:0:0:0:
232,118,26558,2,0,P|270:86|332:71,1,100,8|2,0:0|0:0,0:0:0:0:
455,49,27415,1,2,0:0:0:0:
455,49,27629,2,0,P|407:34|369:2,1,100,0|0,3:0|0:0,0:0:0:0:
304,29,28272,1,8,0:0:0:0:
475,311,32558,6,0,P|415:228|335:251,1,165.000005035401,6|0,3:2|0:0,0:0:0:0:
317,294,33415,2,0,P|339:224|266:131,1,165.000005035401,8|0,0:0|0:0,0:0:0:0:
145,123,34486,2,0,P|200:113|241:69,1,110.000003356934,0|0,3:0|0:0,0:0:0:0:
181,23,35129,2,0,L|50:29,1,110.000003356934,10|2,0:0|0:0,0:0:0:0:
38,178,35986,6,0,P|63:240|141:264,1,110.000003356934,0|2,3:2|0:0,0:0:0:0:
169,232,36629,1,2,0:0:0:0:
239,200,36843,2,0,P|282:231|236:370,1,220.000006713867,10|0,0:0|0:0,0:0:0:0:
170,337,37915,1,0,3:0:0:0:
97,363,38129,2,0,L|35:356,1,55.0000016784668
13,285,38558,2,0,B|43:257|43:257|38:154,1,110.000003356934,8|2,0:0|0:0,0:0:0:0:
81,123,39200,1,2,0:0:0:0:
44,54,39415,6,0,P|108:48|155:96,1,110.000003356934,2|0,3:2|0:0,0:0:0:0:
180,140,40058,1,0,0:0:0:0:
180,140,40272,2,0,L|408:128,1,220.000006713867,8|0,0:0|0:0,0:0:0:0:
462,83,41343,2,0,P|437:144|443:186,1,110.000003356934,0|0,3:0|0:0,0:0:0:0:
479,254,41986,2,0,P|504:315|498:357,1,110.000003356934,10|0,0:0|0:0,0:0:0:0:
420,354,42629,1,2,0:0:0:0:
420,354,42843,6,0,P|358:328|322:330,2,82.5000025177003,2|0|0,3:2|0:0|0:0,0:0:0:0:
497,358,43700,2,0,L|511:184,1,165.000005035401,8|0,0:0|0:0,0:0:0:0:
383,105,44772,1,0,3:0:0:0:
383,105,44986,2,0,P|356:133|326:140,1,55.0000016784668
270,107,45415,2,0,P|221:87|156:88,1,110.000003356934,10|0,0:0|0:0,0:0:0:0:
56,196,46272,6,0,P|110:195|161:175,1,110.000003356934,6|0,3:2|0:0,0:0:0:0:
238,183,46915,1,0,0:0:0:0:
238,183,47129,2,0,L|231:356,1,165.000005035401,8|0,0:0|0:0,0:0:0:0:
385,340,48200,2,0,P|442:304|454:260,1,110.000003356934,0|0,3:0|0:0,0:0:0:0:
423,194,48843,2,0,P|443:144|491:119,1,110.000003356934,10|2,0:0|0:0,0:0:0:0:
349,58,49700,6,0,B|317:75|317:75|219:61,1,110.000003356934,0|2,3:2|0:0,0:0:0:0:
174,96,50343,1,2,0:0:0:0:
109,138,50558,2,0,B|88:175|88:175|99:306,1,165.000005035401,10|0,0:0|0:0,0:0:0:0:
245,344,51629,1,0,3:0:0:0:
245,344,51843,2,0,P|226:302|207:286,1,55.0000016784668
182,228,52272,2,0,L|305:223,1,110.000003356934,8|2,0:0|0:0,0:0:0:0:
354,268,52915,1,2,0:0:0:0:
413,220,53129,6,0,P|432:169|409:121,1,110.000003356934,2|0,3:2|0:0,0:0:0:0:
341,83,53772,1,0,0:0:0:0:
341,83,53986,2,0,L|163:97,1,165.000005035401,8|0,0:0|0:0,0:0:0:0:
38,27,55058,2,0,B|19:64|19:64|35:139,1,110.000003356934,0|0,3:0|0:0,0:0:0:0:
69,198,55700,2,0,B|88:235|88:235|72:310,1,110.000003356934,10|0,0:0|0:0,0:0:0:0:
130,354,56343,1,0,0:0:0:0:
172,289,56558,6,0,P|216:262|267:259,2,82.5000025177003,2|0|0,3:2|0:0|0:0,0:0:0:0:
130,354,57415,2,0,L|137:176,1,165.000005035401,8|0,0:0|0:0,0:0:0:0:
61,54,58486,1,0,3:0:0:0:
61,54,58700,2,0,P|94:80|115:86,1,55.0000016784668
159,28,59129,2,0,L|281:24,1,110.000003356934,10|0,0:0|0:0,0:0:0:0:
334,65,59772,1,0,0:0:0:0:
398,22,59986,6,0,P|458:31|494:72,1,110.000003356934,6|0,3:2|0:0,0:0:0:0:
428,110,60629,1,0,0:0:0:0:
428,110,60843,2,0,B|411:151|411:151|431:287,1,165.000005035401,8|0,0:0|3:0,0:0:0:0:
202,317,62129,2,0,P|249:299|319:300,2,110.000003356934,0|10|0,3:0|0:0|0:0,0:0:0:0:
139,271,63200,1,2,0:0:0:0:
74,228,63415,6,0,P|63:197|88:115,1,110.000003356934,2|0,3:2|0:0,0:0:0:0:
130,65,64058,1,0,0:0:0:0:
130,65,64272,2,0,P|166:77|281:13,1,165.000005035401,10|0,0:0|0:0,0:0:0:0:
426,49,65343,2,0,P|372:100|359:144,1,110.000003356934,0|0,3:0|0:0,0:0:0:0:
393,202,65986,2,0,L|403:322,1,110.000003356934,10|0,0:0|0:0,0:0:0:0:
344,363,66629,1,2,0:0:0:0:
276,327,66843,6,0,P|237:306|163:315,1,110.000003356934,2|0,3:2|0:0,0:0:0:0:
113,359,67486,1,0,0:0:0:0:
113,359,67700,2,0,P|134:317|109:186,1,165.000005035401,8|0,0:0|3:0,0:0:0:0:
278,33,68986,2,0,P|313:54|397:47,2,110.000003356934,0|10|0,3:0|0:0|0:0,0:0:0:0:
216,79,70058,1,2,0:0:0:0:
153,123,70272,6,0,P|112:159|100:227,1,110.000003356934,2|0,3:2|0:0,0:0:0:0:
212,314,71129,2,0,L|388:301,1,165.000005035401,8|0,0:0|0:0,0:0:0:0:
489,196,72200,2,0,P|514:159|509:89,1,110.000003356934,0|0,3:0|0:0,0:0:0:0:
435,82,72843,2,0,P|410:119|415:189,1,110.000003356934,8|0,0:0|0:0,0:0:0:0:
472,308,73700,5,2,0:0:0:0:
256,192,73808,12,0,80558,3:0:0:0:
