osu file format v14

[General]
AudioFilename: audio.mp3
AudioLeadIn: 0
PreviewTime: 32567
Countdown: 0
SampleSet: Normal
StackLeniency: 0.7
Mode: 1
LetterboxInBreaks: 0
WidescreenStoryboard: 1

[Editor]
Bookmarks: 15424
DistanceSpacing: 1.4
BeatDivisor: 4
GridSize: 4
TimelineZoom: 1

[Metadata]
Title:aureole (osu! xmas 2017) (Cut Ver.)
TitleUnicode:aureole (osu! xmas 2017) (Cut Ver.)
Artist:nekodex
ArtistUnicode:nekodex
Creator:ginjani
Version:kantan
Source:osu!
Tags:winter video game menu christmas instrumental electronic featured artist fa
BeatmapID:2749734
BeatmapSetID:1303615

[Difficulty]
HPDrainRate:9
CircleSize:5
OverallDifficulty:2
ApproachRate:5
SliderMultiplier:1.4
SliderTickRate:1

[Events]
//Background and Video events
0,0,"aureolee.jpg",0,0
//Break Periods
//Storyboard Layer 0 (Background)
//Storyboard Layer 1 (Fail)
//Storyboard Layer 2 (Pass)
//Storyboard Layer 3 (Foreground)
//Storyboard Layer 4 (Overlay)
//Storyboard Sound Samples

[TimingPoints]
1710,857.142857142859,4,1,0,50,1,0
31924,-100,4,1,0,40,0,0
32567,-100,4,1,0,60,0,1
73710,-100,4,1,0,40,0,0
80781,-100,4,1,0,25,0,0
82495,-100,4,1,0,15,0,0
83567,-100,4,1,0,10,0,0
83995,-100,4,1,0,5,0,0

[HitObjects]
256,192,1710,5,8,0:0:0:0:
256,192,2567,1,0,0:0:0:0:
256,192,3424,1,0,0:0:0:0:
264,200,4281,1,8,0:0:0:0:
264,200,5138,1,8,0:0:0:0:
256,216,5995,1,0,0:0:0:0:
260,200,7710,1,8,0:0:0:0:
264,204,8567,1,0,0:0:0:0:
260,204,9424,1,8,0:0:0:0:
260,204,10281,1,0,0:0:0:0:
240,208,11138,1,0,0:0:0:0:
260,208,11995,1,8,0:0:0:0:
256,216,13710,1,0,0:0:0:0:
256,216,14567,1,8,0:0:0:0:
264,228,15424,1,0,0:0:0:0:
252,196,17995,1,8,0:0:0:0:
252,196,18852,1,0,0:0:0:0:
256,200,20567,1,8,0:0:0:0:
264,200,21424,1,8,0:0:0:0:
260,196,22281,1,0,0:0:0:0:
260,200,23995,1,0,0:0:0:0:
260,200,24852,1,8,0:0:0:0:
256,204,25710,1,8,0:0:0:0:
252,208,26567,1,0,0:0:0:0:
248,220,27424,1,0,0:0:0:0:
260,224,28281,1,8,0:0:0:0:
260,200,32567,1,12,0:0:0:0:
252,192,33424,1,8,0:0:0:0:
252,192,35138,1,8,0:0:0:0:
240,196,35995,1,0,0:0:0:0:
252,192,36852,1,8,0:0:0:0:
256,204,38567,1,8,0:0:0:0:
256,204,39424,1,0,0:0:0:0:
264,208,40281,1,0,0:0:0:0:
260,204,41995,1,8,0:0:0:0:
260,204,42852,1,8,0:0:0:0:
264,208,43710,1,0,0:0:0:0:
260,240,45424,1,0,0:0:0:0:
260,200,46281,1,8,0:0:0:0:
252,192,47138,1,8,0:0:0:0:
252,192,48852,1,8,0:0:0:0:
252,192,49710,1,0,0:0:0:0:
252,192,50567,1,8,0:0:0:0:
256,200,52281,1,8,0:0:0:0:
256,204,53138,1,0,0:0:0:0:
264,208,53995,1,0,0:0:0:0:
260,204,55710,1,0,0:0:0:0:
260,204,56567,1,0,0:0:0:0:
264,208,57424,1,8,0:0:0:0:
260,240,59138,1,8,0:0:0:0:
256,240,59995,1,8,0:0:0:0:
252,240,60852,1,0,0:0:0:0:
256,244,62567,1,8,0:0:0:0:
272,252,63424,1,0,0:0:0:0:
268,248,64281,1,8,0:0:0:0:
280,252,65995,1,8,0:0:0:0:
276,256,66852,1,0,0:0:0:0:
276,256,67710,1,0,0:0:0:0:
280,264,69424,1,8,0:0:0:0:
280,260,70281,1,0,0:0:0:0:
280,260,71138,1,8,0:0:0:0:
268,260,72852,1,8,0:0:0:0:
272,260,73710,1,4,0:0:0:0:
268,256,76281,1,8,0:0:0:0:
288,252,77138,1,0,0:0:0:0:
284,248,79710,1,8,0:0:0:0:
284,244,80567,1,0,0:0:0:0:
256,192,80995,12,0,83995,0:0:0:0:
