osu file format v14

[General]
AudioFilename: audio.mp3
AudioLeadIn: 0
PreviewTime: 32567
Countdown: 0
SampleSet: Normal
StackLeniency: 0.7
Mode: 1
LetterboxInBreaks: 0
WidescreenStoryboard: 1

[Editor]
DistanceSpacing: 1.4
BeatDivisor: 4
GridSize: 4
TimelineZoom: 1

[Metadata]
Title:aureole (osu! xmas 2017) (Cut Ver.)
TitleUnicode:aureole (osu! xmas 2017) (Cut Ver.)
Artist:nekodex
ArtistUnicode:nekodex
Creator:ginjani
Version:futsuu
Source:osu!
Tags:winter video game menu christmas instrumental electronic featured artist fa
BeatmapID:2703296
BeatmapSetID:1303615

[Difficulty]
HPDrainRate:8
CircleSize:5
OverallDifficulty:3
ApproachRate:5
SliderMultiplier:1.4
SliderTickRate:1

[Events]
//Background and Video events
0,0,"aureolee.jpg",0,0
//Break Periods
//Storyboard Layer 0 (Background)
//Storyboard Layer 1 (Fail)
//Storyboard Layer 2 (Pass)
//Storyboard Layer 3 (Foreground)
//Storyboard Layer 4 (Overlay)
//Storyboard Sound Samples

[TimingPoints]
1710,857.142857142859,4,1,0,50,1,0
31924,-76.9230769230769,4,1,0,40,0,0
32567,-76.9230769230769,4,1,0,60,0,1
73710,-83.3333333333333,4,1,0,40,0,0
80781,-83.3333333333333,4,1,0,25,0,0
82495,-83.3333333333333,4,1,0,15,0,0
83567,-83.3333333333333,4,1,0,10,0,0
83995,-83.3333333333333,4,1,0,5,0,0

[HitObjects]
120,217,1710,5,0,0:0:0:0:
124,216,2138,1,0,0:0:0:0:
124,216,2567,1,8,0:0:0:0:
116,200,3424,1,0,0:0:0:0:
116,196,4281,1,8,0:0:0:0:
47,197,4710,1,0,0:0:0:0:
48,197,5138,1,8,0:0:0:0:
94,216,5781,1,8,0:0:0:0:
93,216,6424,1,8,0:0:0:0:
94,216,6852,1,0,0:0:0:0:
81,229,7710,1,8,0:0:0:0:
40,229,8138,1,0,0:0:0:0:
96,192,8567,1,8,0:0:0:0:
81,253,9852,1,0,0:0:0:0:
81,254,10281,1,8,0:0:0:0:
101,272,11138,1,8,0:0:0:0:
109,254,11567,1,0,0:0:0:0:
91,189,11995,1,8,0:0:0:0:
173,239,12638,1,0,0:0:0:0:
173,239,13281,1,8,0:0:0:0:
173,239,13710,1,0,0:0:0:0:
157,230,14567,1,8,0:0:0:0:
157,230,14995,1,0,0:0:0:0:
157,230,15424,1,8,0:0:0:0:
172,210,17138,1,8,0:0:0:0:
171,210,17567,1,0,0:0:0:0:
92,199,17995,1,8,0:0:0:0:
98,196,18424,1,8,0:0:0:0:
98,196,18852,1,0,0:0:0:0:
123,192,19710,1,8,0:0:0:0:
123,192,20138,1,8,0:0:0:0:
123,192,20567,1,0,0:0:0:0:
159,202,21424,1,8,0:0:0:0:
159,202,22281,1,8,0:0:0:0:
133,192,23567,1,8,0:0:0:0:
133,192,23995,1,0,0:0:0:0:
125,215,24852,1,0,0:0:0:0:
124,206,25281,1,8,0:0:0:0:
124,206,25710,1,8,0:0:0:0:
116,226,26352,1,0,0:0:0:0:
116,226,26995,1,8,0:0:0:0:
116,226,27424,1,0,0:0:0:0:
147,223,28281,1,8,0:0:0:0:
242,248,32567,5,12,0:0:0:0:
254,247,33424,1,8,0:0:0:0:
191,232,34495,1,0,0:0:0:0:
191,232,35138,1,8,0:0:0:0:
193,234,35567,1,8,0:0:0:0:
193,234,35995,1,0,0:0:0:0:
201,225,36852,1,8,0:0:0:0:
70,209,37924,1,0,0:0:0:0:
53,202,38567,1,8,0:0:0:0:
118,212,38995,1,0,0:0:0:0:
114,212,39424,1,8,0:0:0:0:
71,202,40281,1,8,0:0:0:0:
94,206,41995,1,8,0:0:0:0:
96,167,42852,1,0,0:0:0:0:
104,185,43281,1,0,0:0:0:0:
149,197,43710,1,8,0:0:0:0:
122,195,44781,1,0,0:0:0:0:
93,196,45424,1,8,0:0:0:0:
117,194,46281,1,8,0:0:0:0:
117,194,46710,1,0,0:0:0:0:
120,193,47138,1,8,0:0:0:0:
114,198,48210,1,0,0:0:0:0:
99,179,48852,1,8,0:0:0:0:
101,180,49281,1,8,0:0:0:0:
101,180,49710,1,0,0:0:0:0:
99,163,50567,1,8,0:0:0:0:
119,214,51638,1,0,0:0:0:0:
136,223,52281,1,8,0:0:0:0:
120,204,52710,1,8,0:0:0:0:
120,204,53138,1,0,0:0:0:0:
148,199,53995,1,8,0:0:0:0:
102,216,55067,1,0,0:0:0:0:
103,216,55710,1,8,0:0:0:0:
104,212,56567,1,8,0:0:0:0:
92,193,56995,1,0,0:0:0:0:
94,194,57424,1,8,0:0:0:0:
67,191,58495,1,0,0:0:0:0:
112,139,59138,1,8,0:0:0:0:
112,142,59995,1,12,0:0:0:0:
98,203,60424,1,0,0:0:0:0:
101,203,60852,1,8,0:0:0:0:
109,203,61495,1,0,0:0:0:0:
103,214,62138,1,0,0:0:0:0:
104,214,62567,1,8,0:0:0:0:
143,216,63424,1,8,0:0:0:0:
119,210,63852,1,0,0:0:0:0:
132,216,64281,1,8,0:0:0:0:
144,226,65352,1,0,0:0:0:0:
145,226,65995,1,8,0:0:0:0:
145,225,66852,1,0,0:0:0:0:
156,232,67281,1,8,0:0:0:0:
156,232,67710,1,8,0:0:0:0:
156,232,68352,1,0,0:0:0:0:
156,232,68995,1,0,0:0:0:0:
156,232,69424,1,8,0:0:0:0:
132,227,70281,1,0,0:0:0:0:
174,250,70710,1,0,0:0:0:0:
164,246,71138,1,8,0:0:0:0:
163,243,72210,1,0,0:0:0:0:
174,232,72852,1,8,0:0:0:0:
173,221,73710,1,4,0:0:0:0:
179,213,74138,1,0,0:0:0:0:
179,209,74567,1,8,0:0:0:0:
211,211,76281,1,8,0:0:0:0:
216,205,77138,1,0,0:0:0:0:
216,205,77567,1,8,0:0:0:0:
216,205,77995,1,8,0:0:0:0:
216,200,79710,1,8,0:0:0:0:
137,192,80138,1,8,0:0:0:0:
141,191,80567,1,0,0:0:0:0:
256,192,80995,12,0,83995,0:0:0:0:
