osu file format v14

[General]
AudioFilename: audio.mp3
AudioLeadIn: 0
PreviewTime: 32567
Countdown: 0
SampleSet: Soft
StackLeniency: 0.7
Mode: 0
LetterboxInBreaks: 0
EpilepsyWarning: 1
WidescreenStoryboard: 1

[Editor]
Bookmarks: 1710,29138,32567,59995,73710
DistanceSpacing: 1.2
BeatDivisor: 4
GridSize: 16
TimelineZoom: 0.9

[Metadata]
Title:aureole
TitleUnicode:aureole
Artist:nekodex
ArtistUnicode:nekodex
Creator:Cycopton
Version:normal
Source:osu!
Tags:christmas xmas menu theme 2017 winter easy gero featured artist fa instrumental enkrypton leissss pyun llnaokill
BeatmapID:2168725
BeatmapSetID:1037352

[Difficulty]
HPDrainRate:4
CircleSize:3.5
OverallDifficulty:4
ApproachRate:5
SliderMultiplier:1.6
SliderTickRate:1

[Events]
//Background and Video events
0,0,"osu! Winter Fanart 2017 - Leissss.jpg",0,0
//Break Periods
2,29138,31367
//Storyboard Layer 0 (Background)
Sprite,Background,Centre,"osu! Winter Fanart 2017 - Leissss.jpg",320,240 F,0,0,,0
Sprite,Background,Centre,"Easy.jpg",320,240 F,0,0,,0
Sprite,Background,Centre,"llNaokill.jpg",320,240 F,0,0,,0
Sprite,Background,Centre,"osu! Winter Fanart 2017 - Leissss.jpg",320,240 S,0,0,,0.4 F,0,1281,5138,0,1 F,0,5138,28281,1 F,0,28281,31710,1,0 F,0,32567,80567,1 F,0,80567,82281,1,0
Sprite,Background,Centre,"sb\the white 1x1 square that every storyboard uses.png",320,240 F,0,0,,0 V,0,0,,1920,1080 F,0,32567,32995,0.5,0
Sprite,Background,BottomCentre,"sb\bar.png",280,485 F,0,32567,,0.6 C,0,32567,,242,132,86 V,0,32567,32781,-22,5.8,-22,4.3 V,0,32781,32995,-22,4.3,-22,6.9 V,0,32995,33209,-22,6.9,-22,7.4 V,0,33209,33424,-22,7.4,-22,6.9 V,0,33424,34067,-22,6.9,-22,6.7 V,0,34067,34281,-22,6.7,-22,6.2 V,0,34281,34495,-22,6.2,-22,3 V,0,34495,34924,-22,3,-22,6.6 V,0,34924,35567,-22,6.6,-22,6.3 V,0,35567,35781,-22,6.3,-22,7.4 V,0,35781,35995,-22,7.4,-22,4.4 V,0,35995,36209,-22,4.4,-22,6.4 V,0,36209,36424,-22,6.4,-22,7.4 V,0,36424,36638,-22,7.4,-22,6.4 V,0,36638,37067,-22,6.4,-22,7.7 V,0,37281,37495,-22,7.7,-22,7.4 V,0,37495,37924,-22,7.4,-22,4.1 V,0,37924,38138,-22,4.1,-22,6.2 V,0,38138,38352,-22,6.2,-22,7.7 V,0,38352,38567,-22,7.7,-22,7.1 V,0,38567,38781,-22,7.1,-22,7.7 V,0,38781,39209,-22,7.7,-22,7.2 V,0,39209,39424,-22,7.2,-22,4.2 V,0,39424,39852,-22,4.2,-22,5.7 V,0,39852,40495,-22,5.7,-22,6.6 V,0,40495,41352,-22,6.6,-22,4.3 V,0,41352,41567,-22,4.3,-22,4.7 V,0,41567,41781,-22,4.7,-22,6.5 V,0,41781,41995,-22,6.5,-22,6.4 V,0,41995,42209,-22,6.4,-22,6.9 V,0,42209,42638,-22,6.9,-22,6.5 V,0,42638,42852,-22,6.5,-22,4.4 V,0,42852,43067,-22,4.4,-22,6 V,0,43067,43281,-22,6,-22,6.6 V,0,43281,43495,-22,6.6,-22,3.6 V,0,43495,43924,-22,3.6,-22,6.7 V,0,43924,44138,-22,6.7,-22,7.4 V,0,44138,44352,-22,7.4,-22,6.7 V,0,44352,44567,-22,6.7,-22,4.5 V,0,44781,44995,-22,4.5,-22,3.3 V,0,44995,45209,-22,3.3,-22,6 V,0,45209,45424,-22,6,-22,6.4 V,0,45424,45638,-22,6.4,-22,6.5 V,0,45638,45852,-22,6.5,-22,5.1 V,0,45852,46067,-22,5.1,-22,6 V,0,46067,46281,-22,6,-22,4.7 V,0,46495,46709,-22,4.7,-22,5.2 V,0,46709,46924,-22,5.2,-22,4.8 V,0,46924,47138,-22,4.8,-22,6.5 V,0,47138,47352,-22,6.5,-22,7.5 V,0,47567,47995,-22,7.5,-22,7.2 V,0,47995,48209,-22,7.2,-22,4.5 V,0,48209,48638,-22,4.5,-22,6.3 V,0,48638,49067,-22,6.3,-22,2.1 V,0,49067,49495,-22,2.1,-22,1.9 V,0,49495,49709,-22,1.9,-22,4.9 V,0,49709,49924,-22,4.9,-22,6.9 V,0,49924,50138,-22,6.9,-22,8.1 V,0,50138,50781,-22,8.1,-22,7.4 V,0,50781,50995,-22,7.4,-22,6.6 V,0,50995,51424,-22,6.6,-22,7.5 V,0,51424,51638,-22,7.5,-22,5.6 V,0,51638,52067,-22,5.6,-22,5.8 V,0,52067,52281,-22,5.8,-22,4.2 V,0,52281,52495,-22,4.2,-22,6.2 V,0,52495,52709,-22,6.2,-22,5.9 V,0,52709,53138,-22,5.9,-22,4.3 V,0,53138,53352,-22,4.3,-22,4.1 V,0,53352,53567,-22,4.1,-22,6.2 V,0,53567,53781,-22,6.2,-22,6.5 V,0,53781,53995,-22,6.5,-22,5.8 V,0,53995,54424,-22,5.8,-22,6.5 V,0,54424,54852,-22,6.5,-22,6 V,0,54852,55281,-22,6,-22,3.6 V,0,55281,55495,-22,3.6,-22,5.2 V,0,55495,55924,-22,5.2,-22,6.6 V,0,55924,56138,-22,6.6,-22,6.7 V,0,56138,56352,-22,6.7,-22,5.9 V,0,56352,56567,-22,5.9,-22,4.2 V,0,56567,56781,-22,4.2,-22,4.6 V,0,56781,56995,-22,4.6,-22,6.4 V,0,56995,57209,-22,6.4,-22,6.6 V,0,57209,57424,-22,6.6,-22,5.7 V,0,57424,57638,-22,5.7,-22,6.1 V,0,57638,58281,-22,6.1,-22,5.2 V,0,58281,58495,-22,5.2,-22,4.2 V,0,58495,58924,-22,4.2,-22,4.6 V,0,58924,59138,-22,4.6,-22,2.8 V,0,59138,59352,-22,2.8,-22,5.8 V,0,59352,59567,-22,5.8,-22,6.8 V,0,59567,59781,-22,6.8,-22,7 V,0,59781,59995,-22,7,-22,3.1 V,0,59995,60209,-22,3.1,-22,3.8 V,0,60209,60424,-22,3.8,-22,5.7 V,0,60424,61067,-22,5.7,-22,7 V,0,61067,61281,-22,7,-22,6.7 V,0,61281,61495,-22,6.7,-22,1.1 V,0,61495,61709,-22,1.1,-22,4.6 V,0,61709,61924,-22,4.6,-22,6.9 V,0,61924,62138,-22,6.9,-22,5.2 V,0,62138,62567,-22,5.2,-22,6.9 V,0,62567,62781,-22,6.9,-22,6.8 V,0,62781,62995,-22,6.8,-22,5.6 V,0,62995,63209,-22,5.6,-22,6.8 V,0,63209,63424,-22,6.8,-22,3 V,0,63424,63638,-22,3,-22,3.9 V,0,63638,63852,-22,3.9,-22,6.2 V,0,63852,64281,-22,6.2,-22,5.8 V,0,64281,64495,-22,5.8,-22,6.4 V,0,64495,64709,-22,6.4,-22,5.9 V,0,64709,64924,-22,5.9,-22,4.4 V,0,64924,65138,-22,4.4,-22,5.8 V,0,65138,65352,-22,5.8,-22,4.6 V,0,65352,65567,-22,4.6,-22,4.5 V,0,65567,65781,-22,4.5,-22,6.1 V,0,65781,65995,-22,6.1,-22,5.9 V,0,65995,66209,-22,5.9,-22,6.8 V,0,66209,66638,-22,6.8,-22,6.7 V,0,66638,66852,-22,6.7,-22,4.2 V,0,66852,67281,-22,4.2,-22,7.1 V,0,67281,67495,-22,7.1,-22,7.3 V,0,67495,67709,-22,7.3,-22,6.7 V,0,67924,68138,-22,6.7,-22,5.9 V,0,68138,68352,-22,5.9,-22,0.8 V,0,68352,68567,-22,0.8,-22,4.7 V,0,68567,68781,-22,4.7,-22,5.4 V,0,68781,68995,-22,5.4,-22,3.7 V,0,68995,69209,-22,3.7,-22,4.7 V,0,69209,69424,-22,4.7,-22,4.2 V,0,69424,69638,-22,4.2,-22,4.5 V,0,69638,69852,-22,4.5,-22,6.4 V,0,69852,70067,-22,6.4,-22,6.2 V,0,70067,70281,-22,6.2,-22,3.9 V,0,70281,70495,-22,3.9,-22,4.8 V,0,70495,70709,-22,4.8,-22,6.4 V,0,70709,71352,-22,6.4,-22,4.8 V,0,71352,71567,-22,4.8,-22,6.3 V,0,71567,71995,-22,6.3,-22,6.7 V,0,71995,72209,-22,6.7,-22,3.2 V,0,72209,72638,-22,3.2,-22,5.3 V,0,72638,73067,-22,5.3,-22,6.1 V,0,73067,73495,-22,6.1,-22,6.3 V,0,73495,73709,-22,6.3,-22,2.2 V,0,73709,73924,-22,2.2,-22,3.8 F,0,73710,74567,0.6,0 V,0,74138,74352,-22,3.8,-22,2.1
Sprite,Background,BottomCentre,"sb\bar.png",227.25,485 F,0,32567,,0.6 C,0,32567,,242,132,86 V,0,32567,32781,-22,6.8,-22,4.7 V,0,32781,32995,-22,4.7,-22,7.5 V,0,32995,33209,-22,7.5,-22,7.8 V,0,33209,33424,-22,7.8,-22,7.4 V,0,33424,33638,-22,7.4,-22,8 V,0,33638,33852,-22,8,-22,7.5 V,0,33852,34281,-22,7.5,-22,4.8 V,0,34281,34495,-22,4.8,-22,6.2 V,0,34495,34709,-22,6.2,-22,5.9 V,0,34709,34924,-22,5.9,-22,7.1 V,0,34924,35352,-22,7.1,-22,5.6 V,0,35352,35567,-22,5.6,-22,7.3 V,0,35567,35781,-22,7.3,-22,7.2 V,0,35781,35995,-22,7.2,-22,6.2 V,0,35995,36209,-22,6.2,-22,5.9 V,0,36209,36424,-22,5.9,-22,7.6 V,0,36424,36852,-22,7.6,-22,6 V,0,36852,37067,-22,6,-22,7 V,0,37067,37281,-22,7,-22,7.4 V,0,37281,37495,-22,7.4,-22,7.2 V,0,37495,37709,-22,7.2,-22,6 V,0,37709,37924,-22,6,-22,6.2 V,0,37924,38138,-22,6.2,-22,5.3 V,0,38138,38352,-22,5.3,-22,6.6 V,0,38352,38567,-22,6.6,-22,6 V,0,38567,38781,-22,6,-22,7.1 V,0,38781,38995,-22,7.1,-22,7.5 V,0,38995,39209,-22,7.5,-22,7.4 V,0,39209,39424,-22,7.4,-22,5.3 V,0,39424,39852,-22,5.3,-22,6.9 V,0,39852,40495,-22,6.9,-22,7.9 V,0,40495,41352,-22,7.9,-22,5.8 V,0,41352,41567,-22,5.8,-22,6.1 V,0,41567,41781,-22,6.1,-22,7.8 V,0,41781,41995,-22,7.8,-22,7.7 V,0,41995,42209,-22,7.7,-22,8.2 V,0,42209,42638,-22,8.2,-22,7.8 V,0,42638,42852,-22,7.8,-22,5.9 V,0,42852,43281,-22,5.9,-22,7.9 V,0,43281,43709,-22,7.9,-22,6.1 V,0,43709,43924,-22,6.1,-22,7.4 V,0,43924,44138,-22,7.4,-22,8.2 V,0,44138,44352,-22,8.2,-22,7.5 V,0,44352,44567,-22,7.5,-22,6.1 V,0,44567,44781,-22,6.1,-22,6 V,0,44781,44995,-22,6,-22,5 V,0,44995,45209,-22,5,-22,7.1 V,0,45209,45638,-22,7.1,-22,7.2 V,0,45638,45852,-22,7.2,-22,3.3 V,0,45852,46067,-22,3.3,-22,6.9 V,0,46067,46495,-22,6.9,-22,5.5 V,0,46495,46709,-22,5.5,-22,6.9 V,0,46709,47138,-22,6.9,-22,7.3 V,0,47138,47567,-22,7.3,-22,6.8 V,0,47567,47995,-22,6.8,-22,7.7 V,0,47995,48209,-22,7.7,-22,5.1 V,0,48209,48424,-22,5.1,-22,5 V,0,48424,48638,-22,5,-22,6.4 V,0,48638,49067,-22,6.4,-22,4.3 V,0,49067,49495,-22,4.3,-22,5.4 V,0,49495,50138,-22,5.4,-22,8.1 V,0,50138,50781,-22,8.1,-22,7.7 V,0,50781,50995,-22,7.7,-22,7.1 V,0,51424,52067,-22,7.1,-22,4.2 V,0,52067,52281,-22,4.2,-22,6.3 V,0,52281,52495,-22,6.3,-22,7.2 V,0,52495,52709,-22,7.2,-22,6.2 V,0,52709,52924,-22,6.2,-22,4.5 V,0,52924,53138,-22,4.5,-22,6.2 V,0,53138,53352,-22,6.2,-22,5.7 V,0,53352,53567,-22,5.7,-22,7.6 V,0,53567,53781,-22,7.6,-22,7.9 V,0,53781,53995,-22,7.9,-22,7.3 V,0,53995,54424,-22,7.3,-22,7.9 V,0,54424,54852,-22,7.9,-22,7.4 V,0,54852,55281,-22,7.4,-22,5 V,0,55281,55495,-22,5,-22,6.6 V,0,55495,55924,-22,6.6,-22,8 V,0,56138,56352,-22,8,-22,7.3 V,0,56352,56567,-22,7.3,-22,5.5 V,0,56567,56781,-22,5.5,-22,5.9 V,0,56781,56995,-22,5.9,-22,7.8 V,0,56995,57209,-22,7.8,-22,7.9 V,0,57209,57424,-22,7.9,-22,7.2 V,0,57424,57638,-22,7.2,-22,7.4 V,0,57638,58495,-22,7.4,-22,6.5 V,0,58495,58709,-22,6.5,-22,5.6 V,0,58709,58924,-22,5.6,-22,5.8 V,0,58924,59138,-22,5.8,-22,4.4 V,0,59138,59352,-22,4.4,-22,7 V,0,59352,59567,-22,7,-22,8.2 V,0,59567,59781,-22,8.2,-22,8.3 V,0,59781,59995,-22,8.3,-22,5.7 V,0,59995,60209,-22,5.7,-22,4.6 V,0,60209,60424,-22,4.6,-22,6.6 V,0,60424,61067,-22,6.6,-22,7.8 V,0,61067,61281,-22,7.8,-22,7.5 V,0,61281,61495,-22,7.5,-22,6 V,0,61495,61709,-22,6,-22,5.5 V,0,61709,61924,-22,5.5,-22,7.6 V,0,61924,62138,-22,7.6,-22,4.7 V,0,62138,62352,-22,4.7,-22,7.1 V,0,62352,62781,-22,7.1,-22,7.7 V,0,62781,62995,-22,7.7,-22,5.9 V,0,62995,63209,-22,5.9,-22,7.5 V,0,63209,63638,-22,7.5,-22,5.5 V,0,63638,63852,-22,5.5,-22,7.5 V,0,63852,64281,-22,7.5,-22,7.2 V,0,64281,64495,-22,7.2,-22,7.7 V,0,64495,64709,-22,7.7,-22,7.1 V,0,64709,64924,-22,7.1,-22,5.4 V,0,64924,65138,-22,5.4,-22,7 V,0,65138,65352,-22,7,-22,5.7 V,0,65352,65567,-22,5.7,-22,5.8 V,0,65567,65781,-22,5.8,-22,7.4 V,0,65781,65995,-22,7.4,-22,7.3 V,0,65995,66209,-22,7.3,-22,8.1 V,0,66638,66852,-22,8.1,-22,5.9 V,0,66852,67067,-22,5.9,-22,6.1 V,0,67067,67281,-22,6.1,-22,7.9 V,0,67281,67495,-22,7.9,-22,8.1 V,0,67495,67709,-22,8.1,-22,7.5 V,0,67924,68138,-22,7.5,-22,6.3 V,0,68138,68352,-22,6.3,-22,6.2 V,0,68352,68567,-22,6.2,-22,5.2 V,0,68567,68781,-22,5.2,-22,6.1 V,0,68781,68995,-22,6.1,-22,5.5 V,0,68995,69424,-22,5.5,-22,5.1 V,0,69424,69638,-22,5.1,-22,5.2 V,0,69638,69852,-22,5.2,-22,7.2 V,0,70067,70281,-22,7.2,-22,6.3 V,0,70281,70495,-22,6.3,-22,6 V,0,70495,70709,-22,6,-22,7.6 V,0,70709,70924,-22,7.6,-22,7.4 V,0,70924,71352,-22,7.4,-22,6 V,0,71352,71567,-22,6,-22,7.6 V,0,71567,71995,-22,7.6,-22,8.1 V,0,71995,72209,-22,8.1,-22,6.5 V,0,72209,72424,-22,6.5,-22,5.9 V,0,72424,72638,-22,5.9,-22,6.8 V,0,72638,73495,-22,6.8,-22,7.7 V,0,73495,73709,-22,7.7,-22,4.4 V,0,73709,73924,-22,4.4,-22,5 F,0,73710,74567,0.6,0 V,0,73924,74138,-22,5,-22,4.9 V,0,74138,74352,-22,4.9,-22,3.4
Sprite,Background,BottomCentre,"sb\bar.png",174.5,485 F,0,32567,,0.6 C,0,32567,,242,132,86 V,0,32567,32781,-22,7.4,-22,5.8 V,0,32781,32995,-22,5.8,-22,7.4 V,0,32995,33424,-22,7.4,-22,6.7 V,0,33424,33638,-22,6.7,-22,8.1 V,0,33852,34067,-22,8.1,-22,7.2 V,0,34067,34281,-22,7.2,-22,7 V,0,34281,34495,-22,7,-22,7.6 V,0,34495,34709,-22,7.6,-22,6.4 V,0,34709,34924,-22,6.4,-22,7.1 V,0,34924,35138,-22,7.1,-22,6 V,0,35138,35567,-22,6,-22,7.3 V,0,35567,35781,-22,7.3,-22,5.9 V,0,35781,35995,-22,5.9,-22,7.6 V,0,35995,36209,-22,7.6,-22,5.2 V,0,36209,36424,-22,5.2,-22,6.7 V,0,36424,36638,-22,6.7,-22,7.2 V,0,36638,37281,-22,7.2,-22,6.8 V,0,37281,37709,-22,6.8,-22,5.9 V,0,37709,37924,-22,5.9,-22,7.8 V,0,37924,38138,-22,7.8,-22,4.7 V,0,38138,38352,-22,4.7,-22,6.9 V,0,38352,38781,-22,6.9,-22,5.7 V,0,38781,39424,-22,5.7,-22,7.8 V,0,39424,39638,-22,7.8,-22,5.4 V,0,39638,39852,-22,5.4,-22,6 V,0,39852,40281,-22,6,-22,5.9 V,0,40281,40495,-22,5.9,-22,7.4 V,0,40495,40709,-22,7.4,-22,5.6 V,0,40709,40924,-22,5.6,-22,6.9 V,0,40924,41138,-22,6.9,-22,6.5 V,0,41138,41352,-22,6.5,-22,7.9 V,0,41352,41567,-22,7.9,-22,5.9 V,0,41567,41781,-22,5.9,-22,7 V,0,41781,41995,-22,7,-22,6.2 V,0,41995,42209,-22,6.2,-22,7.6 V,0,42209,42424,-22,7.6,-22,6.9 V,0,42424,42852,-22,6.9,-22,7.7 V,0,42852,43067,-22,7.7,-22,5.2 V,0,43067,43281,-22,5.2,-22,7.2 V,0,43281,43924,-22,7.2,-22,5 V,0,43924,44138,-22,5,-22,7.7 V,0,44138,44352,-22,7.7,-22,6.9 V,0,44352,44567,-22,6.9,-22,5.5 V,0,44567,44781,-22,5.5,-22,7.9 V,0,44781,44995,-22,7.9,-22,5.5 V,0,44995,45209,-22,5.5,-22,6.8 V,0,45209,45638,-22,6.8,-22,6.4 V,0,45638,45852,-22,6.4,-22,5.5 V,0,45852,46067,-22,5.5,-22,6.4 V,0,46067,46281,-22,6.4,-22,7.9 V,0,46281,46495,-22,7.9,-22,5.3 V,0,46495,46709,-22,5.3,-22,7.7 V,0,46709,46924,-22,7.7,-22,7.9 V,0,46924,47567,-22,7.9,-22,6.9 V,0,47567,48209,-22,6.9,-22,7.7 V,0,48209,48424,-22,7.7,-22,3.3 V,0,48424,48638,-22,3.3,-22,3.5 V,0,48638,48852,-22,3.5,-22,5.4 V,0,48852,49495,-22,5.4,-22,6.7 V,0,49495,49709,-22,6.7,-22,8 V,0,49709,49924,-22,8,-22,6.3 V,0,49924,50138,-22,6.3,-22,6.9 V,0,50138,50352,-22,6.9,-22,6.5 V,0,50352,50781,-22,6.5,-22,7.1 V,0,50781,51209,-22,7.1,-22,6.5 V,0,51209,51424,-22,6.5,-22,4 V,0,51424,51638,-22,4,-22,7.9 V,0,51638,51852,-22,7.9,-22,5.5 V,0,51852,52067,-22,5.5,-22,4.8 V,0,52067,52281,-22,4.8,-22,6.5 V,0,52281,52495,-22,6.5,-22,7.4 V,0,52495,52709,-22,7.4,-22,6.4 V,0,52709,52924,-22,6.4,-22,3.7 V,0,52924,53138,-22,3.7,-22,7.8 V,0,53138,53352,-22,7.8,-22,4.3 V,0,53352,53567,-22,4.3,-22,6.4 V,0,53567,53781,-22,6.4,-22,7.1 V,0,53781,54209,-22,7.1,-22,6.4 V,0,54209,54424,-22,6.4,-22,7.2 V,0,54424,54638,-22,7.2,-22,7.1 V,0,54638,54852,-22,7.1,-22,6.1 V,0,54852,55067,-22,6.1,-22,7.9 V,0,55067,55281,-22,7.9,-22,4.2 V,0,55281,55495,-22,4.2,-22,6.5 V,0,55495,55709,-22,6.5,-22,6.2 V,0,55709,55924,-22,6.2,-22,7.2 V,0,55924,56138,-22,7.2,-22,7.3 V,0,56138,56352,-22,7.3,-22,6.3 V,0,56352,56567,-22,6.3,-22,7.9 V,0,56567,56781,-22,7.9,-22,5.7 V,0,56781,56995,-22,5.7,-22,6 V,0,56995,57209,-22,6,-22,7.3 V,0,57209,57424,-22,7.3,-22,6.1 V,0,57424,57852,-22,6.1,-22,6.6 V,0,57852,58067,-22,6.6,-22,5.9 V,0,58067,58281,-22,5.9,-22,6.2 V,0,58281,58495,-22,6.2,-22,8 V,0,58495,58709,-22,8,-22,5.3 V,0,58709,58924,-22,5.3,-22,5.9 V,0,58924,59138,-22,5.9,-22,4.2 V,0,59138,59352,-22,4.2,-22,6.6 V,0,59352,59995,-22,6.6,-22,7.7 V,0,59995,60209,-22,7.7,-22,4.2 V,0,60209,60424,-22,4.2,-22,5.8 V,0,60424,60638,-22,5.8,-22,5 V,0,60638,60852,-22,5,-22,6.7 V,0,60852,61067,-22,6.7,-22,6.9 V,0,61067,61281,-22,6.9,-22,4.5 V,0,61281,61495,-22,4.5,-22,7.7 V,0,61495,61709,-22,7.7,-22,5.8 V,0,61709,61924,-22,5.8,-22,6 V,0,61924,62138,-22,6,-22,7.4 V,0,62138,62567,-22,7.4,-22,6.5 V,0,62567,62781,-22,6.5,-22,7.7 V,0,62781,63209,-22,7.7,-22,5.8 V,0,63209,63424,-22,5.8,-22,7.8 V,0,63424,63638,-22,7.8,-22,4.4 V,0,63638,63852,-22,4.4,-22,6.7 V,0,63852,64495,-22,6.7,-22,6.3 V,0,64495,64709,-22,6.3,-22,6.7 V,0,64709,64924,-22,6.7,-22,4 V,0,64924,65138,-22,4,-22,7 V,0,65138,65352,-22,7,-22,7.7 V,0,65352,65567,-22,7.7,-22,4.6 V,0,65567,65781,-22,4.6,-22,6.5 V,0,65995,66209,-22,6.5,-22,7.3 V,0,66209,66424,-22,7.3,-22,6.6 V,0,66424,66638,-22,6.6,-22,7.6 V,0,66638,66852,-22,7.6,-22,7.8 V,0,66852,67067,-22,7.8,-22,5.6 V,0,67067,67281,-22,5.6,-22,7.3 V,0,67495,67709,-22,7.3,-22,6.4 V,0,67709,67924,-22,6.4,-22,6.8 V,0,67924,68138,-22,6.8,-22,5.5 V,0,68138,68352,-22,5.5,-22,8 V,0,68352,68567,-22,8,-22,4.6 V,0,68567,68781,-22,4.6,-22,7.1 V,0,68781,68995,-22,7.1,-22,7.8 V,0,68995,69209,-22,7.8,-22,5.9 V,0,69209,69424,-22,5.9,-22,5.3 V,0,69424,69638,-22,5.3,-22,3.9 V,0,69638,69852,-22,3.9,-22,6.7 V,0,69852,70067,-22,6.7,-22,7.5 V,0,70067,70281,-22,7.5,-22,7.7 V,0,70281,70495,-22,7.7,-22,5.3 V,0,70495,70709,-22,5.3,-22,6.9 V,0,70709,70924,-22,6.9,-22,7 V,0,70924,71352,-22,7,-22,4.3 V,0,71352,71567,-22,4.3,-22,6.7 V,0,71567,72209,-22,6.7,-22,7.8 V,0,72209,72424,-22,7.8,-22,4.8 V,0,72424,72852,-22,4.8,-22,6.8 V,0,72852,73067,-22,6.8,-22,6.2 V,0,73067,73281,-22,6.2,-22,7.4 V,0,73281,73495,-22,7.4,-22,5.9 V,0,73495,73709,-22,5.9,-22,5.4 V,0,73709,73924,-22,5.4,-22,3.5 F,0,73710,74567,0.6,0 V,0,73924,74138,-22,3.5,-22,3.9 V,0,74138,74352,-22,3.9,-22,3.2
Sprite,Background,BottomCentre,"sb\bar.png",121.75,485 F,0,32567,,0.6 C,0,32567,,242,132,86 V,0,32567,32781,-22,8.1,-22,4.8 V,0,32781,32995,-22,4.8,-22,5.9 V,0,32995,33209,-22,5.9,-22,5.1 V,0,33209,33638,-22,5.1,-22,7.3 V,0,33638,34067,-22,7.3,-22,6.3 V,0,34067,34281,-22,6.3,-22,6.4 V,0,34281,34495,-22,6.4,-22,8.3 V,0,34495,34709,-22,8.3,-22,5.2 V,0,34709,34924,-22,5.2,-22,5.7 V,0,34924,35138,-22,5.7,-22,4.9 V,0,35138,35567,-22,4.9,-22,4.7 V,0,35567,35995,-22,4.7,-22,8.3 V,0,35995,36209,-22,8.3,-22,3.8 V,0,36209,36424,-22,3.8,-22,5.7 V,0,36424,36638,-22,5.7,-22,6.8 V,0,36638,37281,-22,6.8,-22,6.1 V,0,37281,37495,-22,6.1,-22,5.4 V,0,37495,37709,-22,5.4,-22,5.6 V,0,37709,37924,-22,5.6,-22,8.6 V,0,37924,38138,-22,8.6,-22,2.5 V,0,38138,38352,-22,2.5,-22,5.1 V,0,38352,38567,-22,5.1,-22,5.4 V,0,38567,38781,-22,5.4,-22,5.1 V,0,38781,38995,-22,5.1,-22,6 V,0,38995,39209,-22,6,-22,6.1 V,0,39209,39424,-22,6.1,-22,8.4 V,0,39424,39638,-22,8.4,-22,5.2 V,0,39638,39852,-22,5.2,-22,6.1 V,0,39852,40067,-22,6.1,-22,6.2 V,0,40067,40281,-22,6.2,-22,5.8 V,0,40281,40709,-22,5.8,-22,7.6 V,0,40709,41138,-22,7.6,-22,7 V,0,41138,41352,-22,7,-22,8.7 V,0,41352,41567,-22,8.7,-22,6 V,0,41567,41781,-22,6,-22,7 V,0,41781,41995,-22,7,-22,5.9 V,0,41995,42209,-22,5.9,-22,6.7 V,0,42209,42638,-22,6.7,-22,4.9 V,0,42638,42852,-22,4.9,-22,8.4 V,0,42852,43067,-22,8.4,-22,4.1 V,0,43067,43281,-22,4.1,-22,5.9 V,0,43281,43709,-22,5.9,-22,5.5 V,0,43709,43924,-22,5.5,-22,7.1 V,0,43924,44138,-22,7.1,-22,6.9 V,0,44138,44352,-22,6.9,-22,5.4 V,0,44352,44781,-22,5.4,-22,8.7 V,0,44781,44995,-22,8.7,-22,4.5 V,0,44995,45209,-22,4.5,-22,5.6 V,0,45209,45424,-22,5.6,-22,5.1 V,0,45424,45638,-22,5.1,-22,5.5 V,0,45638,45852,-22,5.5,-22,6.8 V,0,45852,46067,-22,6.8,-22,6.4 V,0,46067,46281,-22,6.4,-22,8.6 V,0,46281,46495,-22,8.6,-22,4.8 V,0,46495,46709,-22,4.8,-22,6.7 V,0,46709,46924,-22,6.7,-22,6.8 V,0,46924,47138,-22,6.8,-22,6.2 V,0,47138,47567,-22,6.2,-22,7 V,0,47567,47995,-22,7,-22,6.6 V,0,47995,48209,-22,6.6,-22,8.6 V,0,48209,48424,-22,8.6,-22,2.8 V,0,48424,48638,-22,2.8,-22,4.6 V,0,48638,48852,-22,4.6,-22,4.3 V,0,48852,49495,-22,4.3,-22,6 V,0,49495,49709,-22,6,-22,8.6 V,0,49709,49924,-22,8.6,-22,4.8 V,0,49924,50138,-22,4.8,-22,5.9 V,0,50352,50567,-22,5.9,-22,3.6 V,0,50567,50781,-22,3.6,-22,6.6 V,0,50781,50995,-22,6.6,-22,7.2 V,0,50995,51209,-22,7.2,-22,6.1 V,0,51209,51424,-22,6.1,-22,4.1 V,0,51424,51638,-22,4.1,-22,8.6 V,0,51638,51852,-22,8.6,-22,5.5 V,0,51852,52067,-22,5.5,-22,6.8 V,0,52067,52281,-22,6.8,-22,2.7 V,0,52281,52495,-22,2.7,-22,6 V,0,52495,52924,-22,6,-22,5.4 V,0,52924,53138,-22,5.4,-22,8.5 V,0,53138,53352,-22,8.5,-22,4.8 V,0,53352,53781,-22,4.8,-22,5.8 V,0,53781,53995,-22,5.8,-22,5.2 V,0,53995,54209,-22,5.2,-22,6.3 V,0,54209,54852,-22,6.3,-22,6 V,0,54852,55067,-22,6,-22,8.7 V,0,55067,55281,-22,8.7,-22,5.8 V,0,55281,55495,-22,5.8,-22,6.4 V,0,55495,55924,-22,6.4,-22,4.3 V,0,55924,56138,-22,4.3,-22,5.1 V,0,56138,56352,-22,5.1,-22,4.6 V,0,56352,56567,-22,4.6,-22,8.6 V,0,56567,56781,-22,8.6,-22,5.5 V,0,56781,56995,-22,5.5,-22,7.2 V,0,56995,57209,-22,7.2,-22,6.6 V,0,57209,57424,-22,6.6,-22,4.6 V,0,57424,57638,-22,4.6,-22,4.9 V,0,57638,57852,-22,4.9,-22,6.3 V,0,57852,58067,-22,6.3,-22,7 V,0,58067,58281,-22,7,-22,7.1 V,0,58281,58495,-22,7.1,-22,8.7 V,0,58495,58709,-22,8.7,-22,5.2 V,0,58709,58924,-22,5.2,-22,6.6 V,0,58924,59138,-22,6.6,-22,6.5 V,0,59138,59352,-22,6.5,-22,6 V,0,59352,59567,-22,6,-22,4.2 V,0,59567,59995,-22,4.2,-22,8.4 V,0,59995,60209,-22,8.4,-22,3 V,0,60209,60638,-22,3,-22,6.3 V,0,60638,60852,-22,6.3,-22,6.2 V,0,60852,61067,-22,6.2,-22,6.9 V,0,61067,61281,-22,6.9,-22,5.8 V,0,61281,61495,-22,5.8,-22,8.4 V,0,61495,61709,-22,8.4,-22,5.8 V,0,61709,62138,-22,5.8,-22,8.2 V,0,62138,62352,-22,8.2,-22,6.3 V,0,62352,62995,-22,6.3,-22,7.7 V,0,62995,63209,-22,7.7,-22,6.3 V,0,63209,63424,-22,6.3,-22,8.4 V,0,63424,63638,-22,8.4,-22,4.3 V,0,63638,63852,-22,4.3,-22,6.6 V,0,63852,64067,-22,6.6,-22,7 V,0,64067,64281,-22,7,-22,5.6 V,0,64281,64924,-22,5.6,-22,6.4 V,0,64924,65352,-22,6.4,-22,8.5 V,0,65352,65567,-22,8.5,-22,4.1 V,0,65567,65781,-22,4.1,-22,3.3 V,0,65781,65995,-22,3.3,-22,4.5 V,0,65995,66209,-22,4.5,-22,5 V,0,66209,66424,-22,5,-22,6.7 V,0,66424,66638,-22,6.7,-22,6.9 V,0,66638,66852,-22,6.9,-22,8.5 V,0,66852,67067,-22,8.5,-22,6.1 V,0,67067,67281,-22,6.1,-22,7.4 V,0,67281,67924,-22,7.4,-22,6.1 V,0,67924,68138,-22,6.1,-22,6.9 V,0,68138,68352,-22,6.9,-22,8.6 V,0,68352,68567,-22,8.6,-22,5.3 V,0,68567,68781,-22,5.3,-22,7.6 V,0,68781,68995,-22,7.6,-22,8.4 V,0,68995,69209,-22,8.4,-22,6.2 V,0,69209,69424,-22,6.2,-22,5.3 V,0,69424,69638,-22,5.3,-22,5.1 V,0,69638,69852,-22,5.1,-22,7 V,0,69852,70067,-22,7,-22,7.4 V,0,70067,70281,-22,7.4,-22,8.4 V,0,70281,70495,-22,8.4,-22,2.9 V,0,70495,70709,-22,2.9,-22,6.8 V,0,70709,70924,-22,6.8,-22,7.7 V,0,70924,71352,-22,7.7,-22,5.8 V,0,71352,71567,-22,5.8,-22,4.3 V,0,71567,71781,-22,4.3,-22,6.8 V,0,71781,71995,-22,6.8,-22,6.4 V,0,71995,72209,-22,6.4,-22,8.5 V,0,72209,72424,-22,8.5,-22,4.4 V,0,72424,72638,-22,4.4,-22,5.1 V,0,72638,72852,-22,5.1,-22,6.6 V,0,72852,73067,-22,6.6,-22,7.4 V,0,73067,73495,-22,7.4,-22,7.1 V,0,73495,73709,-22,7.1,-22,6.4 V,0,73709,73924,-22,6.4,-22,4.7 F,0,73710,74567,0.6,0 V,0,74138,74352,-22,4.7,-22,3.3
Sprite,Background,BottomCentre,"sb\bar.png",69,485 F,0,32567,,0.6 C,0,32567,,242,132,86 V,0,32567,32781,-22,7,-22,4 V,0,32781,32995,-22,4,-22,5.7 V,0,32995,33209,-22,5.7,-22,6 V,0,33209,33424,-22,6,-22,4.6 V,0,33424,33638,-22,4.6,-22,5.2 V,0,33638,34281,-22,5.2,-22,4.3 V,0,34281,34495,-22,4.3,-22,7.6 V,0,34495,34709,-22,7.6,-22,3.3 V,0,34709,35352,-22,3.3,-22,6.2 V,0,35352,35781,-22,6.2,-22,5.6 V,0,35781,35995,-22,5.6,-22,7.4 V,0,35995,36209,-22,7.4,-22,2.2 V,0,36209,36424,-22,2.2,-22,6.7 V,0,36424,36638,-22,6.7,-22,6.5 V,0,36638,36852,-22,6.5,-22,4.3 V,0,36852,37067,-22,4.3,-22,3.6 V,0,37067,37281,-22,3.6,-22,3.7 V,0,37281,37709,-22,3.7,-22,5.6 V,0,37709,37924,-22,5.6,-22,7.7 V,0,37924,38138,-22,7.7,-22,3.8 V,0,38138,38352,-22,3.8,-22,3.3 V,0,38352,38781,-22,3.3,-22,6.2 V,0,38781,39209,-22,6.2,-22,6.6 V,0,39209,39424,-22,6.6,-22,7.6 V,0,39424,39638,-22,7.6,-22,4.7 V,0,39638,40067,-22,4.7,-22,5.8 V,0,40067,40281,-22,5.8,-22,5.2 V,0,40281,40495,-22,5.2,-22,5.4 V,0,40495,40709,-22,5.4,-22,7 V,0,40709,41138,-22,7,-22,6.1 V,0,41138,41352,-22,6.1,-22,7.9 V,0,41352,41567,-22,7.9,-22,5.2 V,0,41567,41781,-22,5.2,-22,6.4 V,0,41781,41995,-22,6.4,-22,4.9 V,0,41995,42209,-22,4.9,-22,6.1 V,0,42209,42424,-22,6.1,-22,5.5 V,0,42424,42638,-22,5.5,-22,4.1 V,0,42638,42852,-22,4.1,-22,7.5 V,0,42852,43067,-22,7.5,-22,3.1 V,0,43067,43281,-22,3.1,-22,6 V,0,43281,43495,-22,6,-22,6.1 V,0,43495,43709,-22,6.1,-22,3.9 V,0,43709,43924,-22,3.9,-22,6.1 V,0,43924,44138,-22,6.1,-22,6.2 V,0,44138,44352,-22,6.2,-22,1.5 V,0,44352,44567,-22,1.5,-22,6 V,0,44567,44781,-22,6,-22,7.9 V,0,44781,44995,-22,7.9,-22,3.4 V,0,44995,45209,-22,3.4,-22,5.6 V,0,45209,45424,-22,5.6,-22,3.6 V,0,45424,45638,-22,3.6,-22,5.5 V,0,45638,45852,-22,5.5,-22,6 V,0,45852,46067,-22,6,-22,5.8 V,0,46067,46281,-22,5.8,-22,7.7 V,0,46281,46495,-22,7.7,-22,4.4 V,0,46495,46709,-22,4.4,-22,5.8 V,0,46709,46924,-22,5.8,-22,4.8 V,0,46924,47138,-22,4.8,-22,2.9 V,0,47138,47352,-22,2.9,-22,3.3 V,0,47352,47567,-22,3.3,-22,5 V,0,47567,47781,-22,5,-22,5.7 V,0,47781,47995,-22,5.7,-22,5.6 V,0,47995,48209,-22,5.6,-22,7.8 V,0,48209,48424,-22,7.8,-22,4.2 V,0,48424,48638,-22,4.2,-22,4.3 V,0,48638,48852,-22,4.3,-22,3.5 V,0,48852,49067,-22,3.5,-22,4.7 V,0,49067,49281,-22,4.7,-22,4.5 V,0,49281,49495,-22,4.5,-22,5.5 V,0,49495,49709,-22,5.5,-22,7.7 V,0,49709,50138,-22,7.7,-22,2.7 V,0,50138,50352,-22,2.7,-22,6.2 V,0,50352,50567,-22,6.2,-22,3.9 V,0,50567,50781,-22,3.9,-22,6.4 V,0,50781,51209,-22,6.4,-22,6.3 V,0,51209,51424,-22,6.3,-22,5.3 V,0,51424,51638,-22,5.3,-22,7.6 V,0,51638,51852,-22,7.6,-22,6 V,0,51852,52067,-22,6,-22,7.2 V,0,52067,52281,-22,7.2,-22,5.6 V,0,52281,52709,-22,5.6,-22,5.3 V,0,52709,52924,-22,5.3,-22,4.5 V,0,52924,53138,-22,4.5,-22,7.6 V,0,53138,53352,-22,7.6,-22,4.3 V,0,53352,53567,-22,4.3,-22,4.8 V,0,53567,53781,-22,4.8,-22,3.6 V,0,53781,53995,-22,3.6,-22,3.5 V,0,53995,54209,-22,3.5,-22,6.1 V,0,54209,54424,-22,6.1,-22,5.1 V,0,54424,54638,-22,5.1,-22,5.9 V,0,54638,54852,-22,5.9,-22,5.3 V,0,54852,55067,-22,5.3,-22,7.8 V,0,55067,55281,-22,7.8,-22,5.2 V,0,55281,55495,-22,5.2,-22,6.1 V,0,55495,55709,-22,6.1,-22,5 V,0,55709,56352,-22,5,-22,4.5 V,0,56352,56567,-22,4.5,-22,7.8 V,0,56567,56781,-22,7.8,-22,4.9 V,0,56781,56995,-22,4.9,-22,6.4 V,0,56995,57209,-22,6.4,-22,6.1 V,0,57209,57638,-22,6.1,-22,3.5 V,0,57638,57852,-22,3.5,-22,5.8 V,0,57852,58281,-22,5.8,-22,6.5 V,0,58281,58495,-22,6.5,-22,7.8 V,0,58495,58709,-22,7.8,-22,4.4 V,0,58709,58924,-22,4.4,-22,5.8 V,0,59138,59567,-22,5.8,-22,3.7 V,0,59567,59995,-22,3.7,-22,7.5 V,0,59995,60209,-22,7.5,-22,4.2 V,0,60209,60638,-22,4.2,-22,4.8 V,0,60638,60852,-22,4.8,-22,5.6 V,0,60852,61067,-22,5.6,-22,4.4 V,0,61067,61281,-22,4.4,-22,4.6 V,0,61281,61495,-22,4.6,-22,7.6 V,0,61495,61709,-22,7.6,-22,4.8 V,0,61709,61924,-22,4.8,-22,5.1 V,0,61924,62138,-22,5.1,-22,7.3 V,0,62138,62352,-22,7.3,-22,4.1 V,0,62352,62567,-22,4.1,-22,3.8 V,0,62567,62995,-22,3.8,-22,6 V,0,62995,63209,-22,6,-22,6.2 V,0,63209,63424,-22,6.2,-22,7.6 V,0,63424,63638,-22,7.6,-22,4 V,0,63638,63852,-22,4,-22,6 V,0,63852,64067,-22,6,-22,6.5 V,0,64067,64281,-22,6.5,-22,4.4 V,0,64281,64495,-22,4.4,-22,5.4 V,0,64495,64924,-22,5.4,-22,5.3 V,0,64924,65138,-22,5.3,-22,6.9 V,0,65138,65352,-22,6.9,-22,7.6 V,0,65352,65567,-22,7.6,-22,4 V,0,65567,65781,-22,4,-22,3.1 V,0,65781,66209,-22,3.1,-22,3.8 V,0,66209,66424,-22,3.8,-22,5.9 V,0,66424,66638,-22,5.9,-22,6.3 V,0,66638,66852,-22,6.3,-22,7.6 V,0,66852,67067,-22,7.6,-22,3.8 V,0,67067,67281,-22,3.8,-22,4.6 V,0,67281,67495,-22,4.6,-22,6.1 V,0,67495,67924,-22,6.1,-22,4.7 V,0,67924,68138,-22,4.7,-22,5.6 V,0,68138,68352,-22,5.6,-22,7.6 V,0,68352,68567,-22,7.6,-22,3.9 V,0,68567,68995,-22,3.9,-22,7.5 V,0,68995,69209,-22,7.5,-22,4.1 V,0,69209,69424,-22,4.1,-22,5.2 V,0,69424,69638,-22,5.2,-22,4.6 V,0,69638,69852,-22,4.6,-22,6.2 V,0,69852,70067,-22,6.2,-22,4.6 V,0,70067,70281,-22,4.6,-22,7.5 V,0,70281,70495,-22,7.5,-22,2.7 V,0,70495,70709,-22,2.7,-22,6.2 V,0,70709,70924,-22,6.2,-22,7 V,0,70924,71567,-22,7,-22,3.8 V,0,71567,71781,-22,3.8,-22,6.4 V,0,71781,71995,-22,6.4,-22,5.8 V,0,71995,72209,-22,5.8,-22,7.6 V,0,72209,72424,-22,7.6,-22,3.8 V,0,72424,73067,-22,3.8,-22,6.7 V,0,73067,73709,-22,6.7,-22,5.9 V,0,73709,73924,-22,5.9,-22,4.1 F,0,73710,74567,0.6,0 V,0,73924,74138,-22,4.1,-22,4 V,0,74138,74352,-22,4,-22,2.8
Sprite,Background,BottomCentre,"sb\bar.png",16.25,485 F,0,32567,,0.6 C,0,32567,,242,132,86 V,0,32567,33209,-22,1.6,-22,4.4 V,0,33209,33424,-22,4.4,-22,2.1 V,0,33424,33638,-22,2.1,-22,3.6 V,0,33638,34067,-22,3.6,-22,3 V,0,34067,34281,-22,3,-22,4.6 V,0,34281,34495,-22,4.6,-22,2.3 V,0,34495,34709,-22,2.3,-22,2 V,0,34709,34924,-22,2,-22,3.9 V,0,34924,35567,-22,3.9,-22,5.2 V,0,35567,35781,-22,5.2,-22,2.5 V,0,35781,35995,-22,2.5,-22,2.2 V,0,35995,36209,-22,2.2,-22,4 V,0,36209,36424,-22,4,-22,3.4 V,0,36424,36638,-22,3.4,-22,4.4 V,0,36852,37067,-22,4.4,-22,5.2 V,0,37067,37281,-22,5.2,-22,4.7 V,0,37281,37495,-22,4.7,-22,1.9 V,0,37495,37709,-22,1.9,-22,4.3 V,0,37709,37924,-22,4.3,-22,2.8 V,0,37924,38138,-22,2.8,-22,4.3 V,0,38138,38352,-22,4.3,-22,3.9 V,0,38352,38567,-22,3.9,-22,2.4 V,0,38567,38781,-22,2.4,-22,4.6 V,0,38781,39209,-22,4.6,-22,4.3 V,0,39209,39424,-22,4.3,-22,3.5 V,0,39424,39638,-22,3.5,-22,5.3 V,0,39638,40281,-22,5.3,-22,5 V,0,40281,40495,-22,5,-22,5.4 V,0,40495,40709,-22,5.4,-22,3.9 V,0,40709,40924,-22,3.9,-22,6.2 V,0,40924,41138,-22,6.2,-22,6.5 V,0,41138,41352,-22,6.5,-22,2.6 V,0,41352,41567,-22,2.6,-22,4.2 V,0,41567,41781,-22,4.2,-22,4 V,0,41781,41995,-22,4,-22,4.9 V,0,41995,42209,-22,4.9,-22,4.1 V,0,42209,42424,-22,4.1,-22,6 V,0,42424,42638,-22,6,-22,5.4 V,0,42638,42852,-22,5.4,-22,1.4 V,0,42852,43067,-22,1.4,-22,2.3 V,0,43067,43495,-22,2.3,-22,5.5 V,0,43495,43709,-22,5.5,-22,4.7 V,0,43709,44138,-22,4.7,-22,5.6 V,0,44138,44352,-22,5.6,-22,5.3 V,0,44352,44567,-22,5.3,-22,3.4 V,0,44567,44781,-22,3.4,-22,3.2 V,0,44781,44995,-22,3.2,-22,4.4 V,0,44995,45209,-22,4.4,-22,3.7 V,0,45209,45852,-22,3.7,-22,5.6 V,0,45852,46067,-22,5.6,-22,4.2 V,0,46067,46281,-22,4.2,-22,1.8 V,0,46281,46495,-22,1.8,-22,3.3 V,0,46495,46924,-22,3.3,-22,4 V,0,46924,47567,-22,4,-22,3.1 V,0,47567,47781,-22,3.1,-22,3.8 V,0,47781,47995,-22,3.8,-22,3.4 V,0,47995,48209,-22,3.4,-22,1.7 V,0,48209,48424,-22,1.7,-22,3.1 V,0,48424,48638,-22,3.1,-22,1.9 V,0,48638,48852,-22,1.9,-22,3.4 V,0,48852,49067,-22,3.4,-22,3.1 V,0,49067,49281,-22,3.1,-22,4 V,0,49281,49495,-22,4,-22,3.3 V,0,49495,49709,-22,3.3,-22,1.7 V,0,49709,49924,-22,1.7,-22,3.3 V,0,50138,50567,-22,3.3,-22,4.2 V,0,50567,50995,-22,4.2,-22,3.3 V,0,50995,51209,-22,3.3,-22,5 V,0,51424,51638,-22,5,-22,1.4 V,0,51638,51852,-22,1.4,-22,1.6 V,0,51852,52067,-22,1.6,-22,5.4 V,0,52067,52281,-22,5.4,-22,2.4 V,0,52281,52924,-22,2.4,-22,4.2 V,0,52924,53138,-22,4.2,-22,3.1 V,0,53138,53352,-22,3.1,-22,5 V,0,53352,53567,-22,5,-22,5.3 V,0,53567,53781,-22,5.3,-22,6.2 V,0,53781,53995,-22,6.2,-22,4.7 V,0,53995,54209,-22,4.7,-22,4.4 V,0,54209,54424,-22,4.4,-22,5.5 V,0,54424,54638,-22,5.5,-22,5.1 V,0,54638,54852,-22,5.1,-22,5.9 V,0,54852,55067,-22,5.9,-22,3 V,0,55067,55281,-22,3,-22,4.5 V,0,55281,55709,-22,4.5,-22,4.7 V,0,55709,55924,-22,4.7,-22,6.1 V,0,55924,56352,-22,6.1,-22,5 V,0,56352,56567,-22,5,-22,3.1 V,0,56567,56995,-22,3.1,-22,4.6 V,0,56995,57424,-22,4.6,-22,5.3 V,0,57424,58067,-22,5.3,-22,4.6 V,0,58067,58281,-22,4.6,-22,5.8 V,0,58281,58495,-22,5.8,-22,2.3 V,0,58495,58709,-22,2.3,-22,4.4 V,0,58709,58924,-22,4.4,-22,5.6 V,0,58924,59138,-22,5.6,-22,4 V,0,59138,59567,-22,4,-22,5.6 V,0,59567,59781,-22,5.6,-22,2.1 V,0,59781,59995,-22,2.1,-22,2.8 V,0,59995,60209,-22,2.8,-22,4.8 V,0,60209,60638,-22,4.8,-22,5.3 V,0,60638,61067,-22,5.3,-22,4.4 V,0,61067,61281,-22,4.4,-22,4.9 V,0,61281,61495,-22,4.9,-22,2.4 V,0,61495,61709,-22,2.4,-22,4.4 V,0,61709,62138,-22,4.4,-22,2.7 V,0,62138,62352,-22,2.7,-22,4.5 V,0,62352,62567,-22,4.5,-22,3.9 V,0,62567,62995,-22,3.9,-22,6.2 V,0,62995,63209,-22,6.2,-22,5.8 V,0,63209,63424,-22,5.8,-22,2.9 V,0,63424,63852,-22,2.9,-22,6.1 V,0,63852,64067,-22,6.1,-22,4.5 V,0,64067,64495,-22,4.5,-22,4.1 V,0,64495,64709,-22,4.1,-22,5.5 V,0,64709,64924,-22,5.5,-22,4.7 V,0,64924,65138,-22,4.7,-22,5.9 V,0,65138,65352,-22,5.9,-22,2.3 V,0,65352,65567,-22,2.3,-22,4.1 V,0,65567,65781,-22,4.1,-22,4.8 V,0,65781,65995,-22,4.8,-22,3.5 V,0,65995,66209,-22,3.5,-22,6.3 V,0,66209,66424,-22,6.3,-22,5.4 V,0,66424,66638,-22,5.4,-22,2.9 V,0,66638,67067,-22,2.9,-22,4.6 V,0,67067,67281,-22,4.6,-22,3.8 V,0,67281,67495,-22,3.8,-22,4.9 V,0,67495,67709,-22,4.9,-22,3.1 V,0,67709,67924,-22,3.1,-22,5.8 V,0,67924,68352,-22,5.8,-22,2.6 V,0,68352,68781,-22,2.6,-22,4.4 V,0,68781,68995,-22,4.4,-22,2 V,0,68995,69209,-22,2,-22,4.4 V,0,69209,69424,-22,4.4,-22,3.4 V,0,69424,69852,-22,3.4,-22,5.2 V,0,69852,70067,-22,5.2,-22,5.4 V,0,70067,70281,-22,5.4,-22,3.1 V,0,70281,70495,-22,3.1,-22,3.9 V,0,70495,70709,-22,3.9,-22,3.6 V,0,70709,70924,-22,3.6,-22,6.3 V,0,70924,71138,-22,6.3,-22,4.8 V,0,71138,71352,-22,4.8,-22,6.2 V,0,71352,71567,-22,6.2,-22,4.9 V,0,71567,71781,-22,4.9,-22,5.6 V,0,71781,71995,-22,5.6,-22,5.2 V,0,71995,72209,-22,5.2,-22,2.5 V,0,72209,72424,-22,2.5,-22,4.3 V,0,72424,72638,-22,4.3,-22,4.8 V,0,72638,72852,-22,4.8,-22,3.8 V,0,72852,73067,-22,3.8,-22,5.7 V,0,73067,73281,-22,5.7,-22,2.6 V,0,73281,73495,-22,2.6,-22,6.2 V,0,73495,73709,-22,6.2,-22,2.1 V,0,73709,73924,-22,2.1,-22,2.7 F,0,73710,74567,0.6,0 V,0,73924,74352,-22,2.7,-22,2.4
Sprite,Background,BottomCentre,"sb\bar.png",-36.5,485 F,0,32567,,0.6 C,0,32567,,242,132,86 V,0,32781,32995,-22,3.4,-22,2.1 V,0,32995,33209,-22,2.1,-22,1.9 V,0,33209,33638,-22,1.9,-22,4.2 V,0,33638,33852,-22,4.2,-22,4.5 V,0,33852,34067,-22,4.5,-22,5.5 V,0,34067,34281,-22,5.5,-22,5.4 V,0,34281,34495,-22,5.4,-22,3.1 V,0,34495,34709,-22,3.1,-22,3.8 V,0,34709,34924,-22,3.8,-22,3.9 V,0,34924,35138,-22,3.9,-22,1.1 V,0,35138,35352,-22,1.1,-22,3.9 V,0,35352,35567,-22,3.9,-22,3.7 V,0,35567,35781,-22,3.7,-22,2.6 V,0,35995,36209,-22,2.6,-22,1.5 V,0,36209,36424,-22,1.5,-22,2.7 V,0,36424,36638,-22,2.7,-22,2.1 V,0,36638,36852,-22,2.1,-22,2.2 V,0,36852,37067,-22,2.2,-22,4.4 V,0,37067,37281,-22,4.4,-22,2.3 V,0,37281,37709,-22,2.3,-22,3.3 V,0,37709,38138,-22,3.3,-22,2.1 V,0,38138,38352,-22,2.1,-22,3.8 V,0,38352,38567,-22,3.8,-22,2.2 V,0,38567,38781,-22,2.2,-22,4.1 V,0,38781,38995,-22,4.1,-22,3 V,0,38995,39209,-22,3,-22,4.5 V,0,39209,39424,-22,4.5,-22,2.9 V,0,39424,39638,-22,2.9,-22,2.6 V,0,39638,39852,-22,2.6,-22,5.4 V,0,39852,40067,-22,5.4,-22,3.6 V,0,40067,40281,-22,3.6,-22,4 V,0,40281,40495,-22,4,-22,3.4 V,0,40495,41138,-22,3.4,-22,6.1 V,0,41138,41352,-22,6.1,-22,1.7 V,0,41352,41567,-22,1.7,-22,4.3 V,0,41567,41781,-22,4.3,-22,3.2 V,0,41781,41995,-22,3.2,-22,4.8 V,0,41995,42209,-22,4.8,-22,2.8 V,0,42209,42424,-22,2.8,-22,3.3 V,0,42424,42852,-22,3.3,-22,2.2 V,0,42852,43067,-22,2.2,-22,4.1 V,0,43067,43281,-22,4.1,-22,4.5 V,0,43281,43495,-22,4.5,-22,3.7 V,0,43495,43924,-22,3.7,-22,3.4 V,0,43924,44138,-22,3.4,-22,3.5 V,0,44138,44352,-22,3.5,-22,4.4 V,0,44352,44781,-22,4.4,-22,3.5 V,0,44995,45209,-22,3.5,-22,4.9 V,0,45209,45424,-22,4.9,-22,4.8 V,0,45424,45638,-22,4.8,-22,3.9 V,0,45638,46067,-22,3.9,-22,4.6 V,0,46067,46495,-22,4.6,-22,1.9 V,0,46495,46709,-22,1.9,-22,5.5 V,0,46709,46924,-22,5.5,-22,1.5 V,0,46924,47352,-22,1.5,-22,4.9 V,0,47352,47567,-22,4.9,-22,2.2 V,0,47567,47781,-22,2.2,-22,5 V,0,47995,48209,-22,5,-22,3.4 V,0,48209,48424,-22,3.4,-22,4.1 V,0,48424,48638,-22,4.1,-22,2.6 V,0,48638,48852,-22,2.6,-22,4.9 V,0,48852,49495,-22,4.9,-22,5.8 V,0,49495,49709,-22,5.8,-22,2.9 V,0,49709,49924,-22,2.9,-22,2.1 V,0,49924,50352,-22,2.1,-22,2.7 V,0,50352,50567,-22,2.7,-22,2 V,0,50567,50781,-22,2,-22,3 V,0,50781,51209,-22,3,-22,4.2 V,0,51209,51852,-22,4.2,-22,2.2 V,0,51852,52067,-22,2.2,-22,5.1 V,0,52067,52281,-22,5.1,-22,2.4 V,0,52495,52709,-22,2.4,-22,1.6 V,0,52709,52924,-22,1.6,-22,3.7 V,0,52924,53138,-22,3.7,-22,3 V,0,53138,53352,-22,3,-22,1.4 V,0,53352,53781,-22,1.4,-22,4.6 V,0,53781,53995,-22,4.6,-22,3.8 V,0,53995,54209,-22,3.8,-22,2.4 V,0,54209,54424,-22,2.4,-22,2.8 V,0,54424,54638,-22,2.8,-22,4.9 V,0,54638,54852,-22,4.9,-22,4.2 V,0,54852,55067,-22,4.2,-22,2.3 V,0,55067,55495,-22,2.3,-22,5 V,0,55495,55709,-22,5,-22,3.5 V,0,55709,55924,-22,3.5,-22,5.3 V,0,55924,56138,-22,5.3,-22,5.4 V,0,56138,56352,-22,5.4,-22,4.5 V,0,56352,56567,-22,4.5,-22,1.7 V,0,56567,56781,-22,1.7,-22,3.5 V,0,56781,56995,-22,3.5,-22,4.4 V,0,56995,57424,-22,4.4,-22,4.9 V,0,57424,57638,-22,4.9,-22,5.8 V,0,57638,58067,-22,5.8,-22,3.5 V,0,58067,58281,-22,3.5,-22,5.1 V,0,58281,58495,-22,5.1,-22,3.9 V,0,58495,58709,-22,3.9,-22,3.5 V,0,58709,58924,-22,3.5,-22,4.1 V,0,58924,59138,-22,4.1,-22,2.4 V,0,59138,59567,-22,2.4,-22,5.5 V,0,59567,59781,-22,5.5,-22,4.2 V,0,59781,60209,-22,4.2,-22,3.4 V,0,60209,60424,-22,3.4,-22,4.4 V,0,60424,60638,-22,4.4,-22,1.6 V,0,60638,60852,-22,1.6,-22,3.8 V,0,60852,61067,-22,3.8,-22,4.5 V,0,61067,61281,-22,4.5,-22,2.9 V,0,61281,61495,-22,2.9,-22,3.2 V,0,61495,61709,-22,3.2,-22,2.5 V,0,61709,61924,-22,2.5,-22,5.1 V,0,61924,62138,-22,5.1,-22,2.8 V,0,62138,62352,-22,2.8,-22,3.1 V,0,62352,62567,-22,3.1,-22,4.4 V,0,62567,62781,-22,4.4,-22,4.2 V,0,62781,62995,-22,4.2,-22,2.4 V,0,62995,63209,-22,2.4,-22,3.7 V,0,63209,63424,-22,3.7,-22,2.8 V,0,63424,63638,-22,2.8,-22,3.8 V,0,63638,63852,-22,3.8,-22,2.6 V,0,63852,64067,-22,2.6,-22,4.7 V,0,64067,64281,-22,4.7,-22,5.2 V,0,64281,64495,-22,5.2,-22,4.8 V,0,64495,64709,-22,4.8,-22,5.4 V,0,64709,65138,-22,5.4,-22,4.9 V,0,65138,65567,-22,4.9,-22,1.2 V,0,65567,65781,-22,1.2,-22,5.5 V,0,65781,65995,-22,5.5,-22,4.4 V,0,65995,66424,-22,4.4,-22,4.2 V,0,66424,66638,-22,4.2,-22,4.8 V,0,66638,66852,-22,4.8,-22,4.1 V,0,66852,67067,-22,4.1,-22,4.3 V,0,67067,67495,-22,4.3,-22,2.7 V,0,67495,67924,-22,2.7,-22,4.6 V,0,67924,68138,-22,4.6,-22,2.8 V,0,68138,68352,-22,2.8,-22,3.1 V,0,68352,68567,-22,3.1,-22,1.9 V,0,68567,68781,-22,1.9,-22,4.9 V,0,68781,68995,-22,4.9,-22,2.7 V,0,68995,69209,-22,2.7,-22,1.9 V,0,69209,69424,-22,1.9,-22,3.4 V,0,69424,69638,-22,3.4,-22,3.5 V,0,69638,70067,-22,3.5,-22,2.6 V,0,70067,70281,-22,2.6,-22,3.2 V,0,70281,70495,-22,3.2,-22,2.2 V,0,70495,70709,-22,2.2,-22,5.1 V,0,70709,70924,-22,5.1,-22,5.8 V,0,70924,71138,-22,5.8,-22,3.5 V,0,71138,71352,-22,3.5,-22,5.4 V,0,71352,71781,-22,5.4,-22,4.6 V,0,71781,71995,-22,4.6,-22,5.8 V,0,71995,72209,-22,5.8,-22,2.8 V,0,72209,72424,-22,2.8,-22,2.1 V,0,72424,72638,-22,2.1,-22,5.3 V,0,72638,72852,-22,5.3,-22,4.3 V,0,72852,73495,-22,4.3,-22,5.2 V,0,73495,73709,-22,5.2,-22,3.9 V,0,73709,73924,-22,3.9,-22,4.8 F,0,73710,74567,0.6,0 V,0,73924,74138,-22,4.8,-22,4.3 V,0,74138,74352,-22,4.3,-22,4.5
Sprite,Background,BottomCentre,"sb\bar.png",-89.25,485 F,0,32567,,0.6 C,0,32567,,242,132,86 V,0,32567,32995,-22,2.8,-22,1.9 V,0,32995,33209,-22,1.9,-22,4 V,0,33209,33424,-22,4,-22,1.8 V,0,33424,33852,-22,1.8,-22,3 V,0,33852,34067,-22,3,-22,0.3 V,0,34067,34281,-22,0.3,-22,2.6 V,0,34281,34495,-22,2.6,-22,1.9 V,0,34495,34709,-22,1.9,-22,2.5 V,0,34709,34924,-22,2.5,-22,3.9 V,0,34924,35138,-22,3.9,-22,0.5 V,0,35138,35352,-22,0.5,-22,2.8 V,0,35781,36209,-22,2.8,-22,1.4 V,0,36209,36424,-22,1.4,-22,2.2 V,0,36424,36638,-22,2.2,-22,3.9 V,0,36638,36852,-22,3.9,-22,0.9 V,0,36852,37067,-22,0.9,-22,2.5 V,0,37067,37281,-22,2.5,-22,3.1 V,0,37281,37709,-22,3.1,-22,1.8 V,0,37709,38138,-22,1.8,-22,1.4 V,0,38138,38352,-22,1.4,-22,3.7 V,0,38352,38567,-22,3.7,-22,1 V,0,38567,38781,-22,1,-22,3.7 V,0,38995,39638,-22,3.7,-22,0.8 V,0,39638,39852,-22,0.8,-22,2.9 V,0,39852,40067,-22,2.9,-22,1.2 V,0,40067,40281,-22,1.2,-22,1.7 V,0,40281,40709,-22,1.7,-22,1.3 V,0,40709,40924,-22,1.3,-22,2.9 V,0,40924,41138,-22,2.9,-22,1.7 V,0,41138,41352,-22,1.7,-22,1.4 V,0,41352,41567,-22,1.4,-22,2 V,0,41567,41781,-22,2,-22,1.5 V,0,41781,42424,-22,1.5,-22,3.1 V,0,42424,42638,-22,3.1,-22,2.3 V,0,42638,43067,-22,2.3,-22,1.7 V,0,43067,43495,-22,1.7,-22,4.6 V,0,43495,43709,-22,4.6,-22,3.2 V,0,43709,43924,-22,3.2,-22,2.5 V,0,43924,44138,-22,2.5,-22,3.9 V,0,44138,44352,-22,3.9,-22,4.1 V,0,44352,44567,-22,4.1,-22,2.3 V,0,44567,44781,-22,2.3,-22,1.2 V,0,44781,44995,-22,1.2,-22,3.3 V,0,44995,45209,-22,3.3,-22,3.6 V,0,45209,45424,-22,3.6,-22,3.2 V,0,45424,45638,-22,3.2,-22,4.5 V,0,46067,46281,-22,4.5,-22,0.8 V,0,46281,46495,-22,0.8,-22,2.5 V,0,46495,47352,-22,2.5,-22,1.3 V,0,47352,47567,-22,1.3,-22,3.5 V,0,47567,47781,-22,3.5,-22,3.6 V,0,47781,47995,-22,3.6,-22,1.1 V,0,47995,48209,-22,1.1,-22,2.9 V,0,48209,48638,-22,2.9,-22,3.3 V,0,48638,48852,-22,3.3,-22,2.1 V,0,48852,49067,-22,2.1,-22,3.1 V,0,49067,49281,-22,3.1,-22,3.4 V,0,49281,49924,-22,3.4,-22,1.3 V,0,49924,50138,-22,1.3,-22,2.8 V,0,50138,50352,-22,2.8,-22,3.2 V,0,50352,50567,-22,3.2,-22,2 V,0,50567,50781,-22,2,-22,2.1 V,0,50781,50995,-22,2.1,-22,3.8 V,0,50995,51424,-22,3.8,-22,2.8 V,0,51424,51638,-22,2.8,-22,1.7 V,0,51638,51852,-22,1.7,-22,2.9 V,0,51852,52067,-22,2.9,-22,3.4 V,0,52067,52281,-22,3.4,-22,2.2 V,0,52281,52495,-22,2.2,-22,3.7 V,0,52495,52924,-22,3.7,-22,3.2 V,0,52924,53138,-22,3.2,-22,1.9 V,0,53138,53567,-22,1.9,-22,2.7 V,0,53567,53995,-22,2.7,-22,2 V,0,53995,54209,-22,2,-22,3 V,0,54209,54424,-22,3,-22,0.5 V,0,54424,54638,-22,0.5,-22,2.4 V,0,54638,54852,-22,2.4,-22,2.9 V,0,54852,55067,-22,2.9,-22,1.6 V,0,55067,55281,-22,1.6,-22,1.5 V,0,55281,55495,-22,1.5,-22,2.6 V,0,55495,55709,-22,2.6,-22,1.7 V,0,55924,56138,-22,1.7,-22,3.4 V,0,56138,56567,-22,3.4,-22,2.1 V,0,56567,56781,-22,2.1,-22,3.4 V,0,56781,57424,-22,3.4,-22,2.5 V,0,57424,57638,-22,2.5,-22,3.8 V,0,57638,57852,-22,3.8,-22,2.2 V,0,57852,58067,-22,2.2,-22,1.4 V,0,58067,58281,-22,1.4,-22,3.9 V,0,58281,58495,-22,3.9,-22,1.9 V,0,58495,58924,-22,1.9,-22,3.3 V,0,58924,59138,-22,3.3,-22,1.1 V,0,59138,59352,-22,1.1,-22,3.8 V,0,59352,59567,-22,3.8,-22,1.7 V,0,59567,59781,-22,1.7,-22,4 V,0,59781,59995,-22,4,-22,2.4 V,0,59995,60209,-22,2.4,-22,3.8 V,0,60209,60638,-22,3.8,-22,2.8 V,0,60638,60852,-22,2.8,-22,3.6 V,0,60852,61067,-22,3.6,-22,0.9 V,0,61067,61281,-22,0.9,-22,4 V,0,61281,61495,-22,4,-22,1.6 V,0,61495,61709,-22,1.6,-22,2.1 V,0,61709,61924,-22,2.1,-22,4 V,0,61924,62138,-22,4,-22,3 V,0,62138,62352,-22,3,-22,3.8 V,0,62352,62567,-22,3.8,-22,1.7 V,0,62567,62781,-22,1.7,-22,3.1 V,0,62781,62995,-22,3.1,-22,3.5 V,0,62995,63209,-22,3.5,-22,3.4 V,0,63209,63424,-22,3.4,-22,1.8 V,0,63424,63638,-22,1.8,-22,2.6 V,0,63638,63852,-22,2.6,-22,4.1 V,0,63852,64495,-22,4.1,-22,3.7 V,0,64495,64924,-22,3.7,-22,4.4 V,0,64924,65138,-22,4.4,-22,0.3 V,0,65138,65567,-22,0.3,-22,3.4 V,0,65567,65781,-22,3.4,-22,2.5 V,0,65781,65995,-22,2.5,-22,2.9 V,0,65995,66209,-22,2.9,-22,4.1 V,0,66209,66638,-22,4.1,-22,3.6 V,0,66638,66852,-22,3.6,-22,1.3 V,0,66852,67067,-22,1.3,-22,1.9 V,0,67067,67281,-22,1.9,-22,4.3 V,0,67281,67709,-22,4.3,-22,2.7 V,0,67709,68138,-22,2.7,-22,4.5 V,0,68138,68352,-22,4.5,-22,1.6 V,0,68352,68567,-22,1.6,-22,1.3 V,0,68567,68781,-22,1.3,-22,4.9 V,0,68781,68995,-22,4.9,-22,3.3 V,0,68995,69209,-22,3.3,-22,2.9 V,0,69209,69424,-22,2.9,-22,3.1 V,0,69424,69638,-22,3.1,-22,2 V,0,69638,69852,-22,2,-22,4.2 V,0,69852,70281,-22,4.2,-22,1.8 V,0,70495,70709,-22,1.8,-22,4.4 V,0,70709,70924,-22,4.4,-22,2.5 V,0,70924,71567,-22,2.5,-22,5 V,0,71567,71781,-22,5,-22,3.2 V,0,71781,71995,-22,3.2,-22,3.5 V,0,71995,72209,-22,3.5,-22,1.8 V,0,72209,72424,-22,1.8,-22,3.6 V,0,72424,72638,-22,3.6,-22,4.4 V,0,72638,72852,-22,4.4,-22,1.8 V,0,72852,73281,-22,1.8,-22,4.2 V,0,73281,73495,-22,4.2,-22,1.9 V,0,73495,73709,-22,1.9,-22,1.5 V,0,73709,73924,-22,1.5,-22,0.3 F,0,73710,74567,0.6,0 V,0,73924,74138,-22,0.3,-22,3.1 V,0,74138,74352,-22,3.1,-22,2.5
Sprite,Background,BottomCentre,"sb\bar.png",-142,485 F,0,32567,,0.6 C,0,32567,,242,132,86 V,0,32567,32781,-22,6.2,-22,5.1 V,0,32781,32995,-22,5.1,-22,7 V,0,32995,33424,-22,7,-22,6.1 V,0,33424,33638,-22,6.1,-22,6.7 V,0,33852,34067,-22,6.7,-22,5.8 V,0,34067,34281,-22,5.8,-22,6.7 V,0,34281,34495,-22,6.7,-22,4.7 V,0,34495,34709,-22,4.7,-22,5.3 V,0,34709,34924,-22,5.3,-22,5 V,0,34924,35138,-22,5,-22,6.3 V,0,35138,35352,-22,6.3,-22,5.2 V,0,35352,35567,-22,5.2,-22,6.8 V,0,35567,35781,-22,6.8,-22,4.4 V,0,35781,35995,-22,4.4,-22,3.1 V,0,35995,36424,-22,3.1,-22,4.7 V,0,36424,36638,-22,4.7,-22,6.3 V,0,36638,36852,-22,6.3,-22,4.8 V,0,36852,37067,-22,4.8,-22,4.1 V,0,37067,37495,-22,4.1,-22,5 V,0,37495,37709,-22,5,-22,2.6 V,0,37709,37924,-22,2.6,-22,2.4 V,0,37924,38138,-22,2.4,-22,2.9 V,0,38138,38352,-22,2.9,-22,2 V,0,38352,38781,-22,2,-22,4.6 V,0,38781,39209,-22,4.6,-22,2.4 V,0,39209,39424,-22,2.4,-22,2.2 V,0,39424,39638,-22,2.2,-22,3 V,0,39638,39852,-22,3,-22,4.5 V,0,39852,40281,-22,4.5,-22,3.1 V,0,40281,40495,-22,3.1,-22,4 V,0,40495,40709,-22,4,-22,2.3 V,0,40709,40924,-22,2.3,-22,4 V,0,40924,41138,-22,4,-22,3.5 V,0,41138,41352,-22,3.5,-22,1.9 V,0,41352,41567,-22,1.9,-22,2.5 V,0,41567,41781,-22,2.5,-22,2.4 V,0,41781,41995,-22,2.4,-22,1.4 V,0,41995,42424,-22,1.4,-22,4.2 V,0,42638,42852,-22,4.2,-22,0.5 V,0,42852,43067,-22,0.5,-22,4.1 V,0,43067,43709,-22,4.1,-22,2.2 V,0,43709,43924,-22,2.2,-22,3.3 V,0,43924,44138,-22,3.3,-22,1.5 V,0,44138,44567,-22,1.5,-22,2.5 V,0,44567,45209,-22,2.5,-22,1.1 V,0,45209,45424,-22,1.1,-22,2.5 V,0,45424,45638,-22,2.5,-22,2.7 V,0,45638,45852,-22,2.7,-22,1.6 V,0,45852,46067,-22,1.6,-22,3.4 V,0,46067,46281,-22,3.4,-22,6.5 V,0,46281,46495,-22,6.5,-22,5.8 V,0,46495,46709,-22,5.8,-22,6.9 V,0,46709,47138,-22,6.9,-22,6.1 V,0,47138,47567,-22,6.1,-22,7.1 V,0,47567,48424,-22,7.1,-22,5.1 V,0,48424,48638,-22,5.1,-22,6.2 V,0,48638,48852,-22,6.2,-22,4.4 V,0,48852,49281,-22,4.4,-22,6.3 V,0,49281,49495,-22,6.3,-22,6 V,0,49495,49709,-22,6,-22,3.5 V,0,49709,49924,-22,3.5,-22,5 V,0,49924,50138,-22,5,-22,5.1 V,0,50138,50352,-22,5.1,-22,5.8 V,0,50352,50567,-22,5.8,-22,1.8 V,0,50567,50781,-22,1.8,-22,4.9 V,0,50781,50995,-22,4.9,-22,5.3 V,0,50995,51209,-22,5.3,-22,4.5 V,0,51209,51424,-22,4.5,-22,4.6 V,0,51424,51638,-22,4.6,-22,3.3 V,0,51638,51852,-22,3.3,-22,3.9 V,0,51852,52281,-22,3.9,-22,2.6 V,0,52281,52495,-22,2.6,-22,4.3 V,0,52495,52924,-22,4.3,-22,3.2 V,0,52924,53138,-22,3.2,-22,2.1 V,0,53138,53352,-22,2.1,-22,3 V,0,53352,53567,-22,3,-22,4.6 V,0,53567,53781,-22,4.6,-22,1.5 V,0,53781,53995,-22,1.5,-22,4.1 V,0,53995,54209,-22,4.1,-22,3.4 V,0,54209,54424,-22,3.4,-22,3.3 V,0,54424,54638,-22,3.3,-22,4.8 V,0,54638,54852,-22,4.8,-22,4.5 V,0,54852,55067,-22,4.5,-22,1.6 V,0,55067,55281,-22,1.6,-22,1.3 V,0,55281,55495,-22,1.3,-22,3.7 V,0,55495,55709,-22,3.7,-22,1.6 V,0,55709,55924,-22,1.6,-22,2.7 V,0,55924,56138,-22,2.7,-22,2.1 V,0,56138,56352,-22,2.1,-22,6.7 V,0,56352,56781,-22,6.7,-22,1.5 V,0,56781,56995,-22,1.5,-22,3.9 V,0,56995,57209,-22,3.9,-22,2.2 V,0,57209,57424,-22,2.2,-22,3.8 V,0,57424,57638,-22,3.8,-22,3.4 V,0,57638,57852,-22,3.4,-22,4 V,0,57852,58067,-22,4,-22,3.8 V,0,58067,58281,-22,3.8,-22,3.4 V,0,58281,58495,-22,3.4,-22,1.7 V,0,58495,58709,-22,1.7,-22,2.9 V,0,58709,58924,-22,2.9,-22,3.4 V,0,58924,59138,-22,3.4,-22,2.3 V,0,59138,59352,-22,2.3,-22,2.4 V,0,59352,59567,-22,2.4,-22,3.5 V,0,59567,59781,-22,3.5,-22,2.5 V,0,59781,59995,-22,2.5,-22,3.8 V,0,59995,60209,-22,3.8,-22,2.1 V,0,60209,60424,-22,2.1,-22,3.3 V,0,60424,60638,-22,3.3,-22,2.6 V,0,60638,61281,-22,2.6,-22,4 V,0,61281,61495,-22,4,-22,1.1 V,0,61495,61924,-22,1.1,-22,2 V,0,61924,62352,-22,2,-22,0.8 V,0,62352,62567,-22,0.8,-22,1.9 V,0,62567,62781,-22,1.9,-22,4 V,0,62781,62995,-22,4,-22,2.5 V,0,62995,63209,-22,2.5,-22,1.5 V,0,63209,63424,-22,1.5,-22,1.4 V,0,63424,63638,-22,1.4,-22,2.7 V,0,63638,63852,-22,2.7,-22,3.2 V,0,63852,64067,-22,3.2,-22,2.9 V,0,64067,64281,-22,2.9,-22,1.8 V,0,64281,65138,-22,1.8,-22,2 V,0,65138,65352,-22,2,-22,2.1 V,0,65352,65567,-22,2.1,-22,3.5 V,0,65567,65781,-22,3.5,-22,3.9 V,0,65781,66209,-22,3.9,-22,2.1 V,0,66209,66424,-22,2.1,-22,3 V,0,66424,66638,-22,3,-22,1.6 V,0,66638,67067,-22,1.6,-22,2.3 V,0,67067,67281,-22,2.3,-22,2.1 V,0,67281,67495,-22,2.1,-22,1.2 V,0,67495,67709,-22,1.2,-22,1.6 V,0,67709,67924,-22,1.6,-22,0.6 V,0,67924,68138,-22,0.6,-22,1.8 V,0,68138,68567,-22,1.8,-22,0.4 V,0,68567,68781,-22,0.4,-22,3 V,0,68781,68995,-22,3,-22,0.4 V,0,68995,69209,-22,0.4,-22,1 V,0,69209,69424,-22,1,-22,3.1 V,0,69424,70067,-22,3.1,-22,2.3 V,0,70067,70281,-22,2.3,-22,3.7 V,0,70281,70495,-22,3.7,-22,3.9 V,0,70495,70709,-22,3.9,-22,3 V,0,70709,70924,-22,3,-22,3.5 V,0,70924,71138,-22,3.5,-22,1.2 V,0,71138,71567,-22,1.2,-22,3.1 V,0,71567,71781,-22,3.1,-22,2.4 V,0,71781,71995,-22,2.4,-22,3.1 V,0,71995,72209,-22,3.1,-22,1.3 V,0,72209,72424,-22,1.3,-22,0.7 V,0,72424,72638,-22,0.7,-22,2.7 V,0,72638,72852,-22,2.7,-22,3.4 V,0,72852,73067,-22,3.4,-22,2.7 V,0,73067,73281,-22,2.7,-22,4.3 V,0,73281,73495,-22,4.3,-22,2.3 V,0,73495,73709,-22,2.3,-22,1.4 V,0,73709,73924,-22,1.4,-22,2 F,0,73710,74567,0.6,0 V,0,73924,74138,-22,2,-22,1.4 V,0,74138,74352,-22,1.4,-22,1.6
Sprite,Background,BottomCentre,"sb\bar.png",-194.75,485 F,0,32567,,0.6 C,0,32567,,242,132,86 V,0,32567,32781,-22,2.3,-22,0.8 V,0,32781,32995,-22,0.8,-22,2.5 V,0,32995,33209,-22,2.5,-22,1.2 V,0,33209,33424,-22,1.2,-22,2.1 V,0,33424,33638,-22,2.1,-22,1.4 V,0,33638,33852,-22,1.4,-22,1.7 V,0,33852,34067,-22,1.7,-22,1.4 V,0,34067,34281,-22,1.4,-22,2.1 V,0,34281,34495,-22,2.1,-22,0.9 V,0,34495,34709,-22,0.9,-22,1.1 V,0,34709,34924,-22,1.1,-22,2 V,0,34924,35138,-22,2,-22,1 V,0,35138,35567,-22,1,-22,2.8 V,0,35567,35781,-22,2.8,-22,2.3 V,0,35781,35995,-22,2.3,-22,0.5 V,0,35995,36209,-22,0.5,-22,2 V,0,36209,36424,-22,2,-22,1.9 V,0,36424,36638,-22,1.9,-22,0.5 V,0,36638,37067,-22,0.5,-22,2.1 V,0,37067,37495,-22,2.1,-22,2.5 V,0,37495,37709,-22,2.5,-22,0.4 V,0,37709,37924,-22,0.4,-22,1.4 V,0,38352,38567,-22,1.4,-22,0.6 V,0,38567,38781,-22,0.6,-22,2 V,0,38781,38995,-22,2,-22,4.8 V,0,38995,39209,-22,4.8,-22,3.3 V,0,39209,39424,-22,3.3,-22,3 V,0,39424,39852,-22,3,-22,4.6 V,0,39852,40067,-22,4.6,-22,3.6 V,0,40067,41138,-22,3.6,-22,3.7 V,0,41138,41352,-22,3.7,-22,1.6 V,0,41352,41567,-22,1.6,-22,1.5 V,0,41567,41781,-22,1.5,-22,4.4 V,0,41781,42209,-22,4.4,-22,0.9 V,0,42209,42424,-22,0.9,-22,2.8 V,0,42424,43067,-22,2.8,-22,3.6 V,0,43067,43281,-22,3.6,-22,2.9 V,0,43281,43495,-22,2.9,-22,4.1 V,0,43495,43924,-22,4.1,-22,2.8 V,0,43924,44138,-22,2.8,-22,4.7 V,0,44138,44352,-22,4.7,-22,3.4 V,0,44352,44567,-22,3.4,-22,3.2 V,0,44567,44781,-22,3.2,-22,2.1 V,0,44781,44995,-22,2.1,-22,0.1 V,0,44995,45209,-22,0.1,-22,2.9 V,0,45209,45424,-22,2.9,-22,3.1 V,0,45424,45852,-22,3.1,-22,2 V,0,45852,46067,-22,2,-22,2.9 V,0,46067,46281,-22,2.9,-22,2.5 V,0,46281,46495,-22,2.5,-22,1.6 V,0,46495,47138,-22,1.6,-22,1.4 V,0,47138,47352,-22,1.4,-22,0.7 V,0,47352,47567,-22,0.7,-22,2.7 V,0,47567,47995,-22,2.7,-22,2.2 V,0,47995,48424,-22,2.2,-22,1 V,0,48424,48638,-22,1,-22,2.7 V,0,48638,48852,-22,2.7,-22,1.9 V,0,48852,49067,-22,1.9,-22,3.2 V,0,49067,49281,-22,3.2,-22,2.8 V,0,49281,49709,-22,2.8,-22,1.1 V,0,49709,50352,-22,1.1,-22,2.4 V,0,50352,50781,-22,2.4,-22,0.8 V,0,50781,51209,-22,0.8,-22,2.1 V,0,51209,51424,-22,2.1,-22,0.8 V,0,51424,51638,-22,0.8,-22,1.3 V,0,51638,51852,-22,1.3,-22,0.7 V,0,51852,52067,-22,0.7,-22,1.3 V,0,52067,52709,-22,1.3,-22,1.4 V,0,52709,52924,-22,1.4,-22,2 V,0,52924,53138,-22,2,-22,3.5 V,0,53567,53781,-22,3.5,-22,4.4 V,0,53781,53995,-22,4.4,-22,2.7 V,0,53995,54209,-22,2.7,-22,2.6 V,0,54209,54852,-22,2.6,-22,3 V,0,54852,55281,-22,3,-22,2.4 V,0,55281,55495,-22,2.4,-22,3.8 V,0,55495,55709,-22,3.8,-22,1.4 V,0,55709,55924,-22,1.4,-22,3.1 V,0,56352,56781,-22,3.1,-22,4.5 V,0,56781,56995,-22,4.5,-22,3.3 V,0,56995,57209,-22,3.3,-22,4 V,0,57209,57424,-22,4,-22,2.1 V,0,57424,57638,-22,2.1,-22,4 V,0,57638,57852,-22,4,-22,3.8 V,0,57852,58067,-22,3.8,-22,0.3 V,0,58067,58281,-22,0.3,-22,4 V,0,58281,58495,-22,4,-22,0.9 V,0,58495,58709,-22,0.9,-22,2.5 V,0,58709,58924,-22,2.5,-22,2.6 V,0,58924,59138,-22,2.6,-22,3.5 V,0,59138,59352,-22,3.5,-22,2.9 V,0,59352,59567,-22,2.9,-22,3 V,0,59567,59781,-22,3,-22,4.9 V,0,59781,59995,-22,4.9,-22,2.2 V,0,59995,60209,-22,2.2,-22,2.7 V,0,60209,60424,-22,2.7,-22,1.2 V,0,60424,60638,-22,1.2,-22,3 V,0,60638,60852,-22,3,-22,0.6 V,0,60852,61067,-22,0.6,-22,1.6 V,0,61067,61281,-22,1.6,-22,1.2 V,0,61281,61709,-22,1.2,-22,1.9 V,0,61709,61924,-22,1.9,-22,2.7 V,0,61924,62138,-22,2.7,-22,1.9 V,0,62138,62567,-22,1.9,-22,1.5 V,0,62567,62781,-22,1.5,-22,1.6 V,0,62781,62995,-22,1.6,-22,2.5 V,0,62995,63424,-22,2.5,-22,0.4 V,0,63424,63638,-22,0.4,-22,0.5 V,0,63638,64067,-22,0.5,-22,2.9 V,0,64067,64495,-22,2.9,-22,1.2 V,0,64495,64709,-22,1.2,-22,2.5 V,0,64709,64924,-22,2.5,-22,2.1 V,0,64924,65138,-22,2.1,-22,3.3 V,0,65138,65352,-22,3.3,-22,1 V,0,65352,65781,-22,1,-22,3.1 V,0,65781,65995,-22,3.1,-22,2.4 V,0,65995,66209,-22,2.4,-22,1.1 V,0,66424,66638,-22,1.1,-22,3.3 V,0,66638,66852,-22,3.3,-22,1.5 V,0,66852,67067,-22,1.5,-22,1.2 V,0,67067,67281,-22,1.2,-22,2.2 V,0,67281,67495,-22,2.2,-22,1 V,0,67709,67924,-22,1,-22,2.3 V,0,67924,68567,-22,2.3,-22,0.6 V,0,68567,68995,-22,0.6,-22,0.5 V,0,68995,69209,-22,0.5,-22,1.4 V,0,69209,69638,-22,1.4,-22,1.2 V,0,69638,69852,-22,1.2,-22,2.1 V,0,69852,70067,-22,2.1,-22,0.6 V,0,70067,70281,-22,0.6,-22,3.2 V,0,70281,70495,-22,3.2,-22,4.1 V,0,70495,70709,-22,4.1,-22,1 V,0,70709,70924,-22,1,-22,3.1 V,0,70924,71567,-22,3.1,-22,4.1 V,0,71567,72209,-22,4.1,-22,2.1 V,0,72209,72424,-22,2.1,-22,3.3 V,0,72424,73067,-22,3.3,-22,1.2 V,0,73067,73495,-22,1.2,-22,2.7 V,0,73495,73709,-22,2.7,-22,1.8 V,0,73709,74138,-22,1.8,-22,3.8 F,0,73710,74567,0.6,0 V,0,74138,74352,-22,3.8,-22,3.6
Sprite,Background,BottomCentre,"sb\bar.png",-247.5,485 F,0,32567,,0.6 C,0,32567,,242,132,86 V,0,32567,32995,-22,0.2,-22,2.4 V,0,32995,33209,-22,2.4,-22,1.8 V,0,33209,33424,-22,1.8,-22,1.9 V,0,33424,33638,-22,1.9,-22,2.9 V,0,33638,34067,-22,2.9,-22,2.8 V,0,34067,34281,-22,2.8,-22,1.6 V,0,34281,34709,-22,1.6,-22,0.4 V,0,34709,34924,-22,0.4,-22,3.2 V,0,34924,35138,-22,3.2,-22,1.8 V,0,35138,35352,-22,1.8,-22,2 V,0,35352,35567,-22,2,-22,4.5 V,0,35567,35781,-22,4.5,-22,4 V,0,35781,35995,-22,4,-22,2.4 V,0,35995,36209,-22,2.4,-22,3.1 V,0,36209,36424,-22,3.1,-22,1.3 V,0,36424,36638,-22,1.3,-22,2.1 V,0,36638,36852,-22,2.1,-22,1.6 V,0,36852,37067,-22,1.6,-22,2.4 V,0,37067,37709,-22,2.4,-22,2.7 V,0,37709,37924,-22,2.7,-22,1.1 V,0,37924,38138,-22,1.1,-22,2.3 V,0,38138,38567,-22,2.3,-22,2.8 V,0,38567,38781,-22,2.8,-22,2.5 V,0,38781,38995,-22,2.5,-22,3.8 V,0,38995,39209,-22,3.8,-22,1.3 V,0,39209,39424,-22,1.3,-22,2.9 V,0,39424,39638,-22,2.9,-22,2.3 V,0,39638,39852,-22,2.3,-22,3.9 V,0,39852,40067,-22,3.9,-22,4.3 V,0,40067,40281,-22,4.3,-22,3.2 V,0,40281,40495,-22,3.2,-22,4.1 V,0,40495,40709,-22,4.1,-22,3.6 V,0,40709,41138,-22,3.6,-22,4.4 V,0,41138,41352,-22,4.4,-22,1.3 V,0,41352,41567,-22,1.3,-22,3.6 V,0,41567,41781,-22,3.6,-22,2.5 V,0,41781,42209,-22,2.5,-22,2.2 V,0,42209,42424,-22,2.2,-22,2.6 V,0,42424,42638,-22,2.6,-22,4.3 V,0,42638,42852,-22,4.3,-22,3.1 V,0,42852,43281,-22,3.1,-22,3.5 V,0,43281,43495,-22,3.5,-22,4.2 V,0,43495,43709,-22,4.2,-22,3.2 V,0,43709,44138,-22,3.2,-22,4.1 V,0,44138,44352,-22,4.1,-22,2 V,0,44352,44567,-22,2,-22,3.6 V,0,44567,44781,-22,3.6,-22,2.6 V,0,44781,44995,-22,2.6,-22,0.6 V,0,44995,45209,-22,0.6,-22,3.5 V,0,45209,45424,-22,3.5,-22,1.6 V,0,45424,45638,-22,1.6,-22,2.4 V,0,45638,45852,-22,2.4,-22,2.7 V,0,45852,46281,-22,2.7,-22,0.5 V,0,46281,46495,-22,0.5,-22,2.5 V,0,46495,46924,-22,2.5,-22,2.9 V,0,46924,47138,-22,2.9,-22,2 V,0,47138,47781,-22,2,-22,3.2 V,0,47781,47995,-22,3.2,-22,2.8 V,0,47995,48209,-22,2.8,-22,0.9 V,0,48209,48424,-22,0.9,-22,0.6 V,0,48424,48638,-22,0.6,-22,2.6 V,0,48638,48852,-22,2.6,-22,0.4 V,0,48852,49067,-22,0.4,-22,2.5 V,0,49067,49281,-22,2.5,-22,3.9 V,0,49281,49495,-22,3.9,-22,4.1 V,0,49495,49709,-22,4.1,-22,2.2 V,0,49709,50567,-22,2.2,-22,2.8 V,0,50567,50781,-22,2.8,-22,0.8 V,0,50781,51209,-22,0.8,-22,3.1 V,0,51209,51424,-22,3.1,-22,0.8 V,0,51424,51638,-22,0.8,-22,1.5 V,0,51638,51852,-22,1.5,-22,1.3 V,0,51852,52281,-22,1.3,-22,2.2 V,0,52281,52495,-22,2.2,-22,1.3 V,0,52495,52709,-22,1.3,-22,1.7 V,0,52709,52924,-22,1.7,-22,4.3 V,0,52924,53138,-22,4.3,-22,3.1 V,0,53138,53352,-22,3.1,-22,2.6 V,0,53352,53567,-22,2.6,-22,3.8 V,0,53567,53781,-22,3.8,-22,4 V,0,53781,53995,-22,4,-22,2.8 V,0,53995,54209,-22,2.8,-22,4.3 V,0,54209,54424,-22,4.3,-22,3.4 V,0,54424,54638,-22,3.4,-22,4.5 V,0,54638,54852,-22,4.5,-22,1.6 V,0,54852,55067,-22,1.6,-22,0.9 V,0,55067,55281,-22,0.9,-22,2.7 V,0,55281,55495,-22,2.7,-22,2.9 V,0,55495,55709,-22,2.9,-22,2 V,0,55709,55924,-22,2,-22,2.1 V,0,55924,56138,-22,2.1,-22,3.1 V,0,56138,56352,-22,3.1,-22,1.5 V,0,56352,56781,-22,1.5,-22,3.3 V,0,56781,56995,-22,3.3,-22,3.6 V,0,56995,57209,-22,3.6,-22,3.3 V,0,57209,57424,-22,3.3,-22,2 V,0,57424,57638,-22,2,-22,4.2 V,0,57638,58067,-22,4.2,-22,2.7 V,0,58067,58281,-22,2.7,-22,2.5 V,0,58281,58495,-22,2.5,-22,1.3 V,0,58495,58924,-22,1.3,-22,2.5 V,0,58924,59352,-22,2.5,-22,1.6 V,0,59352,59567,-22,1.6,-22,3.1 V,0,59567,59781,-22,3.1,-22,3.5 V,0,59781,59995,-22,3.5,-22,0.5 V,0,59995,60424,-22,0.5,-22,3 V,0,60424,60638,-22,3,-22,2 V,0,60638,60852,-22,2,-22,2.8 V,0,60852,61495,-22,2.8,-22,1.3 V,0,61495,61924,-22,1.3,-22,2.5 V,0,61924,62138,-22,2.5,-22,0.3 V,0,62138,62352,-22,0.3,-22,2.4 V,0,62352,62567,-22,2.4,-22,2 V,0,62567,62781,-22,2,-22,2.9 V,0,62781,63209,-22,2.9,-22,3.5 V,0,63209,63638,-22,3.5,-22,2.1 V,0,63852,64067,-22,2.1,-22,3.1 V,0,64067,64281,-22,3.1,-22,3.3 V,0,64281,64495,-22,3.3,-22,3.2 V,0,64495,64709,-22,3.2,-22,2.2 V,0,64709,64924,-22,2.2,-22,3.5 V,0,64924,65138,-22,3.5,-22,2.7 V,0,65138,65352,-22,2.7,-22,0.8 V,0,65352,65567,-22,0.8,-22,2.2 V,0,65567,65995,-22,2.2,-22,1.3 V,0,65995,66209,-22,1.3,-22,2.3 V,0,66209,66424,-22,2.3,-22,1.1 V,0,66424,66638,-22,1.1,-22,3.2 V,0,66638,67067,-22,3.2,-22,1.2 V,0,67067,67495,-22,1.2,-22,2.7 V,0,67495,67709,-22,2.7,-22,1.4 V,0,67709,67924,-22,1.4,-22,2.2 V,0,67924,68138,-22,2.2,-22,2.3 V,0,68138,68352,-22,2.3,-22,1.3 V,0,68352,68781,-22,1.3,-22,2.2 V,0,68781,68995,-22,2.2,-22,1.2 V,0,68995,69209,-22,1.2,-22,1.1 V,0,69209,69638,-22,1.1,-22,2.8 V,0,69638,70067,-22,2.8,-22,1.6 V,0,70067,70281,-22,1.6,-22,2 V,0,70281,70495,-22,2,-22,1.1 V,0,70495,70924,-22,1.1,-22,3.4 V,0,70924,71138,-22,3.4,-22,1.7 V,0,71138,71352,-22,1.7,-22,2.8 V,0,71352,71567,-22,2.8,-22,2.5 V,0,71567,71781,-22,2.5,-22,3 V,0,71781,71995,-22,3,-22,1.7 V,0,71995,72424,-22,1.7,-22,2.3 V,0,72424,72638,-22,2.3,-22,3.2 V,0,72638,72852,-22,3.2,-22,1.6 V,0,72852,73067,-22,1.6,-22,3.1 V,0,73067,73281,-22,3.1,-22,2.4 V,0,73281,73709,-22,2.4,-22,2.2 V,0,73709,74138,-22,2.2,-22,4.3 F,0,73710,74567,0.6,0 V,0,74138,74352,-22,4.3,-22,3.7
Sprite,Background,BottomCentre,"sb\bar.png",-300.25,485 F,0,32567,,0.6 C,0,32567,,242,132,86 V,0,32567,32781,-22,0.3,-22,0.1 V,0,32781,32995,-22,0.1,-22,0.7 V,0,32995,33209,-22,0.7,-22,0.5 V,0,33209,33424,-22,0.5,-22,2.4 V,0,33424,33638,-22,2.4,-22,1.4 V,0,33852,34067,-22,1.4,-22,0.4 V,0,34067,34495,-22,0.4,-22,0.2 V,0,34495,34709,-22,0.2,-22,0.7 V,0,34709,34924,-22,0.7,-22,0.1 V,0,34924,35138,-22,0.1,-22,2.8 V,0,35138,35352,-22,2.8,-22,0.3 V,0,35352,35567,-22,0.3,-22,0.2 V,0,35567,35781,-22,0.2,-22,1.2 V,0,35781,35995,-22,1.2,-22,0.3 V,0,35995,36209,-22,0.3,-22,1.5 V,0,36209,36424,-22,1.5,-22,2.1 V,0,36424,36638,-22,2.1,-22,1.9 V,0,36638,36852,-22,1.9,-22,2.8 V,0,37067,37281,-22,2.8,-22,1.1 V,0,37281,37495,-22,1.1,-22,0.7 V,0,37495,37709,-22,0.7,-22,1.5 V,0,37709,37924,-22,1.5,-22,0.8 V,0,37924,38352,-22,0.8,-22,1.6 V,0,38352,38567,-22,1.6,-22,2.7 V,0,38567,38995,-22,2.7,-22,1 V,0,38995,39209,-22,1,-22,1.2 V,0,39209,39424,-22,1.2,-22,0.5 V,0,39424,40067,-22,0.5,-22,2 V,0,40067,40281,-22,2,-22,3.2 V,0,40281,40495,-22,3.2,-22,0.8 V,0,40495,40709,-22,0.8,-22,1.1 V,0,40709,40924,-22,1.1,-22,0.8 V,0,40924,41138,-22,0.8,-22,1.3 V,0,41138,41352,-22,1.3,-22,0.5 V,0,41352,41781,-22,0.5,-22,1.6 V,0,41781,41995,-22,1.6,-22,2.6 V,0,41995,42209,-22,2.6,-22,1.4 V,0,42209,42424,-22,1.4,-22,1.3 V,0,42424,42638,-22,1.3,-22,0.3 V,0,42638,43495,-22,0.3,-22,1 V,0,43495,43709,-22,1,-22,3.2 V,0,43709,43924,-22,3.2,-22,3.3 V,0,43924,44138,-22,3.3,-22,1.1 V,0,44138,44352,-22,1.1,-22,0.8 V,0,44352,45209,-22,0.8,-22,0.7 V,0,45209,45424,-22,0.7,-22,2.9 V,0,45424,45638,-22,2.9,-22,0.8 V,0,45638,45852,-22,0.8,-22,0.5 V,0,45852,46067,-22,0.5,-22,1.1 V,0,46067,46281,-22,1.1,-22,0.3 V,0,46924,47138,-22,0.3,-22,3.1 V,0,47138,47352,-22,3.1,-22,0.6 V,0,47352,47781,-22,0.6,-22,0.1 V,0,47781,47995,-22,0.1,-22,1.2 V,0,47995,48209,-22,1.2,-22,1.1 V,0,48209,48424,-22,1.1,-22,0.2 V,0,48424,48638,-22,0.2,-22,1.3 V,0,48638,48852,-22,1.3,-22,3 V,0,48852,49067,-22,3,-22,0.7 V,0,49067,49281,-22,0.7,-22,0.3 V,0,49281,49709,-22,0.3,-22,0.2 V,0,49709,50138,-22,0.2,-22,1.5 V,0,50352,50567,-22,1.5,-22,3 V,0,50567,50995,-22,3,-22,0.8 V,0,50995,51852,-22,0.8,-22,1.2 V,0,51852,52281,-22,1.2,-22,2.9 V,0,52281,52495,-22,2.9,-22,1.6 V,0,52495,52924,-22,1.6,-22,1.3 V,0,52924,53138,-22,1.3,-22,0.4 V,0,53138,53781,-22,0.4,-22,2 V,0,53781,53995,-22,2,-22,3.2 V,0,53995,54209,-22,3.2,-22,1.1 V,0,54209,54424,-22,1.1,-22,1.6 V,0,54424,54638,-22,1.6,-22,0.7 V,0,54638,54852,-22,0.7,-22,1.3 V,0,54852,55067,-22,1.3,-22,0.6 V,0,55067,55281,-22,0.6,-22,1.7 V,0,55281,55495,-22,1.7,-22,1.5 V,0,55495,55709,-22,1.5,-22,3.1 V,0,55709,55924,-22,3.1,-22,1.6 V,0,55924,56567,-22,1.6,-22,0.5 V,0,56567,57209,-22,0.5,-22,0.6 V,0,57209,57424,-22,0.6,-22,3 V,0,57424,57638,-22,3,-22,2.9 V,0,57638,57852,-22,2.9,-22,0.9 V,0,57852,58924,-22,0.9,-22,0.3 V,0,58924,59138,-22,0.3,-22,3.2 V,0,59138,59352,-22,3.2,-22,0.8 V,0,60209,60638,-22,0.8,-22,1.5 V,0,60638,60852,-22,1.5,-22,2.7 V,0,60852,61495,-22,2.7,-22,0.4 V,0,61495,61924,-22,0.4,-22,1.8 V,0,61924,62138,-22,1.8,-22,0.7 V,0,62138,62352,-22,0.7,-22,1.3 V,0,62352,62567,-22,1.3,-22,2.8 V,0,62567,62781,-22,2.8,-22,1 V,0,62781,62995,-22,1,-22,0.7 V,0,62995,63209,-22,0.7,-22,1.4 V,0,63209,63638,-22,1.4,-22,0.7 V,0,63638,63852,-22,0.7,-22,1.3 V,0,63852,64067,-22,1.3,-22,0.8 V,0,64067,64281,-22,0.8,-22,3.2 V,0,64281,64495,-22,3.2,-22,1.5 V,0,64495,64709,-22,1.5,-22,0.8 V,0,64709,65138,-22,0.8,-22,1 V,0,65138,65352,-22,1,-22,0.3 V,0,65352,65567,-22,0.3,-22,1.2 V,0,65567,65781,-22,1.2,-22,0.9 V,0,65781,65995,-22,0.9,-22,2.9 V,0,65995,66209,-22,2.9,-22,1.4 V,0,66209,66424,-22,1.4,-22,1.6 V,0,66424,66638,-22,1.6,-22,0.8 V,0,66638,66852,-22,0.8,-22,0.7 V,0,66852,67281,-22,0.7,-22,1.2 V,0,67281,67495,-22,1.2,-22,0.5 V,0,67495,67709,-22,0.5,-22,2.9 V,0,67709,67924,-22,2.9,-22,1.4 V,0,67924,68138,-22,1.4,-22,1.2 V,0,68138,68352,-22,1.2,-22,0.3 V,0,68352,68567,-22,0.3,-22,1 V,0,68567,68995,-22,1,-22,0.3 V,0,68995,69209,-22,0.3,-22,0.5 V,0,69209,69424,-22,0.5,-22,2.7 V,0,69424,69638,-22,2.7,-22,1 V,0,69638,69852,-22,1,-22,0.5 V,0,69852,70067,-22,0.5,-22,0.9 V,0,70067,70281,-22,0.9,-22,0.3 V,0,70281,70495,-22,0.3,-22,1.3 V,0,70495,70709,-22,1.3,-22,0.2 V,0,70709,70924,-22,0.2,-22,0.3 V,0,70924,71138,-22,0.3,-22,3.2 V,0,71138,71352,-22,3.2,-22,0.5 V,0,71352,71567,-22,0.5,-22,1.3 V,0,71567,71781,-22,1.3,-22,1.4 V,0,71781,72209,-22,1.4,-22,0.5 V,0,72209,72424,-22,0.5,-22,1.6 V,0,72424,72638,-22,1.6,-22,0.7 V,0,72638,72852,-22,0.7,-22,2.8 V,0,72852,73067,-22,2.8,-22,0.3 V,0,73067,73281,-22,0.3,-22,1 V,0,73281,73924,-22,1,-22,0.4 F,0,73710,74567,0.6,0 V,0,73924,74138,-22,0.4,-22,1.3 V,0,74138,74352,-22,1.3,-22,0.7
Sprite,Background,BottomCentre,"sb\bar.png",-353,485 F,0,32567,,0.6 C,0,32567,,242,132,86 V,0,32567,33209,-22,0.6,-22,0.2 V,0,33209,33424,-22,0.2,-22,2.1 V,0,33424,33638,-22,2.1,-22,0.7 V,0,33638,33852,-22,0.7,-22,0.4 V,0,33852,34709,-22,0.4,-22,0.6 V,0,34709,35138,-22,0.6,-22,1.7 V,0,35138,35567,-22,1.7,-22,0.1 V,0,35567,36209,-22,0.1,-22,0.9 V,0,36209,36638,-22,0.9,-22,0.8 V,0,36638,36852,-22,0.8,-22,1.4 V,0,36852,37067,-22,1.4,-22,0.3 V,0,37067,37281,-22,0.3,-22,1 V,0,37281,37495,-22,1,-22,0.7 V,0,37495,37709,-22,0.7,-22,1.7 V,0,37709,38138,-22,1.7,-22,0.8 V,0,38352,38567,-22,0.8,-22,1.9 V,0,38567,38781,-22,1.9,-22,1.1 V,0,38781,39424,-22,1.1,-22,0.3 V,0,39424,39852,-22,0.3,-22,0.8 V,0,39852,40067,-22,0.8,-22,0.3 V,0,40067,40281,-22,0.3,-22,1.3 V,0,40281,40709,-22,1.3,-22,0.2 V,0,40709,40924,-22,0.2,-22,0.8 V,0,40924,41567,-22,0.8,-22,0.4 V,0,41567,41781,-22,0.4,-22,1.4 V,0,41781,41995,-22,1.4,-22,1.9 V,0,41995,42424,-22,1.9,-22,0.5 V,0,42424,43067,-22,0.5,-22,0.3 V,0,43495,43709,-22,0.3,-22,1.7 V,0,43709,44138,-22,1.7,-22,0.4 V,0,44138,44567,-22,0.4,-22,0.5 V,0,44567,44781,-22,0.5,-22,1.2 V,0,44781,44995,-22,1.2,-22,0.8 V,0,44995,45209,-22,0.8,-22,1.6 V,0,45209,46067,-22,1.6,-22,0.3 V,0,46067,46281,-22,0.3,-22,0.7 V,0,46281,46709,-22,0.7,-22,0.3 V,0,46709,46924,-22,0.3,-22,0.5 V,0,46924,47138,-22,0.5,-22,1.4 V,0,47138,47352,-22,1.4,-22,0.4 V,0,47352,48209,-22,0.4,-22,0.5 V,0,48209,48852,-22,0.5,-22,1.4 V,0,48852,49067,-22,1.4,-22,0.5 V,0,49067,49281,-22,0.5,-22,0.3 V,0,49281,49924,-22,0.3,-22,0.9 V,0,49924,50352,-22,0.9,-22,0.5 V,0,50352,50567,-22,0.5,-22,2 V,0,50567,50995,-22,2,-22,0.3 V,0,50995,51424,-22,0.3,-22,0.2 V,0,51424,51638,-22,0.2,-22,1.1 V,0,52067,52281,-22,1.1,-22,1.9 V,0,52281,52709,-22,1.9,-22,0.4 V,0,52709,52924,-22,0.4,-22,1.2 V,0,52924,53138,-22,1.2,-22,0.5 V,0,53138,53781,-22,0.5,-22,0.8 V,0,53781,53995,-22,0.8,-22,1.5 V,0,53995,54209,-22,1.5,-22,0.4 V,0,54209,54638,-22,0.4,-22,0.1 V,0,54638,55067,-22,0.1,-22,0.7 V,0,55067,55281,-22,0.7,-22,0.4 V,0,55281,55495,-22,0.4,-22,1.4 V,0,55495,55709,-22,1.4,-22,1.6 V,0,55709,55924,-22,1.6,-22,0.3 V,0,55924,56138,-22,0.3,-22,0.8 V,0,56567,56995,-22,0.8,-22,0.3 V,0,56995,57209,-22,0.3,-22,0.6 V,0,57209,57424,-22,0.6,-22,1.8 V,0,57424,57638,-22,1.8,-22,0.3 V,0,57638,58281,-22,0.3,-22,0.7 V,0,58281,58495,-22,0.7,-22,1.4 V,0,58495,58709,-22,1.4,-22,0.8 V,0,58709,58924,-22,0.8,-22,0.9 V,0,58924,59138,-22,0.9,-22,2.3 V,0,59138,59352,-22,2.3,-22,0.5 V,0,59352,59781,-22,0.5,-22,0.7 V,0,59781,60209,-22,0.7,-22,0.2 V,0,60424,60852,-22,0.2,-22,1.5 V,0,60852,61067,-22,1.5,-22,1.3 V,0,61067,61281,-22,1.3,-22,0.3 V,0,61281,61495,-22,0.3,-22,0.9 V,0,61495,61709,-22,0.9,-22,0.5 V,0,61709,61924,-22,0.5,-22,0.9 V,0,61924,62352,-22,0.9,-22,1 V,0,62352,62567,-22,1,-22,1.6 V,0,62567,62781,-22,1.6,-22,0.3 V,0,62781,63209,-22,0.3,-22,1.4 V,0,63209,63638,-22,1.4,-22,0.5 V,0,63638,64281,-22,0.5,-22,1.9 V,0,64281,64495,-22,1.9,-22,0.5 V,0,64495,64924,-22,0.5,-22,0.4 V,0,64924,65352,-22,0.4,-22,1.1 V,0,65352,65567,-22,1.1,-22,0.2 V,0,65567,65995,-22,0.2,-22,1.4 V,0,65995,66209,-22,1.4,-22,0.4 V,0,66209,66424,-22,0.4,-22,0.6 V,0,66424,66638,-22,0.6,-22,0.1 V,0,66638,67067,-22,0.1,-22,0.4 V,0,67067,67281,-22,0.4,-22,1 V,0,67281,67709,-22,1,-22,0.7 V,0,67709,67924,-22,0.7,-22,1.1 V,0,67924,68567,-22,1.1,-22,0.3 V,0,68567,68781,-22,0.3,-22,1 V,0,68781,69209,-22,1,-22,0.8 V,0,69209,69424,-22,0.8,-22,1.9 V,0,69424,69852,-22,1.9,-22,0.4 V,0,69852,70067,-22,0.4,-22,1.4 V,0,70067,70281,-22,1.4,-22,0.2 V,0,70281,70495,-22,0.2,-22,0.9 V,0,70495,70709,-22,0.9,-22,0.4 V,0,70709,70924,-22,0.4,-22,0.7 V,0,70924,71138,-22,0.7,-22,1.8 V,0,71138,71352,-22,1.8,-22,0.7 V,0,71352,72424,-22,0.7,-22,0.1 V,0,72424,72638,-22,0.1,-22,0.3 V,0,72638,72852,-22,0.3,-22,2 V,0,72852,73067,-22,2,-22,0.6 V,0,73067,73281,-22,0.6,-22,0.3 V,0,73281,74352,-22,0.3,-22,0.2 F,0,73710,74567,0.6,0
Sprite,Background,BottomCentre,"sb\bar.png",-405.75,485 F,0,32567,,0.6 C,0,32567,,242,132,86 V,0,32567,32781,-22,0.1,-22,1.3 V,0,32781,32995,-22,1.3,-22,0.3 V,0,32995,33209,-22,0.3,-22,0.6 V,0,33209,33424,-22,0.6,-22,1.5 V,0,33424,34067,-22,1.5,-22,0.1 V,0,34067,34709,-22,0.1,-22,0.2 V,0,34709,34924,-22,0.2,-22,2.9 V,0,34924,35352,-22,2.9,-22,1 V,0,35352,35781,-22,1,-22,0.2 V,0,35781,35995,-22,0.2,-22,0.3 V,0,35995,36209,-22,0.3,-22,2.1 V,0,36209,36424,-22,2.1,-22,1.7 V,0,36424,36852,-22,1.7,-22,2.2 V,0,36852,37067,-22,2.2,-22,0.6 V,0,37067,37281,-22,0.6,-22,0.4 V,0,37281,37495,-22,0.4,-22,1 V,0,37495,37709,-22,1,-22,0.4 V,0,37709,38138,-22,0.4,-22,0.7 V,0,38138,38352,-22,0.7,-22,1.7 V,0,38352,38567,-22,1.7,-22,1.8 V,0,38567,38995,-22,1.8,-22,0.3 V,0,38995,39209,-22,0.3,-22,0.9 V,0,39209,39424,-22,0.9,-22,0.4 V,0,39424,39638,-22,0.4,-22,1.4 V,0,39638,39852,-22,1.4,-22,0.1 V,0,39852,40067,-22,0.1,-22,0.5 V,0,40067,40281,-22,0.5,-22,1.6 V,0,40281,40495,-22,1.6,-22,1.4 V,0,40495,40709,-22,1.4,-22,0.2 V,0,40709,41138,-22,0.2,-22,0.9 V,0,41138,41567,-22,0.9,-22,0.3 V,0,41567,41781,-22,0.3,-22,2.8 V,0,41781,42209,-22,2.8,-22,0.7 V,0,42209,42852,-22,0.7,-22,0.3 V,0,42852,43067,-22,0.3,-22,1.7 V,0,43067,43495,-22,1.7,-22,2.2 V,0,43495,43924,-22,2.2,-22,1.6 V,0,43924,44138,-22,1.6,-22,0.3 V,0,44138,44352,-22,0.3,-22,0.1 V,0,44352,44995,-22,0.1,-22,0.4 V,0,44995,45209,-22,0.4,-22,2.1 V,0,45209,46067,-22,2.1,-22,0.2 V,0,46067,46281,-22,0.2,-22,0.3 V,0,46281,46495,-22,0.3,-22,1.2 V,0,46495,46709,-22,1.2,-22,0.2 V,0,46924,47138,-22,0.2,-22,2 V,0,47138,47567,-22,2,-22,0.2 V,0,47781,48424,-22,0.2,-22,0.3 V,0,48424,48638,-22,0.3,-22,2.9 V,0,48638,49495,-22,2.9,-22,0.4 V,0,49709,49924,-22,0.4,-22,1.6 V,0,49924,50352,-22,1.6,-22,1.8 V,0,50352,50567,-22,1.8,-22,1.1 V,0,50567,51209,-22,1.1,-22,0.6 V,0,51209,51424,-22,0.6,-22,0.1 V,0,51424,51852,-22,0.1,-22,0.7 V,0,51852,52067,-22,0.7,-22,2.1 V,0,52067,52495,-22,2.1,-22,1.3 V,0,52495,52709,-22,1.3,-22,0.3 V,0,52709,52924,-22,0.3,-22,0.6 V,0,52924,53781,-22,0.6,-22,0.1 V,0,53781,53995,-22,0.1,-22,2.1 V,0,53995,54424,-22,2.1,-22,0.1 V,0,54424,54852,-22,0.1,-22,0.7 V,0,54852,55281,-22,0.7,-22,0.2 V,0,55281,55495,-22,0.2,-22,1.8 V,0,55495,55709,-22,1.8,-22,2.5 V,0,55709,55924,-22,2.5,-22,1 V,0,55924,56138,-22,1,-22,0.5 V,0,56138,56567,-22,0.5,-22,0.6 V,0,56567,56781,-22,0.6,-22,1.8 V,0,56781,57424,-22,1.8,-22,1.9 V,0,57424,58067,-22,1.9,-22,0.3 V,0,58067,58709,-22,0.3,-22,0.6 V,0,58709,58924,-22,0.6,-22,2.2 V,0,58924,59138,-22,2.2,-22,2.3 V,0,59138,59352,-22,2.3,-22,0.8 V,0,59352,59567,-22,0.8,-22,0.2 V,0,59567,60209,-22,0.2,-22,0.7 V,0,60209,60638,-22,0.7,-22,0.4 V,0,60638,60852,-22,0.4,-22,1.4 V,0,60852,61495,-22,1.4,-22,0.3 V,0,61495,61924,-22,0.3,-22,0.8 V,0,61924,62138,-22,0.8,-22,0.4 V,0,62138,62567,-22,0.4,-22,1.7 V,0,62567,63209,-22,1.7,-22,0.4 V,0,63209,63424,-22,0.4,-22,0.7 V,0,63424,63638,-22,0.7,-22,1.9 V,0,63638,63852,-22,1.9,-22,1.6 V,0,63852,64067,-22,1.6,-22,1.9 V,0,64067,64709,-22,1.9,-22,0.6 V,0,64709,65138,-22,0.6,-22,0.7 V,0,65138,65352,-22,0.7,-22,0.3 V,0,65352,65781,-22,0.3,-22,1.5 V,0,65781,65995,-22,1.5,-22,0.6 V,0,65995,66852,-22,0.6,-22,0.3 V,0,66852,67709,-22,0.3,-22,1.3 V,0,67709,67924,-22,1.3,-22,1.1 V,0,67924,68138,-22,1.1,-22,1.8 V,0,68138,68352,-22,1.8,-22,0.3 V,0,68352,68567,-22,0.3,-22,0.2 V,0,68567,68781,-22,0.2,-22,1.1 V,0,68781,69209,-22,1.1,-22,0.3 V,0,69209,69424,-22,0.3,-22,1.2 V,0,69424,69852,-22,1.2,-22,1.6 V,0,69852,70067,-22,1.6,-22,0.6 V,0,70067,70281,-22,0.6,-22,0.4 V,0,70281,70495,-22,0.4,-22,1.7 V,0,70495,70709,-22,1.7,-22,1.9 V,0,70709,71138,-22,1.9,-22,1.6 V,0,71138,71352,-22,1.6,-22,0.8 V,0,71352,71781,-22,0.8,-22,0.3 V,0,71781,71995,-22,0.3,-22,0.6 V,0,71995,72209,-22,0.6,-22,0.2 V,0,72209,72424,-22,0.2,-22,1.3 V,0,72424,72852,-22,1.3,-22,1.2 V,0,72852,73709,-22,1.2,-22,0.2 V,0,73709,74352,-22,0.2,-22,0.3 F,0,73710,74567,0.6,0
Sprite,Background,BottomCentre,"sb\bar.png",-458.5,485 F,0,32567,,0.6 C,0,32567,,242,132,86 V,0,32567,33209,-22,0.2,-22,0.4 V,0,33209,33424,-22,0.4,-22,2.8 V,0,33424,33852,-22,2.8,-22,0.1 V,0,34709,35138,-22,0.1,-22,2.7 V,0,35138,35352,-22,2.7,-22,1.1 V,0,35352,35781,-22,1.1,-22,0.1 V,0,35781,35995,-22,0.1,-22,0.2 V,0,35995,36424,-22,0.2,-22,1.8 V,0,36638,36852,-22,1.8,-22,2.6 V,0,36852,37067,-22,2.6,-22,0.8 V,0,37067,37281,-22,0.8,-22,0.1 V,0,37281,38352,-22,0.1,-22,0.8 V,0,38352,38567,-22,0.8,-22,2.6 V,0,38567,38781,-22,2.6,-22,1.2 V,0,38781,38995,-22,1.2,-22,0.6 V,0,38995,39209,-22,0.6,-22,1.5 V,0,39209,39424,-22,1.5,-22,0.2 V,0,39424,39638,-22,0.2,-22,1 V,0,39638,39852,-22,1,-22,0.1 V,0,39852,40067,-22,0.1,-22,0.2 V,0,40067,40281,-22,0.2,-22,2.6 V,0,40281,40709,-22,2.6,-22,0.1 V,0,41567,41995,-22,0.1,-22,2.7 V,0,41995,42209,-22,2.7,-22,0.8 V,0,42209,42638,-22,0.8,-22,0.1 V,0,42638,43067,-22,0.1,-22,1.3 V,0,43067,43495,-22,1.3,-22,1.7 V,0,43495,43709,-22,1.7,-22,2.8 V,0,43709,44138,-22,2.8,-22,0.1 V,0,44138,44995,-22,0.1,-22,0.2 V,0,44995,45209,-22,0.2,-22,0.6 V,0,45209,45424,-22,0.6,-22,2.7 V,0,45424,45638,-22,2.7,-22,1.1 V,0,45638,45852,-22,1.1,-22,0.1 V,0,45852,46281,-22,0.1,-22,0.2 V,0,46281,46495,-22,0.2,-22,1.3 V,0,46495,46709,-22,1.3,-22,0.1 V,0,46709,46924,-22,0.1,-22,0.5 V,0,46924,47138,-22,0.5,-22,2.6 V,0,47138,47352,-22,2.6,-22,0.6 V,0,47352,47567,-22,0.6,-22,0.1 V,0,48209,48638,-22,0.1,-22,0.8 V,0,48638,48852,-22,0.8,-22,2.9 V,0,48852,49067,-22,2.9,-22,0.9 V,0,49067,49495,-22,0.9,-22,0.2 V,0,49495,49709,-22,0.2,-22,0.3 V,0,49709,49924,-22,0.3,-22,1.6 V,0,49924,50352,-22,1.6,-22,1.8 V,0,50352,50567,-22,1.8,-22,2.8 V,0,50567,50995,-22,2.8,-22,0.1 V,0,50995,52067,-22,0.1,-22,0.2 V,0,52067,52281,-22,0.2,-22,2.7 V,0,52281,52495,-22,2.7,-22,1 V,0,52495,52709,-22,1,-22,0.1 V,0,53352,53781,-22,0.1,-22,0.2 V,0,53781,53995,-22,0.2,-22,3 V,0,53995,54209,-22,3,-22,1 V,0,54209,54424,-22,1,-22,0.1 V,0,55281,55495,-22,0.1,-22,2.3 V,0,55495,55709,-22,2.3,-22,2.8 V,0,55709,55924,-22,2.8,-22,0.6 V,0,55924,56138,-22,0.6,-22,0.8 V,0,56138,56352,-22,0.8,-22,0.1 V,0,56352,56567,-22,0.1,-22,0.5 V,0,56567,56781,-22,0.5,-22,1.8 V,0,57209,57424,-22,1.8,-22,2.8 V,0,57424,57638,-22,2.8,-22,0.7 V,0,57638,57852,-22,0.7,-22,0.1 V,0,58495,58924,-22,0.1,-22,0.8 V,0,58924,59138,-22,0.8,-22,3.1 V,0,59138,59352,-22,3.1,-22,1 V,0,59352,59567,-22,1,-22,0.1 V,0,59781,60209,-22,0.1,-22,1.3 V,0,60209,60424,-22,1.3,-22,0.2 V,0,60638,60852,-22,0.2,-22,2.5 V,0,60852,61067,-22,2.5,-22,0.9 V,0,61067,61281,-22,0.9,-22,0.2 V,0,62138,62352,-22,0.2,-22,1 V,0,62352,62567,-22,1,-22,2.8 V,0,62567,62781,-22,2.8,-22,0.7 V,0,62781,63209,-22,0.7,-22,0.1 V,0,63424,63638,-22,0.1,-22,1.8 V,0,63638,63852,-22,1.8,-22,1 V,0,63852,64281,-22,1,-22,2.5 V,0,64281,64495,-22,2.5,-22,1 V,0,64495,64709,-22,1,-22,0.1 V,0,65567,65781,-22,0.1,-22,0.3 V,0,65781,65995,-22,0.3,-22,2.6 V,0,65995,66424,-22,2.6,-22,0.2 V,0,66424,66638,-22,0.2,-22,1.1 V,0,66638,66852,-22,1.1,-22,0.2 V,0,66852,67067,-22,0.2,-22,1.2 V,0,67067,67281,-22,1.2,-22,0.1 V,0,67281,67495,-22,0.1,-22,0.2 V,0,67495,67709,-22,0.2,-22,2.8 V,0,67709,67924,-22,2.8,-22,1 V,0,67924,68138,-22,1,-22,0.1 V,0,68138,68995,-22,0.1,-22,0.2 V,0,68995,69424,-22,0.2,-22,2.6 V,0,69424,69638,-22,2.6,-22,0.8 V,0,69638,69852,-22,0.8,-22,0.9 V,0,69852,70067,-22,0.9,-22,0.1 V,0,70067,70709,-22,0.1,-22,2.1 V,0,70709,70924,-22,2.1,-22,1.5 V,0,70924,71138,-22,1.5,-22,2.9 V,0,71138,71352,-22,2.9,-22,1.1 V,0,71352,71567,-22,1.1,-22,0.2 V,0,71567,72424,-22,0.2,-22,0.1 V,0,72424,72638,-22,0.1,-22,0.2 V,0,72638,72852,-22,0.2,-22,3 V,0,72852,73067,-22,3,-22,0.9 V,0,73067,73281,-22,0.9,-22,0.1 F,0,73710,74567,0.6,0
Sprite,Background,BottomCentre,"sb\bar.png",-511.25,485 F,0,32567,,0.6 C,0,32567,,242,132,86 V,0,34709,34924,-22,0.1,-22,1.6 V,0,34924,35138,-22,1.6,-22,0.5 V,0,35138,35567,-22,0.5,-22,0.1 V,0,35567,35995,-22,0.1,-22,0.2 V,0,35995,36209,-22,0.2,-22,1.1 V,0,36209,36424,-22,1.1,-22,0.6 V,0,36424,36638,-22,0.6,-22,1.2 V,0,36638,36852,-22,1.2,-22,0.1 V,0,38352,38781,-22,0.1,-22,0.6 V,0,38781,38995,-22,0.6,-22,0.1 V,0,38995,39209,-22,0.1,-22,0.6 V,0,39209,39852,-22,0.6,-22,0.1 V,0,39852,40281,-22,0.1,-22,0.4 V,0,40281,40495,-22,0.4,-22,0.1 V,0,41567,41781,-22,0.1,-22,0.8 V,0,41781,41995,-22,0.8,-22,0.1 V,0,41995,42852,-22,0.1,-22,0.2 V,0,42852,43067,-22,0.2,-22,0.7 V,0,43067,44138,-22,0.7,-22,0.1 V,0,44138,45209,-22,0.1,-22,0.4 V,0,45209,48424,-22,0.4,-22,0.1 V,0,48424,48638,-22,0.1,-22,1.1 V,0,48638,48852,-22,1.1,-22,0.4 V,0,48852,49495,-22,0.4,-22,0.1 V,0,49495,50352,-22,0.1,-22,0.9 V,0,50352,50995,-22,0.9,-22,0.1 V,0,50995,53995,-22,0.1,-22,0.4 V,0,53995,56352,-22,0.4,-22,0.1 V,0,56352,56567,-22,0.1,-22,0.2 V,0,56567,56781,-22,0.2,-22,1 V,0,56781,56995,-22,1,-22,0.4 V,0,56995,57209,-22,0.4,-22,0.6 V,0,57209,57424,-22,0.6,-22,0.1 V,0,58495,58924,-22,0.1,-22,0.7 V,0,58924,59567,-22,0.7,-22,0.1 V,0,61281,61495,-22,0.1,-22,0.4 V,0,61495,61924,-22,0.4,-22,0.1 V,0,62138,62352,-22,0.1,-22,1.8 V,0,62352,62567,-22,1.8,-22,0.1 V,0,62781,62995,-22,0.1,-22,0.8 V,0,62995,63209,-22,0.8,-22,0.1 V,0,63424,63638,-22,0.1,-22,1 V,0,63638,63852,-22,1,-22,0.5 V,0,63852,64067,-22,0.5,-22,1 V,0,64067,64281,-22,1,-22,0.1 V,0,64495,65781,-22,0.1,-22,0.4 V,0,65781,68781,-22,0.4,-22,0.1 V,0,68995,69209,-22,0.1,-22,1.3 V,0,69209,69424,-22,1.3,-22,0.1 V,0,69424,69852,-22,0.1,-22,0.8 V,0,69852,70067,-22,0.8,-22,0.1 V,0,70281,70709,-22,0.1,-22,1 V,0,70924,71138,-22,1,-22,0.1 V,0,72424,72638,-22,0.1,-22,0.5 V,0,72638,74352,-22,0.5,-22,0.1 F,0,73710,74567,0.6,0
Sprite,Background,Centre,"sb\vig.png",320,240 S,0,0,,0.4444444 F,0,1281,32567,1 F,0,32567,82281,0.8
Sprite,Background,BottomCentre,"sb\bar.png",330,485 F,0,32567,,0.6 C,0,32567,,242,132,86 V,0,32567,32781,21.9,5.8,21.9,4.3 V,0,32781,32995,21.9,4.3,21.9,6.9 V,0,32995,33209,21.9,6.9,21.9,7.4 V,0,33209,33424,21.9,7.4,21.9,6.9 V,0,33424,34067,21.9,6.9,21.9,6.7 V,0,34067,34281,21.9,6.7,21.9,6.2 V,0,34281,34495,21.9,6.2,21.9,3 V,0,34495,34924,21.9,3,21.9,6.6 V,0,34924,35567,21.9,6.6,21.9,6.3 V,0,35567,35781,21.9,6.3,21.9,7.4 V,0,35781,35995,21.9,7.4,21.9,4.4 V,0,35995,36209,21.9,4.4,21.9,6.4 V,0,36209,36424,21.9,6.4,21.9,7.4 V,0,36424,36638,21.9,7.4,21.9,6.4 V,0,36638,37067,21.9,6.4,21.9,7.7 V,0,37281,37495,21.9,7.7,21.9,7.4 V,0,37495,37924,21.9,7.4,21.9,4.1 V,0,37924,38138,21.9,4.1,21.9,6.2 V,0,38138,38352,21.9,6.2,21.9,7.7 V,0,38352,38567,21.9,7.7,21.9,7.1 V,0,38567,38781,21.9,7.1,21.9,7.7 V,0,38781,39209,21.9,7.7,21.9,7.2 V,0,39209,39424,21.9,7.2,21.9,4.2 V,0,39424,39852,21.9,4.2,21.9,5.7 V,0,39852,40495,21.9,5.7,21.9,6.6 V,0,40495,41352,21.9,6.6,21.9,4.3 V,0,41352,41567,21.9,4.3,21.9,4.7 V,0,41567,41781,21.9,4.7,21.9,6.5 V,0,41781,41995,21.9,6.5,21.9,6.4 V,0,41995,42209,21.9,6.4,21.9,6.9 V,0,42209,42638,21.9,6.9,21.9,6.5 V,0,42638,42852,21.9,6.5,21.9,4.4 V,0,42852,43067,21.9,4.4,21.9,6 V,0,43067,43281,21.9,6,21.9,6.6 V,0,43281,43495,21.9,6.6,21.9,3.6 V,0,43495,43924,21.9,3.6,21.9,6.7 V,0,43924,44138,21.9,6.7,21.9,7.4 V,0,44138,44352,21.9,7.4,21.9,6.7 V,0,44352,44567,21.9,6.7,21.9,4.5 V,0,44781,44995,21.9,4.5,21.9,3.3 V,0,44995,45209,21.9,3.3,21.9,6 V,0,45209,45424,21.9,6,21.9,6.4 V,0,45424,45638,21.9,6.4,21.9,6.5 V,0,45638,45852,21.9,6.5,21.9,5.1 V,0,45852,46067,21.9,5.1,21.9,6 V,0,46067,46281,21.9,6,21.9,4.7 V,0,46495,46709,21.9,4.7,21.9,5.2 V,0,46709,46924,21.9,5.2,21.9,4.8 V,0,46924,47138,21.9,4.8,21.9,6.5 V,0,47138,47352,21.9,6.5,21.9,7.5 V,0,47567,47995,21.9,7.5,21.9,7.2 V,0,47995,48209,21.9,7.2,21.9,4.5 V,0,48209,48638,21.9,4.5,21.9,6.3 V,0,48638,49067,21.9,6.3,21.9,2.1 V,0,49067,49495,21.9,2.1,21.9,1.9 V,0,49495,49709,21.9,1.9,21.9,4.9 V,0,49709,49924,21.9,4.9,21.9,6.9 V,0,49924,50138,21.9,6.9,21.9,8.1 V,0,50138,50781,21.9,8.1,21.9,7.4 V,0,50781,50995,21.9,7.4,21.9,6.6 V,0,50995,51424,21.9,6.6,21.9,7.5 V,0,51424,51638,21.9,7.5,21.9,5.6 V,0,51638,52067,21.9,5.6,21.9,5.8 V,0,52067,52281,21.9,5.8,21.9,4.2 V,0,52281,52495,21.9,4.2,21.9,6.2 V,0,52495,52709,21.9,6.2,21.9,5.9 V,0,52709,53138,21.9,5.9,21.9,4.3 V,0,53138,53352,21.9,4.3,21.9,4.1 V,0,53352,53567,21.9,4.1,21.9,6.2 V,0,53567,53781,21.9,6.2,21.9,6.5 V,0,53781,53995,21.9,6.5,21.9,5.8 V,0,53995,54424,21.9,5.8,21.9,6.5 V,0,54424,54852,21.9,6.5,21.9,6 V,0,54852,55281,21.9,6,21.9,3.6 V,0,55281,55495,21.9,3.6,21.9,5.2 V,0,55495,55924,21.9,5.2,21.9,6.6 V,0,55924,56138,21.9,6.6,21.9,6.7 V,0,56138,56352,21.9,6.7,21.9,5.9 V,0,56352,56567,21.9,5.9,21.9,4.2 V,0,56567,56781,21.9,4.2,21.9,4.6 V,0,56781,56995,21.9,4.6,21.9,6.4 V,0,56995,57209,21.9,6.4,21.9,6.6 V,0,57209,57424,21.9,6.6,21.9,5.7 V,0,57424,57638,21.9,5.7,21.9,6.1 V,0,57638,58281,21.9,6.1,21.9,5.2 V,0,58281,58495,21.9,5.2,21.9,4.2 V,0,58495,58924,21.9,4.2,21.9,4.6 V,0,58924,59138,21.9,4.6,21.9,2.8 V,0,59138,59352,21.9,2.8,21.9,5.8 V,0,59352,59567,21.9,5.8,21.9,6.8 V,0,59567,59781,21.9,6.8,21.9,7 V,0,59781,59995,21.9,7,21.9,3.1 V,0,59995,60209,21.9,3.1,21.9,3.8 V,0,60209,60424,21.9,3.8,21.9,5.7 V,0,60424,61067,21.9,5.7,21.9,7 V,0,61067,61281,21.9,7,21.9,6.7 V,0,61281,61495,21.9,6.7,21.9,1.1 V,0,61495,61709,21.9,1.1,21.9,4.6 V,0,61709,61924,21.9,4.6,21.9,6.9 V,0,61924,62138,21.9,6.9,21.9,5.2 V,0,62138,62567,21.9,5.2,21.9,6.9 V,0,62567,62781,21.9,6.9,21.9,6.8 V,0,62781,62995,21.9,6.8,21.9,5.6 V,0,62995,63209,21.9,5.6,21.9,6.8 V,0,63209,63424,21.9,6.8,21.9,3 V,0,63424,63638,21.9,3,21.9,3.9 V,0,63638,63852,21.9,3.9,21.9,6.2 V,0,63852,64281,21.9,6.2,21.9,5.8 V,0,64281,64495,21.9,5.8,21.9,6.4 V,0,64495,64709,21.9,6.4,21.9,5.9 V,0,64709,64924,21.9,5.9,21.9,4.4 V,0,64924,65138,21.9,4.4,21.9,5.8 V,0,65138,65352,21.9,5.8,21.9,4.6 V,0,65352,65567,21.9,4.6,21.9,4.5 V,0,65567,65781,21.9,4.5,21.9,6.1 V,0,65781,65995,21.9,6.1,21.9,5.9 V,0,65995,66209,21.9,5.9,21.9,6.8 V,0,66209,66638,21.9,6.8,21.9,6.7 V,0,66638,66852,21.9,6.7,21.9,4.2 V,0,66852,67281,21.9,4.2,21.9,7.1 V,0,67281,67495,21.9,7.1,21.9,7.3 V,0,67495,67709,21.9,7.3,21.9,6.7 V,0,67924,68138,21.9,6.7,21.9,5.9 V,0,68138,68352,21.9,5.9,21.9,0.8 V,0,68352,68567,21.9,0.8,21.9,4.7 V,0,68567,68781,21.9,4.7,21.9,5.4 V,0,68781,68995,21.9,5.4,21.9,3.7 V,0,68995,69209,21.9,3.7,21.9,4.7 V,0,69209,69424,21.9,4.7,21.9,4.2 V,0,69424,69638,21.9,4.2,21.9,4.5 V,0,69638,69852,21.9,4.5,21.9,6.4 V,0,69852,70067,21.9,6.4,21.9,6.2 V,0,70067,70281,21.9,6.2,21.9,3.9 V,0,70281,70495,21.9,3.9,21.9,4.8 V,0,70495,70709,21.9,4.8,21.9,6.4 V,0,70709,71352,21.9,6.4,21.9,4.8 V,0,71352,71567,21.9,4.8,21.9,6.3 V,0,71567,71995,21.9,6.3,21.9,6.7 V,0,71995,72209,21.9,6.7,21.9,3.2 V,0,72209,72638,21.9,3.2,21.9,5.3 V,0,72638,73067,21.9,5.3,21.9,6.1 V,0,73067,73495,21.9,6.1,21.9,6.3 V,0,73495,73709,21.9,6.3,21.9,2.2 V,0,73709,73924,21.9,2.2,21.9,3.8 F,0,73710,74567,0.6,0 V,0,74138,74352,21.9,3.8,21.9,2.1
Sprite,Background,BottomCentre,"sb\bar.png",382.75,485 F,0,32567,,0.6 C,0,32567,,242,132,86 V,0,32567,32781,21.9,6.8,21.9,4.7 V,0,32781,32995,21.9,4.7,21.9,7.5 V,0,32995,33209,21.9,7.5,21.9,7.8 V,0,33209,33424,21.9,7.8,21.9,7.4 V,0,33424,33638,21.9,7.4,21.9,8 V,0,33638,33852,21.9,8,21.9,7.5 V,0,33852,34281,21.9,7.5,21.9,4.8 V,0,34281,34495,21.9,4.8,21.9,6.2 V,0,34495,34709,21.9,6.2,21.9,5.9 V,0,34709,34924,21.9,5.9,21.9,7.1 V,0,34924,35352,21.9,7.1,21.9,5.6 V,0,35352,35567,21.9,5.6,21.9,7.3 V,0,35567,35781,21.9,7.3,21.9,7.2 V,0,35781,35995,21.9,7.2,21.9,6.2 V,0,35995,36209,21.9,6.2,21.9,5.9 V,0,36209,36424,21.9,5.9,21.9,7.6 V,0,36424,36852,21.9,7.6,21.9,6 V,0,36852,37067,21.9,6,21.9,7 V,0,37067,37281,21.9,7,21.9,7.4 V,0,37281,37495,21.9,7.4,21.9,7.2 V,0,37495,37709,21.9,7.2,21.9,6 V,0,37709,37924,21.9,6,21.9,6.2 V,0,37924,38138,21.9,6.2,21.9,5.3 V,0,38138,38352,21.9,5.3,21.9,6.6 V,0,38352,38567,21.9,6.6,21.9,6 V,0,38567,38781,21.9,6,21.9,7.1 V,0,38781,38995,21.9,7.1,21.9,7.5 V,0,38995,39209,21.9,7.5,21.9,7.4 V,0,39209,39424,21.9,7.4,21.9,5.3 V,0,39424,39852,21.9,5.3,21.9,6.9 V,0,39852,40495,21.9,6.9,21.9,7.9 V,0,40495,41352,21.9,7.9,21.9,5.8 V,0,41352,41567,21.9,5.8,21.9,6.1 V,0,41567,41781,21.9,6.1,21.9,7.8 V,0,41781,41995,21.9,7.8,21.9,7.7 V,0,41995,42209,21.9,7.7,21.9,8.2 V,0,42209,42638,21.9,8.2,21.9,7.8 V,0,42638,42852,21.9,7.8,21.9,5.9 V,0,42852,43281,21.9,5.9,21.9,7.9 V,0,43281,43709,21.9,7.9,21.9,6.1 V,0,43709,43924,21.9,6.1,21.9,7.4 V,0,43924,44138,21.9,7.4,21.9,8.2 V,0,44138,44352,21.9,8.2,21.9,7.5 V,0,44352,44567,21.9,7.5,21.9,6.1 V,0,44567,44781,21.9,6.1,21.9,6 V,0,44781,44995,21.9,6,21.9,5 V,0,44995,45209,21.9,5,21.9,7.1 V,0,45209,45638,21.9,7.1,21.9,7.2 V,0,45638,45852,21.9,7.2,21.9,3.3 V,0,45852,46067,21.9,3.3,21.9,6.9 V,0,46067,46495,21.9,6.9,21.9,5.5 V,0,46495,46709,21.9,5.5,21.9,6.9 V,0,46709,47138,21.9,6.9,21.9,7.3 V,0,47138,47567,21.9,7.3,21.9,6.8 V,0,47567,47995,21.9,6.8,21.9,7.7 V,0,47995,48209,21.9,7.7,21.9,5.1 V,0,48209,48424,21.9,5.1,21.9,5 V,0,48424,48638,21.9,5,21.9,6.4 V,0,48638,49067,21.9,6.4,21.9,4.3 V,0,49067,49495,21.9,4.3,21.9,5.4 V,0,49495,50138,21.9,5.4,21.9,8.1 V,0,50138,50781,21.9,8.1,21.9,7.7 V,0,50781,50995,21.9,7.7,21.9,7.1 V,0,51424,52067,21.9,7.1,21.9,4.2 V,0,52067,52281,21.9,4.2,21.9,6.3 V,0,52281,52495,21.9,6.3,21.9,7.2 V,0,52495,52709,21.9,7.2,21.9,6.2 V,0,52709,52924,21.9,6.2,21.9,4.5 V,0,52924,53138,21.9,4.5,21.9,6.2 V,0,53138,53352,21.9,6.2,21.9,5.7 V,0,53352,53567,21.9,5.7,21.9,7.6 V,0,53567,53781,21.9,7.6,21.9,7.9 V,0,53781,53995,21.9,7.9,21.9,7.3 V,0,53995,54424,21.9,7.3,21.9,7.9 V,0,54424,54852,21.9,7.9,21.9,7.4 V,0,54852,55281,21.9,7.4,21.9,5 V,0,55281,55495,21.9,5,21.9,6.6 V,0,55495,55924,21.9,6.6,21.9,8 V,0,56138,56352,21.9,8,21.9,7.3 V,0,56352,56567,21.9,7.3,21.9,5.5 V,0,56567,56781,21.9,5.5,21.9,5.9 V,0,56781,56995,21.9,5.9,21.9,7.8 V,0,56995,57209,21.9,7.8,21.9,7.9 V,0,57209,57424,21.9,7.9,21.9,7.2 V,0,57424,57638,21.9,7.2,21.9,7.4 V,0,57638,58495,21.9,7.4,21.9,6.5 V,0,58495,58709,21.9,6.5,21.9,5.6 V,0,58709,58924,21.9,5.6,21.9,5.8 V,0,58924,59138,21.9,5.8,21.9,4.4 V,0,59138,59352,21.9,4.4,21.9,7 V,0,59352,59567,21.9,7,21.9,8.2 V,0,59567,59781,21.9,8.2,21.9,8.3 V,0,59781,59995,21.9,8.3,21.9,5.7 V,0,59995,60209,21.9,5.7,21.9,4.6 V,0,60209,60424,21.9,4.6,21.9,6.6 V,0,60424,61067,21.9,6.6,21.9,7.8 V,0,61067,61281,21.9,7.8,21.9,7.5 V,0,61281,61495,21.9,7.5,21.9,6 V,0,61495,61709,21.9,6,21.9,5.5 V,0,61709,61924,21.9,5.5,21.9,7.6 V,0,61924,62138,21.9,7.6,21.9,4.7 V,0,62138,62352,21.9,4.7,21.9,7.1 V,0,62352,62781,21.9,7.1,21.9,7.7 V,0,62781,62995,21.9,7.7,21.9,5.9 V,0,62995,63209,21.9,5.9,21.9,7.5 V,0,63209,63638,21.9,7.5,21.9,5.5 V,0,63638,63852,21.9,5.5,21.9,7.5 V,0,63852,64281,21.9,7.5,21.9,7.2 V,0,64281,64495,21.9,7.2,21.9,7.7 V,0,64495,64709,21.9,7.7,21.9,7.1 V,0,64709,64924,21.9,7.1,21.9,5.4 V,0,64924,65138,21.9,5.4,21.9,7 V,0,65138,65352,21.9,7,21.9,5.7 V,0,65352,65567,21.9,5.7,21.9,5.8 V,0,65567,65781,21.9,5.8,21.9,7.4 V,0,65781,65995,21.9,7.4,21.9,7.3 V,0,65995,66209,21.9,7.3,21.9,8.1 V,0,66638,66852,21.9,8.1,21.9,5.9 V,0,66852,67067,21.9,5.9,21.9,6.1 V,0,67067,67281,21.9,6.1,21.9,7.9 V,0,67281,67495,21.9,7.9,21.9,8.1 V,0,67495,67709,21.9,8.1,21.9,7.5 V,0,67924,68138,21.9,7.5,21.9,6.3 V,0,68138,68352,21.9,6.3,21.9,6.2 V,0,68352,68567,21.9,6.2,21.9,5.2 V,0,68567,68781,21.9,5.2,21.9,6.1 V,0,68781,68995,21.9,6.1,21.9,5.5 V,0,68995,69424,21.9,5.5,21.9,5.1 V,0,69424,69638,21.9,5.1,21.9,5.2 V,0,69638,69852,21.9,5.2,21.9,7.2 V,0,70067,70281,21.9,7.2,21.9,6.3 V,0,70281,70495,21.9,6.3,21.9,6 V,0,70495,70709,21.9,6,21.9,7.6 V,0,70709,70924,21.9,7.6,21.9,7.4 V,0,70924,71352,21.9,7.4,21.9,6 V,0,71352,71567,21.9,6,21.9,7.6 V,0,71567,71995,21.9,7.6,21.9,8.1 V,0,71995,72209,21.9,8.1,21.9,6.5 V,0,72209,72424,21.9,6.5,21.9,5.9 V,0,72424,72638,21.9,5.9,21.9,6.8 V,0,72638,73495,21.9,6.8,21.9,7.7 V,0,73495,73709,21.9,7.7,21.9,4.4 V,0,73709,73924,21.9,4.4,21.9,5 F,0,73710,74567,0.6,0 V,0,73924,74138,21.9,5,21.9,4.9 V,0,74138,74352,21.9,4.9,21.9,3.4
Sprite,Background,BottomCentre,"sb\bar.png",435.5,485 F,0,32567,,0.6 C,0,32567,,242,132,86 V,0,32567,32781,21.9,7.4,21.9,5.8 V,0,32781,32995,21.9,5.8,21.9,7.4 V,0,32995,33424,21.9,7.4,21.9,6.7 V,0,33424,33638,21.9,6.7,21.9,8.1 V,0,33852,34067,21.9,8.1,21.9,7.2 V,0,34067,34281,21.9,7.2,21.9,7 V,0,34281,34495,21.9,7,21.9,7.6 V,0,34495,34709,21.9,7.6,21.9,6.4 V,0,34709,34924,21.9,6.4,21.9,7.1 V,0,34924,35138,21.9,7.1,21.9,6 V,0,35138,35567,21.9,6,21.9,7.3 V,0,35567,35781,21.9,7.3,21.9,5.9 V,0,35781,35995,21.9,5.9,21.9,7.6 V,0,35995,36209,21.9,7.6,21.9,5.2 V,0,36209,36424,21.9,5.2,21.9,6.7 V,0,36424,36638,21.9,6.7,21.9,7.2 V,0,36638,37281,21.9,7.2,21.9,6.8 V,0,37281,37709,21.9,6.8,21.9,5.9 V,0,37709,37924,21.9,5.9,21.9,7.8 V,0,37924,38138,21.9,7.8,21.9,4.7 V,0,38138,38352,21.9,4.7,21.9,6.9 V,0,38352,38781,21.9,6.9,21.9,5.7 V,0,38781,39424,21.9,5.7,21.9,7.8 V,0,39424,39638,21.9,7.8,21.9,5.4 V,0,39638,39852,21.9,5.4,21.9,6 V,0,39852,40281,21.9,6,21.9,5.9 V,0,40281,40495,21.9,5.9,21.9,7.4 V,0,40495,40709,21.9,7.4,21.9,5.6 V,0,40709,40924,21.9,5.6,21.9,6.9 V,0,40924,41138,21.9,6.9,21.9,6.5 V,0,41138,41352,21.9,6.5,21.9,7.9 V,0,41352,41567,21.9,7.9,21.9,5.9 V,0,41567,41781,21.9,5.9,21.9,7 V,0,41781,41995,21.9,7,21.9,6.2 V,0,41995,42209,21.9,6.2,21.9,7.6 V,0,42209,42424,21.9,7.6,21.9,6.9 V,0,42424,42852,21.9,6.9,21.9,7.7 V,0,42852,43067,21.9,7.7,21.9,5.2 V,0,43067,43281,21.9,5.2,21.9,7.2 V,0,43281,43924,21.9,7.2,21.9,5 V,0,43924,44138,21.9,5,21.9,7.7 V,0,44138,44352,21.9,7.7,21.9,6.9 V,0,44352,44567,21.9,6.9,21.9,5.5 V,0,44567,44781,21.9,5.5,21.9,7.9 V,0,44781,44995,21.9,7.9,21.9,5.5 V,0,44995,45209,21.9,5.5,21.9,6.8 V,0,45209,45638,21.9,6.8,21.9,6.4 V,0,45638,45852,21.9,6.4,21.9,5.5 V,0,45852,46067,21.9,5.5,21.9,6.4 V,0,46067,46281,21.9,6.4,21.9,7.9 V,0,46281,46495,21.9,7.9,21.9,5.3 V,0,46495,46709,21.9,5.3,21.9,7.7 V,0,46709,46924,21.9,7.7,21.9,7.9 V,0,46924,47567,21.9,7.9,21.9,6.9 V,0,47567,48209,21.9,6.9,21.9,7.7 V,0,48209,48424,21.9,7.7,21.9,3.3 V,0,48424,48638,21.9,3.3,21.9,3.5 V,0,48638,48852,21.9,3.5,21.9,5.4 V,0,48852,49495,21.9,5.4,21.9,6.7 V,0,49495,49709,21.9,6.7,21.9,8 V,0,49709,49924,21.9,8,21.9,6.3 V,0,49924,50138,21.9,6.3,21.9,6.9 V,0,50138,50352,21.9,6.9,21.9,6.5 V,0,50352,50781,21.9,6.5,21.9,7.1 V,0,50781,51209,21.9,7.1,21.9,6.5 V,0,51209,51424,21.9,6.5,21.9,4 V,0,51424,51638,21.9,4,21.9,7.9 V,0,51638,51852,21.9,7.9,21.9,5.5 V,0,51852,52067,21.9,5.5,21.9,4.8 V,0,52067,52281,21.9,4.8,21.9,6.5 V,0,52281,52495,21.9,6.5,21.9,7.4 V,0,52495,52709,21.9,7.4,21.9,6.4 V,0,52709,52924,21.9,6.4,21.9,3.7 V,0,52924,53138,21.9,3.7,21.9,7.8 V,0,53138,53352,21.9,7.8,21.9,4.3 V,0,53352,53567,21.9,4.3,21.9,6.4 V,0,53567,53781,21.9,6.4,21.9,7.1 V,0,53781,54209,21.9,7.1,21.9,6.4 V,0,54209,54424,21.9,6.4,21.9,7.2 V,0,54424,54638,21.9,7.2,21.9,7.1 V,0,54638,54852,21.9,7.1,21.9,6.1 V,0,54852,55067,21.9,6.1,21.9,7.9 V,0,55067,55281,21.9,7.9,21.9,4.2 V,0,55281,55495,21.9,4.2,21.9,6.5 V,0,55495,55709,21.9,6.5,21.9,6.2 V,0,55709,55924,21.9,6.2,21.9,7.2 V,0,55924,56138,21.9,7.2,21.9,7.3 V,0,56138,56352,21.9,7.3,21.9,6.3 V,0,56352,56567,21.9,6.3,21.9,7.9 V,0,56567,56781,21.9,7.9,21.9,5.7 V,0,56781,56995,21.9,5.7,21.9,6 V,0,56995,57209,21.9,6,21.9,7.3 V,0,57209,57424,21.9,7.3,21.9,6.1 V,0,57424,57852,21.9,6.1,21.9,6.6 V,0,57852,58067,21.9,6.6,21.9,5.9 V,0,58067,58281,21.9,5.9,21.9,6.2 V,0,58281,58495,21.9,6.2,21.9,8 V,0,58495,58709,21.9,8,21.9,5.3 V,0,58709,58924,21.9,5.3,21.9,5.9 V,0,58924,59138,21.9,5.9,21.9,4.2 V,0,59138,59352,21.9,4.2,21.9,6.6 V,0,59352,59995,21.9,6.6,21.9,7.7 V,0,59995,60209,21.9,7.7,21.9,4.2 V,0,60209,60424,21.9,4.2,21.9,5.8 V,0,60424,60638,21.9,5.8,21.9,5 V,0,60638,60852,21.9,5,21.9,6.7 V,0,60852,61067,21.9,6.7,21.9,6.9 V,0,61067,61281,21.9,6.9,21.9,4.5 V,0,61281,61495,21.9,4.5,21.9,7.7 V,0,61495,61709,21.9,7.7,21.9,5.8 V,0,61709,61924,21.9,5.8,21.9,6 V,0,61924,62138,21.9,6,21.9,7.4 V,0,62138,62567,21.9,7.4,21.9,6.5 V,0,62567,62781,21.9,6.5,21.9,7.7 V,0,62781,63209,21.9,7.7,21.9,5.8 V,0,63209,63424,21.9,5.8,21.9,7.8 V,0,63424,63638,21.9,7.8,21.9,4.4 V,0,63638,63852,21.9,4.4,21.9,6.7 V,0,63852,64495,21.9,6.7,21.9,6.3 V,0,64495,64709,21.9,6.3,21.9,6.7 V,0,64709,64924,21.9,6.7,21.9,4 V,0,64924,65138,21.9,4,21.9,7 V,0,65138,65352,21.9,7,21.9,7.7 V,0,65352,65567,21.9,7.7,21.9,4.6 V,0,65567,65781,21.9,4.6,21.9,6.5 V,0,65995,66209,21.9,6.5,21.9,7.3 V,0,66209,66424,21.9,7.3,21.9,6.6 V,0,66424,66638,21.9,6.6,21.9,7.6 V,0,66638,66852,21.9,7.6,21.9,7.8 V,0,66852,67067,21.9,7.8,21.9,5.6 V,0,67067,67281,21.9,5.6,21.9,7.3 V,0,67495,67709,21.9,7.3,21.9,6.4 V,0,67709,67924,21.9,6.4,21.9,6.8 V,0,67924,68138,21.9,6.8,21.9,5.5 V,0,68138,68352,21.9,5.5,21.9,8 V,0,68352,68567,21.9,8,21.9,4.6 V,0,68567,68781,21.9,4.6,21.9,7.1 V,0,68781,68995,21.9,7.1,21.9,7.8 V,0,68995,69209,21.9,7.8,21.9,5.9 V,0,69209,69424,21.9,5.9,21.9,5.3 V,0,69424,69638,21.9,5.3,21.9,3.9 V,0,69638,69852,21.9,3.9,21.9,6.7 V,0,69852,70067,21.9,6.7,21.9,7.5 V,0,70067,70281,21.9,7.5,21.9,7.7 V,0,70281,70495,21.9,7.7,21.9,5.3 V,0,70495,70709,21.9,5.3,21.9,6.9 V,0,70709,70924,21.9,6.9,21.9,7 V,0,70924,71352,21.9,7,21.9,4.3 V,0,71352,71567,21.9,4.3,21.9,6.7 V,0,71567,72209,21.9,6.7,21.9,7.8 V,0,72209,72424,21.9,7.8,21.9,4.8 V,0,72424,72852,21.9,4.8,21.9,6.8 V,0,72852,73067,21.9,6.8,21.9,6.2 V,0,73067,73281,21.9,6.2,21.9,7.4 V,0,73281,73495,21.9,7.4,21.9,5.9 V,0,73495,73709,21.9,5.9,21.9,5.4 V,0,73709,73924,21.9,5.4,21.9,3.5 F,0,73710,74567,0.6,0 V,0,73924,74138,21.9,3.5,21.9,3.9 V,0,74138,74352,21.9,3.9,21.9,3.2
Sprite,Background,BottomCentre,"sb\bar.png",488.25,485 F,0,32567,,0.6 C,0,32567,,242,132,86 V,0,32567,32781,21.9,8.1,21.9,4.8 V,0,32781,32995,21.9,4.8,21.9,5.9 V,0,32995,33209,21.9,5.9,21.9,5.1 V,0,33209,33638,21.9,5.1,21.9,7.3 V,0,33638,34067,21.9,7.3,21.9,6.3 V,0,34067,34281,21.9,6.3,21.9,6.4 V,0,34281,34495,21.9,6.4,21.9,8.3 V,0,34495,34709,21.9,8.3,21.9,5.2 V,0,34709,34924,21.9,5.2,21.9,5.7 V,0,34924,35138,21.9,5.7,21.9,4.9 V,0,35138,35567,21.9,4.9,21.9,4.7 V,0,35567,35995,21.9,4.7,21.9,8.3 V,0,35995,36209,21.9,8.3,21.9,3.8 V,0,36209,36424,21.9,3.8,21.9,5.7 V,0,36424,36638,21.9,5.7,21.9,6.8 V,0,36638,37281,21.9,6.8,21.9,6.1 V,0,37281,37495,21.9,6.1,21.9,5.4 V,0,37495,37709,21.9,5.4,21.9,5.6 V,0,37709,37924,21.9,5.6,21.9,8.6 V,0,37924,38138,21.9,8.6,21.9,2.5 V,0,38138,38352,21.9,2.5,21.9,5.1 V,0,38352,38567,21.9,5.1,21.9,5.4 V,0,38567,38781,21.9,5.4,21.9,5.1 V,0,38781,38995,21.9,5.1,21.9,6 V,0,38995,39209,21.9,6,21.9,6.1 V,0,39209,39424,21.9,6.1,21.9,8.4 V,0,39424,39638,21.9,8.4,21.9,5.2 V,0,39638,39852,21.9,5.2,21.9,6.1 V,0,39852,40067,21.9,6.1,21.9,6.2 V,0,40067,40281,21.9,6.2,21.9,5.8 V,0,40281,40709,21.9,5.8,21.9,7.6 V,0,40709,41138,21.9,7.6,21.9,7 V,0,41138,41352,21.9,7,21.9,8.7 V,0,41352,41567,21.9,8.7,21.9,6 V,0,41567,41781,21.9,6,21.9,7 V,0,41781,41995,21.9,7,21.9,5.9 V,0,41995,42209,21.9,5.9,21.9,6.7 V,0,42209,42638,21.9,6.7,21.9,4.9 V,0,42638,42852,21.9,4.9,21.9,8.4 V,0,42852,43067,21.9,8.4,21.9,4.1 V,0,43067,43281,21.9,4.1,21.9,5.9 V,0,43281,43709,21.9,5.9,21.9,5.5 V,0,43709,43924,21.9,5.5,21.9,7.1 V,0,43924,44138,21.9,7.1,21.9,6.9 V,0,44138,44352,21.9,6.9,21.9,5.4 V,0,44352,44781,21.9,5.4,21.9,8.7 V,0,44781,44995,21.9,8.7,21.9,4.5 V,0,44995,45209,21.9,4.5,21.9,5.6 V,0,45209,45424,21.9,5.6,21.9,5.1 V,0,45424,45638,21.9,5.1,21.9,5.5 V,0,45638,45852,21.9,5.5,21.9,6.8 V,0,45852,46067,21.9,6.8,21.9,6.4 V,0,46067,46281,21.9,6.4,21.9,8.6 V,0,46281,46495,21.9,8.6,21.9,4.8 V,0,46495,46709,21.9,4.8,21.9,6.7 V,0,46709,46924,21.9,6.7,21.9,6.8 V,0,46924,47138,21.9,6.8,21.9,6.2 V,0,47138,47567,21.9,6.2,21.9,7 V,0,47567,47995,21.9,7,21.9,6.6 V,0,47995,48209,21.9,6.6,21.9,8.6 V,0,48209,48424,21.9,8.6,21.9,2.8 V,0,48424,48638,21.9,2.8,21.9,4.6 V,0,48638,48852,21.9,4.6,21.9,4.3 V,0,48852,49495,21.9,4.3,21.9,6 V,0,49495,49709,21.9,6,21.9,8.6 V,0,49709,49924,21.9,8.6,21.9,4.8 V,0,49924,50138,21.9,4.8,21.9,5.9 V,0,50352,50567,21.9,5.9,21.9,3.6 V,0,50567,50781,21.9,3.6,21.9,6.6 V,0,50781,50995,21.9,6.6,21.9,7.2 V,0,50995,51209,21.9,7.2,21.9,6.1 V,0,51209,51424,21.9,6.1,21.9,4.1 V,0,51424,51638,21.9,4.1,21.9,8.6 V,0,51638,51852,21.9,8.6,21.9,5.5 V,0,51852,52067,21.9,5.5,21.9,6.8 V,0,52067,52281,21.9,6.8,21.9,2.7 V,0,52281,52495,21.9,2.7,21.9,6 V,0,52495,52924,21.9,6,21.9,5.4 V,0,52924,53138,21.9,5.4,21.9,8.5 V,0,53138,53352,21.9,8.5,21.9,4.8 V,0,53352,53781,21.9,4.8,21.9,5.8 V,0,53781,53995,21.9,5.8,21.9,5.2 V,0,53995,54209,21.9,5.2,21.9,6.3 V,0,54209,54852,21.9,6.3,21.9,6 V,0,54852,55067,21.9,6,21.9,8.7 V,0,55067,55281,21.9,8.7,21.9,5.8 V,0,55281,55495,21.9,5.8,21.9,6.4 V,0,55495,55924,21.9,6.4,21.9,4.3 V,0,55924,56138,21.9,4.3,21.9,5.1 V,0,56138,56352,21.9,5.1,21.9,4.6 V,0,56352,56567,21.9,4.6,21.9,8.6 V,0,56567,56781,21.9,8.6,21.9,5.5 V,0,56781,56995,21.9,5.5,21.9,7.2 V,0,56995,57209,21.9,7.2,21.9,6.6 V,0,57209,57424,21.9,6.6,21.9,4.6 V,0,57424,57638,21.9,4.6,21.9,4.9 V,0,57638,57852,21.9,4.9,21.9,6.3 V,0,57852,58067,21.9,6.3,21.9,7 V,0,58067,58281,21.9,7,21.9,7.1 V,0,58281,58495,21.9,7.1,21.9,8.7 V,0,58495,58709,21.9,8.7,21.9,5.2 V,0,58709,58924,21.9,5.2,21.9,6.6 V,0,58924,59138,21.9,6.6,21.9,6.5 V,0,59138,59352,21.9,6.5,21.9,6 V,0,59352,59567,21.9,6,21.9,4.2 V,0,59567,59995,21.9,4.2,21.9,8.4 V,0,59995,60209,21.9,8.4,21.9,3 V,0,60209,60638,21.9,3,21.9,6.3 V,0,60638,60852,21.9,6.3,21.9,6.2 V,0,60852,61067,21.9,6.2,21.9,6.9 V,0,61067,61281,21.9,6.9,21.9,5.8 V,0,61281,61495,21.9,5.8,21.9,8.4 V,0,61495,61709,21.9,8.4,21.9,5.8 V,0,61709,62138,21.9,5.8,21.9,8.2 V,0,62138,62352,21.9,8.2,21.9,6.3 V,0,62352,62995,21.9,6.3,21.9,7.7 V,0,62995,63209,21.9,7.7,21.9,6.3 V,0,63209,63424,21.9,6.3,21.9,8.4 V,0,63424,63638,21.9,8.4,21.9,4.3 V,0,63638,63852,21.9,4.3,21.9,6.6 V,0,63852,64067,21.9,6.6,21.9,7 V,0,64067,64281,21.9,7,21.9,5.6 V,0,64281,64924,21.9,5.6,21.9,6.4 V,0,64924,65352,21.9,6.4,21.9,8.5 V,0,65352,65567,21.9,8.5,21.9,4.1 V,0,65567,65781,21.9,4.1,21.9,3.3 V,0,65781,65995,21.9,3.3,21.9,4.5 V,0,65995,66209,21.9,4.5,21.9,5 V,0,66209,66424,21.9,5,21.9,6.7 V,0,66424,66638,21.9,6.7,21.9,6.9 V,0,66638,66852,21.9,6.9,21.9,8.5 V,0,66852,67067,21.9,8.5,21.9,6.1 V,0,67067,67281,21.9,6.1,21.9,7.4 V,0,67281,67924,21.9,7.4,21.9,6.1 V,0,67924,68138,21.9,6.1,21.9,6.9 V,0,68138,68352,21.9,6.9,21.9,8.6 V,0,68352,68567,21.9,8.6,21.9,5.3 V,0,68567,68781,21.9,5.3,21.9,7.6 V,0,68781,68995,21.9,7.6,21.9,8.4 V,0,68995,69209,21.9,8.4,21.9,6.2 V,0,69209,69424,21.9,6.2,21.9,5.3 V,0,69424,69638,21.9,5.3,21.9,5.1 V,0,69638,69852,21.9,5.1,21.9,7 V,0,69852,70067,21.9,7,21.9,7.4 V,0,70067,70281,21.9,7.4,21.9,8.4 V,0,70281,70495,21.9,8.4,21.9,2.9 V,0,70495,70709,21.9,2.9,21.9,6.8 V,0,70709,70924,21.9,6.8,21.9,7.7 V,0,70924,71352,21.9,7.7,21.9,5.8 V,0,71352,71567,21.9,5.8,21.9,4.3 V,0,71567,71781,21.9,4.3,21.9,6.8 V,0,71781,71995,21.9,6.8,21.9,6.4 V,0,71995,72209,21.9,6.4,21.9,8.5 V,0,72209,72424,21.9,8.5,21.9,4.4 V,0,72424,72638,21.9,4.4,21.9,5.1 V,0,72638,72852,21.9,5.1,21.9,6.6 V,0,72852,73067,21.9,6.6,21.9,7.4 V,0,73067,73495,21.9,7.4,21.9,7.1 V,0,73495,73709,21.9,7.1,21.9,6.4 V,0,73709,73924,21.9,6.4,21.9,4.7 F,0,73710,74567,0.6,0 V,0,74138,74352,21.9,4.7,21.9,3.3
Sprite,Background,BottomCentre,"sb\bar.png",541,485 F,0,32567,,0.6 C,0,32567,,242,132,86 V,0,32567,32781,21.9,7,21.9,4 V,0,32781,32995,21.9,4,21.9,5.7 V,0,32995,33209,21.9,5.7,21.9,6 V,0,33209,33424,21.9,6,21.9,4.6 V,0,33424,33638,21.9,4.6,21.9,5.2 V,0,33638,34281,21.9,5.2,21.9,4.3 V,0,34281,34495,21.9,4.3,21.9,7.6 V,0,34495,34709,21.9,7.6,21.9,3.3 V,0,34709,35352,21.9,3.3,21.9,6.2 V,0,35352,35781,21.9,6.2,21.9,5.6 V,0,35781,35995,21.9,5.6,21.9,7.4 V,0,35995,36209,21.9,7.4,21.9,2.2 V,0,36209,36424,21.9,2.2,21.9,6.7 V,0,36424,36638,21.9,6.7,21.9,6.5 V,0,36638,36852,21.9,6.5,21.9,4.3 V,0,36852,37067,21.9,4.3,21.9,3.6 V,0,37067,37281,21.9,3.6,21.9,3.7 V,0,37281,37709,21.9,3.7,21.9,5.6 V,0,37709,37924,21.9,5.6,21.9,7.7 V,0,37924,38138,21.9,7.7,21.9,3.8 V,0,38138,38352,21.9,3.8,21.9,3.3 V,0,38352,38781,21.9,3.3,21.9,6.2 V,0,38781,39209,21.9,6.2,21.9,6.6 V,0,39209,39424,21.9,6.6,21.9,7.6 V,0,39424,39638,21.9,7.6,21.9,4.7 V,0,39638,40067,21.9,4.7,21.9,5.8 V,0,40067,40281,21.9,5.8,21.9,5.2 V,0,40281,40495,21.9,5.2,21.9,5.4 V,0,40495,40709,21.9,5.4,21.9,7 V,0,40709,41138,21.9,7,21.9,6.1 V,0,41138,41352,21.9,6.1,21.9,7.9 V,0,41352,41567,21.9,7.9,21.9,5.2 V,0,41567,41781,21.9,5.2,21.9,6.4 V,0,41781,41995,21.9,6.4,21.9,4.9 V,0,41995,42209,21.9,4.9,21.9,6.1 V,0,42209,42424,21.9,6.1,21.9,5.5 V,0,42424,42638,21.9,5.5,21.9,4.1 V,0,42638,42852,21.9,4.1,21.9,7.5 V,0,42852,43067,21.9,7.5,21.9,3.1 V,0,43067,43281,21.9,3.1,21.9,6 V,0,43281,43495,21.9,6,21.9,6.1 V,0,43495,43709,21.9,6.1,21.9,3.9 V,0,43709,43924,21.9,3.9,21.9,6.1 V,0,43924,44138,21.9,6.1,21.9,6.2 V,0,44138,44352,21.9,6.2,21.9,1.5 V,0,44352,44567,21.9,1.5,21.9,6 V,0,44567,44781,21.9,6,21.9,7.9 V,0,44781,44995,21.9,7.9,21.9,3.4 V,0,44995,45209,21.9,3.4,21.9,5.6 V,0,45209,45424,21.9,5.6,21.9,3.6 V,0,45424,45638,21.9,3.6,21.9,5.5 V,0,45638,45852,21.9,5.5,21.9,6 V,0,45852,46067,21.9,6,21.9,5.8 V,0,46067,46281,21.9,5.8,21.9,7.7 V,0,46281,46495,21.9,7.7,21.9,4.4 V,0,46495,46709,21.9,4.4,21.9,5.8 V,0,46709,46924,21.9,5.8,21.9,4.8 V,0,46924,47138,21.9,4.8,21.9,2.9 V,0,47138,47352,21.9,2.9,21.9,3.3 V,0,47352,47567,21.9,3.3,21.9,5 V,0,47567,47781,21.9,5,21.9,5.7 V,0,47781,47995,21.9,5.7,21.9,5.6 V,0,47995,48209,21.9,5.6,21.9,7.8 V,0,48209,48424,21.9,7.8,21.9,4.2 V,0,48424,48638,21.9,4.2,21.9,4.3 V,0,48638,48852,21.9,4.3,21.9,3.5 V,0,48852,49067,21.9,3.5,21.9,4.7 V,0,49067,49281,21.9,4.7,21.9,4.5 V,0,49281,49495,21.9,4.5,21.9,5.5 V,0,49495,49709,21.9,5.5,21.9,7.7 V,0,49709,50138,21.9,7.7,21.9,2.7 V,0,50138,50352,21.9,2.7,21.9,6.2 V,0,50352,50567,21.9,6.2,21.9,3.9 V,0,50567,50781,21.9,3.9,21.9,6.4 V,0,50781,51209,21.9,6.4,21.9,6.3 V,0,51209,51424,21.9,6.3,21.9,5.3 V,0,51424,51638,21.9,5.3,21.9,7.6 V,0,51638,51852,21.9,7.6,21.9,6 V,0,51852,52067,21.9,6,21.9,7.2 V,0,52067,52281,21.9,7.2,21.9,5.6 V,0,52281,52709,21.9,5.6,21.9,5.3 V,0,52709,52924,21.9,5.3,21.9,4.5 V,0,52924,53138,21.9,4.5,21.9,7.6 V,0,53138,53352,21.9,7.6,21.9,4.3 V,0,53352,53567,21.9,4.3,21.9,4.8 V,0,53567,53781,21.9,4.8,21.9,3.6 V,0,53781,53995,21.9,3.6,21.9,3.5 V,0,53995,54209,21.9,3.5,21.9,6.1 V,0,54209,54424,21.9,6.1,21.9,5.1 V,0,54424,54638,21.9,5.1,21.9,5.9 V,0,54638,54852,21.9,5.9,21.9,5.3 V,0,54852,55067,21.9,5.3,21.9,7.8 V,0,55067,55281,21.9,7.8,21.9,5.2 V,0,55281,55495,21.9,5.2,21.9,6.1 V,0,55495,55709,21.9,6.1,21.9,5 V,0,55709,56352,21.9,5,21.9,4.5 V,0,56352,56567,21.9,4.5,21.9,7.8 V,0,56567,56781,21.9,7.8,21.9,4.9 V,0,56781,56995,21.9,4.9,21.9,6.4 V,0,56995,57209,21.9,6.4,21.9,6.1 V,0,57209,57638,21.9,6.1,21.9,3.5 V,0,57638,57852,21.9,3.5,21.9,5.8 V,0,57852,58281,21.9,5.8,21.9,6.5 V,0,58281,58495,21.9,6.5,21.9,7.8 V,0,58495,58709,21.9,7.8,21.9,4.4 V,0,58709,58924,21.9,4.4,21.9,5.8 V,0,59138,59567,21.9,5.8,21.9,3.7 V,0,59567,59995,21.9,3.7,21.9,7.5 V,0,59995,60209,21.9,7.5,21.9,4.2 V,0,60209,60638,21.9,4.2,21.9,4.8 V,0,60638,60852,21.9,4.8,21.9,5.6 V,0,60852,61067,21.9,5.6,21.9,4.4 V,0,61067,61281,21.9,4.4,21.9,4.6 V,0,61281,61495,21.9,4.6,21.9,7.6 V,0,61495,61709,21.9,7.6,21.9,4.8 V,0,61709,61924,21.9,4.8,21.9,5.1 V,0,61924,62138,21.9,5.1,21.9,7.3 V,0,62138,62352,21.9,7.3,21.9,4.1 V,0,62352,62567,21.9,4.1,21.9,3.8 V,0,62567,62995,21.9,3.8,21.9,6 V,0,62995,63209,21.9,6,21.9,6.2 V,0,63209,63424,21.9,6.2,21.9,7.6 V,0,63424,63638,21.9,7.6,21.9,4 V,0,63638,63852,21.9,4,21.9,6 V,0,63852,64067,21.9,6,21.9,6.5 V,0,64067,64281,21.9,6.5,21.9,4.4 V,0,64281,64495,21.9,4.4,21.9,5.4 V,0,64495,64924,21.9,5.4,21.9,5.3 V,0,64924,65138,21.9,5.3,21.9,6.9 V,0,65138,65352,21.9,6.9,21.9,7.6 V,0,65352,65567,21.9,7.6,21.9,4 V,0,65567,65781,21.9,4,21.9,3.1 V,0,65781,66209,21.9,3.1,21.9,3.8 V,0,66209,66424,21.9,3.8,21.9,5.9 V,0,66424,66638,21.9,5.9,21.9,6.3 V,0,66638,66852,21.9,6.3,21.9,7.6 V,0,66852,67067,21.9,7.6,21.9,3.8 V,0,67067,67281,21.9,3.8,21.9,4.6 V,0,67281,67495,21.9,4.6,21.9,6.1 V,0,67495,67924,21.9,6.1,21.9,4.7 V,0,67924,68138,21.9,4.7,21.9,5.6 V,0,68138,68352,21.9,5.6,21.9,7.6 V,0,68352,68567,21.9,7.6,21.9,3.9 V,0,68567,68995,21.9,3.9,21.9,7.5 V,0,68995,69209,21.9,7.5,21.9,4.1 V,0,69209,69424,21.9,4.1,21.9,5.2 V,0,69424,69638,21.9,5.2,21.9,4.6 V,0,69638,69852,21.9,4.6,21.9,6.2 V,0,69852,70067,21.9,6.2,21.9,4.6 V,0,70067,70281,21.9,4.6,21.9,7.5 V,0,70281,70495,21.9,7.5,21.9,2.7 V,0,70495,70709,21.9,2.7,21.9,6.2 V,0,70709,70924,21.9,6.2,21.9,7 V,0,70924,71567,21.9,7,21.9,3.8 V,0,71567,71781,21.9,3.8,21.9,6.4 V,0,71781,71995,21.9,6.4,21.9,5.8 V,0,71995,72209,21.9,5.8,21.9,7.6 V,0,72209,72424,21.9,7.6,21.9,3.8 V,0,72424,73067,21.9,3.8,21.9,6.7 V,0,73067,73709,21.9,6.7,21.9,5.9 V,0,73709,73924,21.9,5.9,21.9,4.1 F,0,73710,74567,0.6,0 V,0,73924,74138,21.9,4.1,21.9,4 V,0,74138,74352,21.9,4,21.9,2.8
Sprite,Background,BottomCentre,"sb\bar.png",593.75,485 F,0,32567,,0.6 C,0,32567,,242,132,86 V,0,32567,33209,21.9,1.6,21.9,4.4 V,0,33209,33424,21.9,4.4,21.9,2.1 V,0,33424,33638,21.9,2.1,21.9,3.6 V,0,33638,34067,21.9,3.6,21.9,3 V,0,34067,34281,21.9,3,21.9,4.6 V,0,34281,34495,21.9,4.6,21.9,2.3 V,0,34495,34709,21.9,2.3,21.9,2 V,0,34709,34924,21.9,2,21.9,3.9 V,0,34924,35567,21.9,3.9,21.9,5.2 V,0,35567,35781,21.9,5.2,21.9,2.5 V,0,35781,35995,21.9,2.5,21.9,2.2 V,0,35995,36209,21.9,2.2,21.9,4 V,0,36209,36424,21.9,4,21.9,3.4 V,0,36424,36638,21.9,3.4,21.9,4.4 V,0,36852,37067,21.9,4.4,21.9,5.2 V,0,37067,37281,21.9,5.2,21.9,4.7 V,0,37281,37495,21.9,4.7,21.9,1.9 V,0,37495,37709,21.9,1.9,21.9,4.3 V,0,37709,37924,21.9,4.3,21.9,2.8 V,0,37924,38138,21.9,2.8,21.9,4.3 V,0,38138,38352,21.9,4.3,21.9,3.9 V,0,38352,38567,21.9,3.9,21.9,2.4 V,0,38567,38781,21.9,2.4,21.9,4.6 V,0,38781,39209,21.9,4.6,21.9,4.3 V,0,39209,39424,21.9,4.3,21.9,3.5 V,0,39424,39638,21.9,3.5,21.9,5.3 V,0,39638,40281,21.9,5.3,21.9,5 V,0,40281,40495,21.9,5,21.9,5.4 V,0,40495,40709,21.9,5.4,21.9,3.9 V,0,40709,40924,21.9,3.9,21.9,6.2 V,0,40924,41138,21.9,6.2,21.9,6.5 V,0,41138,41352,21.9,6.5,21.9,2.6 V,0,41352,41567,21.9,2.6,21.9,4.2 V,0,41567,41781,21.9,4.2,21.9,4 V,0,41781,41995,21.9,4,21.9,4.9 V,0,41995,42209,21.9,4.9,21.9,4.1 V,0,42209,42424,21.9,4.1,21.9,6 V,0,42424,42638,21.9,6,21.9,5.4 V,0,42638,42852,21.9,5.4,21.9,1.4 V,0,42852,43067,21.9,1.4,21.9,2.3 V,0,43067,43495,21.9,2.3,21.9,5.5 V,0,43495,43709,21.9,5.5,21.9,4.7 V,0,43709,44138,21.9,4.7,21.9,5.6 V,0,44138,44352,21.9,5.6,21.9,5.3 V,0,44352,44567,21.9,5.3,21.9,3.4 V,0,44567,44781,21.9,3.4,21.9,3.2 V,0,44781,44995,21.9,3.2,21.9,4.4 V,0,44995,45209,21.9,4.4,21.9,3.7 V,0,45209,45852,21.9,3.7,21.9,5.6 V,0,45852,46067,21.9,5.6,21.9,4.2 V,0,46067,46281,21.9,4.2,21.9,1.8 V,0,46281,46495,21.9,1.8,21.9,3.3 V,0,46495,46924,21.9,3.3,21.9,4 V,0,46924,47567,21.9,4,21.9,3.1 V,0,47567,47781,21.9,3.1,21.9,3.8 V,0,47781,47995,21.9,3.8,21.9,3.4 V,0,47995,48209,21.9,3.4,21.9,1.7 V,0,48209,48424,21.9,1.7,21.9,3.1 V,0,48424,48638,21.9,3.1,21.9,1.9 V,0,48638,48852,21.9,1.9,21.9,3.4 V,0,48852,49067,21.9,3.4,21.9,3.1 V,0,49067,49281,21.9,3.1,21.9,4 V,0,49281,49495,21.9,4,21.9,3.3 V,0,49495,49709,21.9,3.3,21.9,1.7 V,0,49709,49924,21.9,1.7,21.9,3.3 V,0,50138,50567,21.9,3.3,21.9,4.2 V,0,50567,50995,21.9,4.2,21.9,3.3 V,0,50995,51209,21.9,3.3,21.9,5 V,0,51424,51638,21.9,5,21.9,1.4 V,0,51638,51852,21.9,1.4,21.9,1.6 V,0,51852,52067,21.9,1.6,21.9,5.4 V,0,52067,52281,21.9,5.4,21.9,2.4 V,0,52281,52924,21.9,2.4,21.9,4.2 V,0,52924,53138,21.9,4.2,21.9,3.1 V,0,53138,53352,21.9,3.1,21.9,5 V,0,53352,53567,21.9,5,21.9,5.3 V,0,53567,53781,21.9,5.3,21.9,6.2 V,0,53781,53995,21.9,6.2,21.9,4.7 V,0,53995,54209,21.9,4.7,21.9,4.4 V,0,54209,54424,21.9,4.4,21.9,5.5 V,0,54424,54638,21.9,5.5,21.9,5.1 V,0,54638,54852,21.9,5.1,21.9,5.9 V,0,54852,55067,21.9,5.9,21.9,3 V,0,55067,55281,21.9,3,21.9,4.5 V,0,55281,55709,21.9,4.5,21.9,4.7 V,0,55709,55924,21.9,4.7,21.9,6.1 V,0,55924,56352,21.9,6.1,21.9,5 V,0,56352,56567,21.9,5,21.9,3.1 V,0,56567,56995,21.9,3.1,21.9,4.6 V,0,56995,57424,21.9,4.6,21.9,5.3 V,0,57424,58067,21.9,5.3,21.9,4.6 V,0,58067,58281,21.9,4.6,21.9,5.8 V,0,58281,58495,21.9,5.8,21.9,2.3 V,0,58495,58709,21.9,2.3,21.9,4.4 V,0,58709,58924,21.9,4.4,21.9,5.6 V,0,58924,59138,21.9,5.6,21.9,4 V,0,59138,59567,21.9,4,21.9,5.6 V,0,59567,59781,21.9,5.6,21.9,2.1 V,0,59781,59995,21.9,2.1,21.9,2.8 V,0,59995,60209,21.9,2.8,21.9,4.8 V,0,60209,60638,21.9,4.8,21.9,5.3 V,0,60638,61067,21.9,5.3,21.9,4.4 V,0,61067,61281,21.9,4.4,21.9,4.9 V,0,61281,61495,21.9,4.9,21.9,2.4 V,0,61495,61709,21.9,2.4,21.9,4.4 V,0,61709,62138,21.9,4.4,21.9,2.7 V,0,62138,62352,21.9,2.7,21.9,4.5 V,0,62352,62567,21.9,4.5,21.9,3.9 V,0,62567,62995,21.9,3.9,21.9,6.2 V,0,62995,63209,21.9,6.2,21.9,5.8 V,0,63209,63424,21.9,5.8,21.9,2.9 V,0,63424,63852,21.9,2.9,21.9,6.1 V,0,63852,64067,21.9,6.1,21.9,4.5 V,0,64067,64495,21.9,4.5,21.9,4.1 V,0,64495,64709,21.9,4.1,21.9,5.5 V,0,64709,64924,21.9,5.5,21.9,4.7 V,0,64924,65138,21.9,4.7,21.9,5.9 V,0,65138,65352,21.9,5.9,21.9,2.3 V,0,65352,65567,21.9,2.3,21.9,4.1 V,0,65567,65781,21.9,4.1,21.9,4.8 V,0,65781,65995,21.9,4.8,21.9,3.5 V,0,65995,66209,21.9,3.5,21.9,6.3 V,0,66209,66424,21.9,6.3,21.9,5.4 V,0,66424,66638,21.9,5.4,21.9,2.9 V,0,66638,67067,21.9,2.9,21.9,4.6 V,0,67067,67281,21.9,4.6,21.9,3.8 V,0,67281,67495,21.9,3.8,21.9,4.9 V,0,67495,67709,21.9,4.9,21.9,3.1 V,0,67709,67924,21.9,3.1,21.9,5.8 V,0,67924,68352,21.9,5.8,21.9,2.6 V,0,68352,68781,21.9,2.6,21.9,4.4 V,0,68781,68995,21.9,4.4,21.9,2 V,0,68995,69209,21.9,2,21.9,4.4 V,0,69209,69424,21.9,4.4,21.9,3.4 V,0,69424,69852,21.9,3.4,21.9,5.2 V,0,69852,70067,21.9,5.2,21.9,5.4 V,0,70067,70281,21.9,5.4,21.9,3.1 V,0,70281,70495,21.9,3.1,21.9,3.9 V,0,70495,70709,21.9,3.9,21.9,3.6 V,0,70709,70924,21.9,3.6,21.9,6.3 V,0,70924,71138,21.9,6.3,21.9,4.8 V,0,71138,71352,21.9,4.8,21.9,6.2 V,0,71352,71567,21.9,6.2,21.9,4.9 V,0,71567,71781,21.9,4.9,21.9,5.6 V,0,71781,71995,21.9,5.6,21.9,5.2 V,0,71995,72209,21.9,5.2,21.9,2.5 V,0,72209,72424,21.9,2.5,21.9,4.3 V,0,72424,72638,21.9,4.3,21.9,4.8 V,0,72638,72852,21.9,4.8,21.9,3.8 V,0,72852,73067,21.9,3.8,21.9,5.7 V,0,73067,73281,21.9,5.7,21.9,2.6 V,0,73281,73495,21.9,2.6,21.9,6.2 V,0,73495,73709,21.9,6.2,21.9,2.1 V,0,73709,73924,21.9,2.1,21.9,2.7 F,0,73710,74567,0.6,0 V,0,73924,74352,21.9,2.7,21.9,2.4
Sprite,Background,BottomCentre,"sb\bar.png",646.5,485 F,0,32567,,0.6 C,0,32567,,242,132,86 V,0,32781,32995,21.9,3.4,21.9,2.1 V,0,32995,33209,21.9,2.1,21.9,1.9 V,0,33209,33638,21.9,1.9,21.9,4.2 V,0,33638,33852,21.9,4.2,21.9,4.5 V,0,33852,34067,21.9,4.5,21.9,5.5 V,0,34067,34281,21.9,5.5,21.9,5.4 V,0,34281,34495,21.9,5.4,21.9,3.1 V,0,34495,34709,21.9,3.1,21.9,3.8 V,0,34709,34924,21.9,3.8,21.9,3.9 V,0,34924,35138,21.9,3.9,21.9,1.1 V,0,35138,35352,21.9,1.1,21.9,3.9 V,0,35352,35567,21.9,3.9,21.9,3.7 V,0,35567,35781,21.9,3.7,21.9,2.6 V,0,35995,36209,21.9,2.6,21.9,1.5 V,0,36209,36424,21.9,1.5,21.9,2.7 V,0,36424,36638,21.9,2.7,21.9,2.1 V,0,36638,36852,21.9,2.1,21.9,2.2 V,0,36852,37067,21.9,2.2,21.9,4.4 V,0,37067,37281,21.9,4.4,21.9,2.3 V,0,37281,37709,21.9,2.3,21.9,3.3 V,0,37709,38138,21.9,3.3,21.9,2.1 V,0,38138,38352,21.9,2.1,21.9,3.8 V,0,38352,38567,21.9,3.8,21.9,2.2 V,0,38567,38781,21.9,2.2,21.9,4.1 V,0,38781,38995,21.9,4.1,21.9,3 V,0,38995,39209,21.9,3,21.9,4.5 V,0,39209,39424,21.9,4.5,21.9,2.9 V,0,39424,39638,21.9,2.9,21.9,2.6 V,0,39638,39852,21.9,2.6,21.9,5.4 V,0,39852,40067,21.9,5.4,21.9,3.6 V,0,40067,40281,21.9,3.6,21.9,4 V,0,40281,40495,21.9,4,21.9,3.4 V,0,40495,41138,21.9,3.4,21.9,6.1 V,0,41138,41352,21.9,6.1,21.9,1.7 V,0,41352,41567,21.9,1.7,21.9,4.3 V,0,41567,41781,21.9,4.3,21.9,3.2 V,0,41781,41995,21.9,3.2,21.9,4.8 V,0,41995,42209,21.9,4.8,21.9,2.8 V,0,42209,42424,21.9,2.8,21.9,3.3 V,0,42424,42852,21.9,3.3,21.9,2.2 V,0,42852,43067,21.9,2.2,21.9,4.1 V,0,43067,43281,21.9,4.1,21.9,4.5 V,0,43281,43495,21.9,4.5,21.9,3.7 V,0,43495,43924,21.9,3.7,21.9,3.4 V,0,43924,44138,21.9,3.4,21.9,3.5 V,0,44138,44352,21.9,3.5,21.9,4.4 V,0,44352,44781,21.9,4.4,21.9,3.5 V,0,44995,45209,21.9,3.5,21.9,4.9 V,0,45209,45424,21.9,4.9,21.9,4.8 V,0,45424,45638,21.9,4.8,21.9,3.9 V,0,45638,46067,21.9,3.9,21.9,4.6 V,0,46067,46495,21.9,4.6,21.9,1.9 V,0,46495,46709,21.9,1.9,21.9,5.5 V,0,46709,46924,21.9,5.5,21.9,1.5 V,0,46924,47352,21.9,1.5,21.9,4.9 V,0,47352,47567,21.9,4.9,21.9,2.2 V,0,47567,47781,21.9,2.2,21.9,5 V,0,47995,48209,21.9,5,21.9,3.4 V,0,48209,48424,21.9,3.4,21.9,4.1 V,0,48424,48638,21.9,4.1,21.9,2.6 V,0,48638,48852,21.9,2.6,21.9,4.9 V,0,48852,49495,21.9,4.9,21.9,5.8 V,0,49495,49709,21.9,5.8,21.9,2.9 V,0,49709,49924,21.9,2.9,21.9,2.1 V,0,49924,50352,21.9,2.1,21.9,2.7 V,0,50352,50567,21.9,2.7,21.9,2 V,0,50567,50781,21.9,2,21.9,3 V,0,50781,51209,21.9,3,21.9,4.2 V,0,51209,51852,21.9,4.2,21.9,2.2 V,0,51852,52067,21.9,2.2,21.9,5.1 V,0,52067,52281,21.9,5.1,21.9,2.4 V,0,52495,52709,21.9,2.4,21.9,1.6 V,0,52709,52924,21.9,1.6,21.9,3.7 V,0,52924,53138,21.9,3.7,21.9,3 V,0,53138,53352,21.9,3,21.9,1.4 V,0,53352,53781,21.9,1.4,21.9,4.6 V,0,53781,53995,21.9,4.6,21.9,3.8 V,0,53995,54209,21.9,3.8,21.9,2.4 V,0,54209,54424,21.9,2.4,21.9,2.8 V,0,54424,54638,21.9,2.8,21.9,4.9 V,0,54638,54852,21.9,4.9,21.9,4.2 V,0,54852,55067,21.9,4.2,21.9,2.3 V,0,55067,55495,21.9,2.3,21.9,5 V,0,55495,55709,21.9,5,21.9,3.5 V,0,55709,55924,21.9,3.5,21.9,5.3 V,0,55924,56138,21.9,5.3,21.9,5.4 V,0,56138,56352,21.9,5.4,21.9,4.5 V,0,56352,56567,21.9,4.5,21.9,1.7 V,0,56567,56781,21.9,1.7,21.9,3.5 V,0,56781,56995,21.9,3.5,21.9,4.4 V,0,56995,57424,21.9,4.4,21.9,4.9 V,0,57424,57638,21.9,4.9,21.9,5.8 V,0,57638,58067,21.9,5.8,21.9,3.5 V,0,58067,58281,21.9,3.5,21.9,5.1 V,0,58281,58495,21.9,5.1,21.9,3.9 V,0,58495,58709,21.9,3.9,21.9,3.5 V,0,58709,58924,21.9,3.5,21.9,4.1 V,0,58924,59138,21.9,4.1,21.9,2.4 V,0,59138,59567,21.9,2.4,21.9,5.5 V,0,59567,59781,21.9,5.5,21.9,4.2 V,0,59781,60209,21.9,4.2,21.9,3.4 V,0,60209,60424,21.9,3.4,21.9,4.4 V,0,60424,60638,21.9,4.4,21.9,1.6 V,0,60638,60852,21.9,1.6,21.9,3.8 V,0,60852,61067,21.9,3.8,21.9,4.5 V,0,61067,61281,21.9,4.5,21.9,2.9 V,0,61281,61495,21.9,2.9,21.9,3.2 V,0,61495,61709,21.9,3.2,21.9,2.5 V,0,61709,61924,21.9,2.5,21.9,5.1 V,0,61924,62138,21.9,5.1,21.9,2.8 V,0,62138,62352,21.9,2.8,21.9,3.1 V,0,62352,62567,21.9,3.1,21.9,4.4 V,0,62567,62781,21.9,4.4,21.9,4.2 V,0,62781,62995,21.9,4.2,21.9,2.4 V,0,62995,63209,21.9,2.4,21.9,3.7 V,0,63209,63424,21.9,3.7,21.9,2.8 V,0,63424,63638,21.9,2.8,21.9,3.8 V,0,63638,63852,21.9,3.8,21.9,2.6 V,0,63852,64067,21.9,2.6,21.9,4.7 V,0,64067,64281,21.9,4.7,21.9,5.2 V,0,64281,64495,21.9,5.2,21.9,4.8 V,0,64495,64709,21.9,4.8,21.9,5.4 V,0,64709,65138,21.9,5.4,21.9,4.9 V,0,65138,65567,21.9,4.9,21.9,1.2 V,0,65567,65781,21.9,1.2,21.9,5.5 V,0,65781,65995,21.9,5.5,21.9,4.4 V,0,65995,66424,21.9,4.4,21.9,4.2 V,0,66424,66638,21.9,4.2,21.9,4.8 V,0,66638,66852,21.9,4.8,21.9,4.1 V,0,66852,67067,21.9,4.1,21.9,4.3 V,0,67067,67495,21.9,4.3,21.9,2.7 V,0,67495,67924,21.9,2.7,21.9,4.6 V,0,67924,68138,21.9,4.6,21.9,2.8 V,0,68138,68352,21.9,2.8,21.9,3.1 V,0,68352,68567,21.9,3.1,21.9,1.9 V,0,68567,68781,21.9,1.9,21.9,4.9 V,0,68781,68995,21.9,4.9,21.9,2.7 V,0,68995,69209,21.9,2.7,21.9,1.9 V,0,69209,69424,21.9,1.9,21.9,3.4 V,0,69424,69638,21.9,3.4,21.9,3.5 V,0,69638,70067,21.9,3.5,21.9,2.6 V,0,70067,70281,21.9,2.6,21.9,3.2 V,0,70281,70495,21.9,3.2,21.9,2.2 V,0,70495,70709,21.9,2.2,21.9,5.1 V,0,70709,70924,21.9,5.1,21.9,5.8 V,0,70924,71138,21.9,5.8,21.9,3.5 V,0,71138,71352,21.9,3.5,21.9,5.4 V,0,71352,71781,21.9,5.4,21.9,4.6 V,0,71781,71995,21.9,4.6,21.9,5.8 V,0,71995,72209,21.9,5.8,21.9,2.8 V,0,72209,72424,21.9,2.8,21.9,2.1 V,0,72424,72638,21.9,2.1,21.9,5.3 V,0,72638,72852,21.9,5.3,21.9,4.3 V,0,72852,73495,21.9,4.3,21.9,5.2 V,0,73495,73709,21.9,5.2,21.9,3.9 V,0,73709,73924,21.9,3.9,21.9,4.8 F,0,73710,74567,0.6,0 V,0,73924,74138,21.9,4.8,21.9,4.3 V,0,74138,74352,21.9,4.3,21.9,4.5
Sprite,Background,BottomCentre,"sb\bar.png",699.25,485 F,0,32567,,0.6 C,0,32567,,242,132,86 V,0,32567,32995,21.9,2.8,21.9,1.9 V,0,32995,33209,21.9,1.9,21.9,4 V,0,33209,33424,21.9,4,21.9,1.8 V,0,33424,33852,21.9,1.8,21.9,3 V,0,33852,34067,21.9,3,21.9,0.3 V,0,34067,34281,21.9,0.3,21.9,2.6 V,0,34281,34495,21.9,2.6,21.9,1.9 V,0,34495,34709,21.9,1.9,21.9,2.5 V,0,34709,34924,21.9,2.5,21.9,3.9 V,0,34924,35138,21.9,3.9,21.9,0.5 V,0,35138,35352,21.9,0.5,21.9,2.8 V,0,35781,36209,21.9,2.8,21.9,1.4 V,0,36209,36424,21.9,1.4,21.9,2.2 V,0,36424,36638,21.9,2.2,21.9,3.9 V,0,36638,36852,21.9,3.9,21.9,0.9 V,0,36852,37067,21.9,0.9,21.9,2.5 V,0,37067,37281,21.9,2.5,21.9,3.1 V,0,37281,37709,21.9,3.1,21.9,1.8 V,0,37709,38138,21.9,1.8,21.9,1.4 V,0,38138,38352,21.9,1.4,21.9,3.7 V,0,38352,38567,21.9,3.7,21.9,1 V,0,38567,38781,21.9,1,21.9,3.7 V,0,38995,39638,21.9,3.7,21.9,0.8 V,0,39638,39852,21.9,0.8,21.9,2.9 V,0,39852,40067,21.9,2.9,21.9,1.2 V,0,40067,40281,21.9,1.2,21.9,1.7 V,0,40281,40709,21.9,1.7,21.9,1.3 V,0,40709,40924,21.9,1.3,21.9,2.9 V,0,40924,41138,21.9,2.9,21.9,1.7 V,0,41138,41352,21.9,1.7,21.9,1.4 V,0,41352,41567,21.9,1.4,21.9,2 V,0,41567,41781,21.9,2,21.9,1.5 V,0,41781,42424,21.9,1.5,21.9,3.1 V,0,42424,42638,21.9,3.1,21.9,2.3 V,0,42638,43067,21.9,2.3,21.9,1.7 V,0,43067,43495,21.9,1.7,21.9,4.6 V,0,43495,43709,21.9,4.6,21.9,3.2 V,0,43709,43924,21.9,3.2,21.9,2.5 V,0,43924,44138,21.9,2.5,21.9,3.9 V,0,44138,44352,21.9,3.9,21.9,4.1 V,0,44352,44567,21.9,4.1,21.9,2.3 V,0,44567,44781,21.9,2.3,21.9,1.2 V,0,44781,44995,21.9,1.2,21.9,3.3 V,0,44995,45209,21.9,3.3,21.9,3.6 V,0,45209,45424,21.9,3.6,21.9,3.2 V,0,45424,45638,21.9,3.2,21.9,4.5 V,0,46067,46281,21.9,4.5,21.9,0.8 V,0,46281,46495,21.9,0.8,21.9,2.5 V,0,46495,47352,21.9,2.5,21.9,1.3 V,0,47352,47567,21.9,1.3,21.9,3.5 V,0,47567,47781,21.9,3.5,21.9,3.6 V,0,47781,47995,21.9,3.6,21.9,1.1 V,0,47995,48209,21.9,1.1,21.9,2.9 V,0,48209,48638,21.9,2.9,21.9,3.3 V,0,48638,48852,21.9,3.3,21.9,2.1 V,0,48852,49067,21.9,2.1,21.9,3.1 V,0,49067,49281,21.9,3.1,21.9,3.4 V,0,49281,49924,21.9,3.4,21.9,1.3 V,0,49924,50138,21.9,1.3,21.9,2.8 V,0,50138,50352,21.9,2.8,21.9,3.2 V,0,50352,50567,21.9,3.2,21.9,2 V,0,50567,50781,21.9,2,21.9,2.1 V,0,50781,50995,21.9,2.1,21.9,3.8 V,0,50995,51424,21.9,3.8,21.9,2.8 V,0,51424,51638,21.9,2.8,21.9,1.7 V,0,51638,51852,21.9,1.7,21.9,2.9 V,0,51852,52067,21.9,2.9,21.9,3.4 V,0,52067,52281,21.9,3.4,21.9,2.2 V,0,52281,52495,21.9,2.2,21.9,3.7 V,0,52495,52924,21.9,3.7,21.9,3.2 V,0,52924,53138,21.9,3.2,21.9,1.9 V,0,53138,53567,21.9,1.9,21.9,2.7 V,0,53567,53995,21.9,2.7,21.9,2 V,0,53995,54209,21.9,2,21.9,3 V,0,54209,54424,21.9,3,21.9,0.5 V,0,54424,54638,21.9,0.5,21.9,2.4 V,0,54638,54852,21.9,2.4,21.9,2.9 V,0,54852,55067,21.9,2.9,21.9,1.6 V,0,55067,55281,21.9,1.6,21.9,1.5 V,0,55281,55495,21.9,1.5,21.9,2.6 V,0,55495,55709,21.9,2.6,21.9,1.7 V,0,55924,56138,21.9,1.7,21.9,3.4 V,0,56138,56567,21.9,3.4,21.9,2.1 V,0,56567,56781,21.9,2.1,21.9,3.4 V,0,56781,57424,21.9,3.4,21.9,2.5 V,0,57424,57638,21.9,2.5,21.9,3.8 V,0,57638,57852,21.9,3.8,21.9,2.2 V,0,57852,58067,21.9,2.2,21.9,1.4 V,0,58067,58281,21.9,1.4,21.9,3.9 V,0,58281,58495,21.9,3.9,21.9,1.9 V,0,58495,58924,21.9,1.9,21.9,3.3 V,0,58924,59138,21.9,3.3,21.9,1.1 V,0,59138,59352,21.9,1.1,21.9,3.8 V,0,59352,59567,21.9,3.8,21.9,1.7 V,0,59567,59781,21.9,1.7,21.9,4 V,0,59781,59995,21.9,4,21.9,2.4 V,0,59995,60209,21.9,2.4,21.9,3.8 V,0,60209,60638,21.9,3.8,21.9,2.8 V,0,60638,60852,21.9,2.8,21.9,3.6 V,0,60852,61067,21.9,3.6,21.9,0.9 V,0,61067,61281,21.9,0.9,21.9,4 V,0,61281,61495,21.9,4,21.9,1.6 V,0,61495,61709,21.9,1.6,21.9,2.1 V,0,61709,61924,21.9,2.1,21.9,4 V,0,61924,62138,21.9,4,21.9,3 V,0,62138,62352,21.9,3,21.9,3.8 V,0,62352,62567,21.9,3.8,21.9,1.7 V,0,62567,62781,21.9,1.7,21.9,3.1 V,0,62781,62995,21.9,3.1,21.9,3.5 V,0,62995,63209,21.9,3.5,21.9,3.4 V,0,63209,63424,21.9,3.4,21.9,1.8 V,0,63424,63638,21.9,1.8,21.9,2.6 V,0,63638,63852,21.9,2.6,21.9,4.1 V,0,63852,64495,21.9,4.1,21.9,3.7 V,0,64495,64924,21.9,3.7,21.9,4.4 V,0,64924,65138,21.9,4.4,21.9,0.3 V,0,65138,65567,21.9,0.3,21.9,3.4 V,0,65567,65781,21.9,3.4,21.9,2.5 V,0,65781,65995,21.9,2.5,21.9,2.9 V,0,65995,66209,21.9,2.9,21.9,4.1 V,0,66209,66638,21.9,4.1,21.9,3.6 V,0,66638,66852,21.9,3.6,21.9,1.3 V,0,66852,67067,21.9,1.3,21.9,1.9 V,0,67067,67281,21.9,1.9,21.9,4.3 V,0,67281,67709,21.9,4.3,21.9,2.7 V,0,67709,68138,21.9,2.7,21.9,4.5 V,0,68138,68352,21.9,4.5,21.9,1.6 V,0,68352,68567,21.9,1.6,21.9,1.3 V,0,68567,68781,21.9,1.3,21.9,4.9 V,0,68781,68995,21.9,4.9,21.9,3.3 V,0,68995,69209,21.9,3.3,21.9,2.9 V,0,69209,69424,21.9,2.9,21.9,3.1 V,0,69424,69638,21.9,3.1,21.9,2 V,0,69638,69852,21.9,2,21.9,4.2 V,0,69852,70281,21.9,4.2,21.9,1.8 V,0,70495,70709,21.9,1.8,21.9,4.4 V,0,70709,70924,21.9,4.4,21.9,2.5 V,0,70924,71567,21.9,2.5,21.9,5 V,0,71567,71781,21.9,5,21.9,3.2 V,0,71781,71995,21.9,3.2,21.9,3.5 V,0,71995,72209,21.9,3.5,21.9,1.8 V,0,72209,72424,21.9,1.8,21.9,3.6 V,0,72424,72638,21.9,3.6,21.9,4.4 V,0,72638,72852,21.9,4.4,21.9,1.8 V,0,72852,73281,21.9,1.8,21.9,4.2 V,0,73281,73495,21.9,4.2,21.9,1.9 V,0,73495,73709,21.9,1.9,21.9,1.5 V,0,73709,73924,21.9,1.5,21.9,0.3 F,0,73710,74567,0.6,0 V,0,73924,74138,21.9,0.3,21.9,3.1 V,0,74138,74352,21.9,3.1,21.9,2.5
Sprite,Background,BottomCentre,"sb\bar.png",752,485 F,0,32567,,0.6 C,0,32567,,242,132,86 V,0,32567,32781,21.9,6.2,21.9,5.1 V,0,32781,32995,21.9,5.1,21.9,7 V,0,32995,33424,21.9,7,21.9,6.1 V,0,33424,33638,21.9,6.1,21.9,6.7 V,0,33852,34067,21.9,6.7,21.9,5.8 V,0,34067,34281,21.9,5.8,21.9,6.7 V,0,34281,34495,21.9,6.7,21.9,4.7 V,0,34495,34709,21.9,4.7,21.9,5.3 V,0,34709,34924,21.9,5.3,21.9,5 V,0,34924,35138,21.9,5,21.9,6.3 V,0,35138,35352,21.9,6.3,21.9,5.2 V,0,35352,35567,21.9,5.2,21.9,6.8 V,0,35567,35781,21.9,6.8,21.9,4.4 V,0,35781,35995,21.9,4.4,21.9,3.1 V,0,35995,36424,21.9,3.1,21.9,4.7 V,0,36424,36638,21.9,4.7,21.9,6.3 V,0,36638,36852,21.9,6.3,21.9,4.8 V,0,36852,37067,21.9,4.8,21.9,4.1 V,0,37067,37495,21.9,4.1,21.9,5 V,0,37495,37709,21.9,5,21.9,2.6 V,0,37709,37924,21.9,2.6,21.9,2.4 V,0,37924,38138,21.9,2.4,21.9,2.9 V,0,38138,38352,21.9,2.9,21.9,2 V,0,38352,38781,21.9,2,21.9,4.6 V,0,38781,39209,21.9,4.6,21.9,2.4 V,0,39209,39424,21.9,2.4,21.9,2.2 V,0,39424,39638,21.9,2.2,21.9,3 V,0,39638,39852,21.9,3,21.9,4.5 V,0,39852,40281,21.9,4.5,21.9,3.1 V,0,40281,40495,21.9,3.1,21.9,4 V,0,40495,40709,21.9,4,21.9,2.3 V,0,40709,40924,21.9,2.3,21.9,4 V,0,40924,41138,21.9,4,21.9,3.5 V,0,41138,41352,21.9,3.5,21.9,1.9 V,0,41352,41567,21.9,1.9,21.9,2.5 V,0,41567,41781,21.9,2.5,21.9,2.4 V,0,41781,41995,21.9,2.4,21.9,1.4 V,0,41995,42424,21.9,1.4,21.9,4.2 V,0,42638,42852,21.9,4.2,21.9,0.5 V,0,42852,43067,21.9,0.5,21.9,4.1 V,0,43067,43709,21.9,4.1,21.9,2.2 V,0,43709,43924,21.9,2.2,21.9,3.3 V,0,43924,44138,21.9,3.3,21.9,1.5 V,0,44138,44567,21.9,1.5,21.9,2.5 V,0,44567,45209,21.9,2.5,21.9,1.1 V,0,45209,45424,21.9,1.1,21.9,2.5 V,0,45424,45638,21.9,2.5,21.9,2.7 V,0,45638,45852,21.9,2.7,21.9,1.6 V,0,45852,46067,21.9,1.6,21.9,3.4 V,0,46067,46281,21.9,3.4,21.9,6.5 V,0,46281,46495,21.9,6.5,21.9,5.8 V,0,46495,46709,21.9,5.8,21.9,6.9 V,0,46709,47138,21.9,6.9,21.9,6.1 V,0,47138,47567,21.9,6.1,21.9,7.1 V,0,47567,48424,21.9,7.1,21.9,5.1 V,0,48424,48638,21.9,5.1,21.9,6.2 V,0,48638,48852,21.9,6.2,21.9,4.4 V,0,48852,49281,21.9,4.4,21.9,6.3 V,0,49281,49495,21.9,6.3,21.9,6 V,0,49495,49709,21.9,6,21.9,3.5 V,0,49709,49924,21.9,3.5,21.9,5 V,0,49924,50138,21.9,5,21.9,5.1 V,0,50138,50352,21.9,5.1,21.9,5.8 V,0,50352,50567,21.9,5.8,21.9,1.8 V,0,50567,50781,21.9,1.8,21.9,4.9 V,0,50781,50995,21.9,4.9,21.9,5.3 V,0,50995,51209,21.9,5.3,21.9,4.5 V,0,51209,51424,21.9,4.5,21.9,4.6 V,0,51424,51638,21.9,4.6,21.9,3.3 V,0,51638,51852,21.9,3.3,21.9,3.9 V,0,51852,52281,21.9,3.9,21.9,2.6 V,0,52281,52495,21.9,2.6,21.9,4.3 V,0,52495,52924,21.9,4.3,21.9,3.2 V,0,52924,53138,21.9,3.2,21.9,2.1 V,0,53138,53352,21.9,2.1,21.9,3 V,0,53352,53567,21.9,3,21.9,4.6 V,0,53567,53781,21.9,4.6,21.9,1.5 V,0,53781,53995,21.9,1.5,21.9,4.1 V,0,53995,54209,21.9,4.1,21.9,3.4 V,0,54209,54424,21.9,3.4,21.9,3.3 V,0,54424,54638,21.9,3.3,21.9,4.8 V,0,54638,54852,21.9,4.8,21.9,4.5 V,0,54852,55067,21.9,4.5,21.9,1.6 V,0,55067,55281,21.9,1.6,21.9,1.3 V,0,55281,55495,21.9,1.3,21.9,3.7 V,0,55495,55709,21.9,3.7,21.9,1.6 V,0,55709,55924,21.9,1.6,21.9,2.7 V,0,55924,56138,21.9,2.7,21.9,2.1 V,0,56138,56352,21.9,2.1,21.9,6.7 V,0,56352,56781,21.9,6.7,21.9,1.5 V,0,56781,56995,21.9,1.5,21.9,3.9 V,0,56995,57209,21.9,3.9,21.9,2.2 V,0,57209,57424,21.9,2.2,21.9,3.8 V,0,57424,57638,21.9,3.8,21.9,3.4 V,0,57638,57852,21.9,3.4,21.9,4 V,0,57852,58067,21.9,4,21.9,3.8 V,0,58067,58281,21.9,3.8,21.9,3.4 V,0,58281,58495,21.9,3.4,21.9,1.7 V,0,58495,58709,21.9,1.7,21.9,2.9 V,0,58709,58924,21.9,2.9,21.9,3.4 V,0,58924,59138,21.9,3.4,21.9,2.3 V,0,59138,59352,21.9,2.3,21.9,2.4 V,0,59352,59567,21.9,2.4,21.9,3.5 V,0,59567,59781,21.9,3.5,21.9,2.5 V,0,59781,59995,21.9,2.5,21.9,3.8 V,0,59995,60209,21.9,3.8,21.9,2.1 V,0,60209,60424,21.9,2.1,21.9,3.3 V,0,60424,60638,21.9,3.3,21.9,2.6 V,0,60638,61281,21.9,2.6,21.9,4 V,0,61281,61495,21.9,4,21.9,1.1 V,0,61495,61924,21.9,1.1,21.9,2 V,0,61924,62352,21.9,2,21.9,0.8 V,0,62352,62567,21.9,0.8,21.9,1.9 V,0,62567,62781,21.9,1.9,21.9,4 V,0,62781,62995,21.9,4,21.9,2.5 V,0,62995,63209,21.9,2.5,21.9,1.5 V,0,63209,63424,21.9,1.5,21.9,1.4 V,0,63424,63638,21.9,1.4,21.9,2.7 V,0,63638,63852,21.9,2.7,21.9,3.2 V,0,63852,64067,21.9,3.2,21.9,2.9 V,0,64067,64281,21.9,2.9,21.9,1.8 V,0,64281,65138,21.9,1.8,21.9,2 V,0,65138,65352,21.9,2,21.9,2.1 V,0,65352,65567,21.9,2.1,21.9,3.5 V,0,65567,65781,21.9,3.5,21.9,3.9 V,0,65781,66209,21.9,3.9,21.9,2.1 V,0,66209,66424,21.9,2.1,21.9,3 V,0,66424,66638,21.9,3,21.9,1.6 V,0,66638,67067,21.9,1.6,21.9,2.3 V,0,67067,67281,21.9,2.3,21.9,2.1 V,0,67281,67495,21.9,2.1,21.9,1.2 V,0,67495,67709,21.9,1.2,21.9,1.6 V,0,67709,67924,21.9,1.6,21.9,0.6 V,0,67924,68138,21.9,0.6,21.9,1.8 V,0,68138,68567,21.9,1.8,21.9,0.4 V,0,68567,68781,21.9,0.4,21.9,3 V,0,68781,68995,21.9,3,21.9,0.4 V,0,68995,69209,21.9,0.4,21.9,1 V,0,69209,69424,21.9,1,21.9,3.1 V,0,69424,70067,21.9,3.1,21.9,2.3 V,0,70067,70281,21.9,2.3,21.9,3.7 V,0,70281,70495,21.9,3.7,21.9,3.9 V,0,70495,70709,21.9,3.9,21.9,3 V,0,70709,70924,21.9,3,21.9,3.5 V,0,70924,71138,21.9,3.5,21.9,1.2 V,0,71138,71567,21.9,1.2,21.9,3.1 V,0,71567,71781,21.9,3.1,21.9,2.4 V,0,71781,71995,21.9,2.4,21.9,3.1 V,0,71995,72209,21.9,3.1,21.9,1.3 V,0,72209,72424,21.9,1.3,21.9,0.7 V,0,72424,72638,21.9,0.7,21.9,2.7 V,0,72638,72852,21.9,2.7,21.9,3.4 V,0,72852,73067,21.9,3.4,21.9,2.7 V,0,73067,73281,21.9,2.7,21.9,4.3 V,0,73281,73495,21.9,4.3,21.9,2.3 V,0,73495,73709,21.9,2.3,21.9,1.4 V,0,73709,73924,21.9,1.4,21.9,2 F,0,73710,74567,0.6,0 V,0,73924,74138,21.9,2,21.9,1.4 V,0,74138,74352,21.9,1.4,21.9,1.6
Sprite,Background,BottomCentre,"sb\bar.png",804.75,485 F,0,32567,,0.6 C,0,32567,,242,132,86 V,0,32567,32781,21.9,2.3,21.9,0.8 V,0,32781,32995,21.9,0.8,21.9,2.5 V,0,32995,33209,21.9,2.5,21.9,1.2 V,0,33209,33424,21.9,1.2,21.9,2.1 V,0,33424,33638,21.9,2.1,21.9,1.4 V,0,33638,33852,21.9,1.4,21.9,1.7 V,0,33852,34067,21.9,1.7,21.9,1.4 V,0,34067,34281,21.9,1.4,21.9,2.1 V,0,34281,34495,21.9,2.1,21.9,0.9 V,0,34495,34709,21.9,0.9,21.9,1.1 V,0,34709,34924,21.9,1.1,21.9,2 V,0,34924,35138,21.9,2,21.9,1 V,0,35138,35567,21.9,1,21.9,2.8 V,0,35567,35781,21.9,2.8,21.9,2.3 V,0,35781,35995,21.9,2.3,21.9,0.5 V,0,35995,36209,21.9,0.5,21.9,2 V,0,36209,36424,21.9,2,21.9,1.9 V,0,36424,36638,21.9,1.9,21.9,0.5 V,0,36638,37067,21.9,0.5,21.9,2.1 V,0,37067,37495,21.9,2.1,21.9,2.5 V,0,37495,37709,21.9,2.5,21.9,0.4 V,0,37709,37924,21.9,0.4,21.9,1.4 V,0,38352,38567,21.9,1.4,21.9,0.6 V,0,38567,38781,21.9,0.6,21.9,2 V,0,38781,38995,21.9,2,21.9,4.8 V,0,38995,39209,21.9,4.8,21.9,3.3 V,0,39209,39424,21.9,3.3,21.9,3 V,0,39424,39852,21.9,3,21.9,4.6 V,0,39852,40067,21.9,4.6,21.9,3.6 V,0,40067,41138,21.9,3.6,21.9,3.7 V,0,41138,41352,21.9,3.7,21.9,1.6 V,0,41352,41567,21.9,1.6,21.9,1.5 V,0,41567,41781,21.9,1.5,21.9,4.4 V,0,41781,42209,21.9,4.4,21.9,0.9 V,0,42209,42424,21.9,0.9,21.9,2.8 V,0,42424,43067,21.9,2.8,21.9,3.6 V,0,43067,43281,21.9,3.6,21.9,2.9 V,0,43281,43495,21.9,2.9,21.9,4.1 V,0,43495,43924,21.9,4.1,21.9,2.8 V,0,43924,44138,21.9,2.8,21.9,4.7 V,0,44138,44352,21.9,4.7,21.9,3.4 V,0,44352,44567,21.9,3.4,21.9,3.2 V,0,44567,44781,21.9,3.2,21.9,2.1 V,0,44781,44995,21.9,2.1,21.9,0.1 V,0,44995,45209,21.9,0.1,21.9,2.9 V,0,45209,45424,21.9,2.9,21.9,3.1 V,0,45424,45852,21.9,3.1,21.9,2 V,0,45852,46067,21.9,2,21.9,2.9 V,0,46067,46281,21.9,2.9,21.9,2.5 V,0,46281,46495,21.9,2.5,21.9,1.6 V,0,46495,47138,21.9,1.6,21.9,1.4 V,0,47138,47352,21.9,1.4,21.9,0.7 V,0,47352,47567,21.9,0.7,21.9,2.7 V,0,47567,47995,21.9,2.7,21.9,2.2 V,0,47995,48424,21.9,2.2,21.9,1 V,0,48424,48638,21.9,1,21.9,2.7 V,0,48638,48852,21.9,2.7,21.9,1.9 V,0,48852,49067,21.9,1.9,21.9,3.2 V,0,49067,49281,21.9,3.2,21.9,2.8 V,0,49281,49709,21.9,2.8,21.9,1.1 V,0,49709,50352,21.9,1.1,21.9,2.4 V,0,50352,50781,21.9,2.4,21.9,0.8 V,0,50781,51209,21.9,0.8,21.9,2.1 V,0,51209,51424,21.9,2.1,21.9,0.8 V,0,51424,51638,21.9,0.8,21.9,1.3 V,0,51638,51852,21.9,1.3,21.9,0.7 V,0,51852,52067,21.9,0.7,21.9,1.3 V,0,52067,52709,21.9,1.3,21.9,1.4 V,0,52709,52924,21.9,1.4,21.9,2 V,0,52924,53138,21.9,2,21.9,3.5 V,0,53567,53781,21.9,3.5,21.9,4.4 V,0,53781,53995,21.9,4.4,21.9,2.7 V,0,53995,54209,21.9,2.7,21.9,2.6 V,0,54209,54852,21.9,2.6,21.9,3 V,0,54852,55281,21.9,3,21.9,2.4 V,0,55281,55495,21.9,2.4,21.9,3.8 V,0,55495,55709,21.9,3.8,21.9,1.4 V,0,55709,55924,21.9,1.4,21.9,3.1 V,0,56352,56781,21.9,3.1,21.9,4.5 V,0,56781,56995,21.9,4.5,21.9,3.3 V,0,56995,57209,21.9,3.3,21.9,4 V,0,57209,57424,21.9,4,21.9,2.1 V,0,57424,57638,21.9,2.1,21.9,4 V,0,57638,57852,21.9,4,21.9,3.8 V,0,57852,58067,21.9,3.8,21.9,0.3 V,0,58067,58281,21.9,0.3,21.9,4 V,0,58281,58495,21.9,4,21.9,0.9 V,0,58495,58709,21.9,0.9,21.9,2.5 V,0,58709,58924,21.9,2.5,21.9,2.6 V,0,58924,59138,21.9,2.6,21.9,3.5 V,0,59138,59352,21.9,3.5,21.9,2.9 V,0,59352,59567,21.9,2.9,21.9,3 V,0,59567,59781,21.9,3,21.9,4.9 V,0,59781,59995,21.9,4.9,21.9,2.2 V,0,59995,60209,21.9,2.2,21.9,2.7 V,0,60209,60424,21.9,2.7,21.9,1.2 V,0,60424,60638,21.9,1.2,21.9,3 V,0,60638,60852,21.9,3,21.9,0.6 V,0,60852,61067,21.9,0.6,21.9,1.6 V,0,61067,61281,21.9,1.6,21.9,1.2 V,0,61281,61709,21.9,1.2,21.9,1.9 V,0,61709,61924,21.9,1.9,21.9,2.7 V,0,61924,62138,21.9,2.7,21.9,1.9 V,0,62138,62567,21.9,1.9,21.9,1.5 V,0,62567,62781,21.9,1.5,21.9,1.6 V,0,62781,62995,21.9,1.6,21.9,2.5 V,0,62995,63424,21.9,2.5,21.9,0.4 V,0,63424,63638,21.9,0.4,21.9,0.5 V,0,63638,64067,21.9,0.5,21.9,2.9 V,0,64067,64495,21.9,2.9,21.9,1.2 V,0,64495,64709,21.9,1.2,21.9,2.5 V,0,64709,64924,21.9,2.5,21.9,2.1 V,0,64924,65138,21.9,2.1,21.9,3.3 V,0,65138,65352,21.9,3.3,21.9,1 V,0,65352,65781,21.9,1,21.9,3.1 V,0,65781,65995,21.9,3.1,21.9,2.4 V,0,65995,66209,21.9,2.4,21.9,1.1 V,0,66424,66638,21.9,1.1,21.9,3.3 V,0,66638,66852,21.9,3.3,21.9,1.5 V,0,66852,67067,21.9,1.5,21.9,1.2 V,0,67067,67281,21.9,1.2,21.9,2.2 V,0,67281,67495,21.9,2.2,21.9,1 V,0,67709,67924,21.9,1,21.9,2.3 V,0,67924,68567,21.9,2.3,21.9,0.6 V,0,68567,68995,21.9,0.6,21.9,0.5 V,0,68995,69209,21.9,0.5,21.9,1.4 V,0,69209,69638,21.9,1.4,21.9,1.2 V,0,69638,69852,21.9,1.2,21.9,2.1 V,0,69852,70067,21.9,2.1,21.9,0.6 V,0,70067,70281,21.9,0.6,21.9,3.2 V,0,70281,70495,21.9,3.2,21.9,4.1 V,0,70495,70709,21.9,4.1,21.9,1 V,0,70709,70924,21.9,1,21.9,3.1 V,0,70924,71567,21.9,3.1,21.9,4.1 V,0,71567,72209,21.9,4.1,21.9,2.1 V,0,72209,72424,21.9,2.1,21.9,3.3 V,0,72424,73067,21.9,3.3,21.9,1.2 V,0,73067,73495,21.9,1.2,21.9,2.7 V,0,73495,73709,21.9,2.7,21.9,1.8 V,0,73709,74138,21.9,1.8,21.9,3.8 F,0,73710,74567,0.6,0 V,0,74138,74352,21.9,3.8,21.9,3.6
Sprite,Background,BottomCentre,"sb\bar.png",857.5,485 F,0,32567,,0.6 C,0,32567,,242,132,86 V,0,32567,32995,21.9,0.2,21.9,2.4 V,0,32995,33209,21.9,2.4,21.9,1.8 V,0,33209,33424,21.9,1.8,21.9,1.9 V,0,33424,33638,21.9,1.9,21.9,2.9 V,0,33638,34067,21.9,2.9,21.9,2.8 V,0,34067,34281,21.9,2.8,21.9,1.6 V,0,34281,34709,21.9,1.6,21.9,0.4 V,0,34709,34924,21.9,0.4,21.9,3.2 V,0,34924,35138,21.9,3.2,21.9,1.8 V,0,35138,35352,21.9,1.8,21.9,2 V,0,35352,35567,21.9,2,21.9,4.5 V,0,35567,35781,21.9,4.5,21.9,4 V,0,35781,35995,21.9,4,21.9,2.4 V,0,35995,36209,21.9,2.4,21.9,3.1 V,0,36209,36424,21.9,3.1,21.9,1.3 V,0,36424,36638,21.9,1.3,21.9,2.1 V,0,36638,36852,21.9,2.1,21.9,1.6 V,0,36852,37067,21.9,1.6,21.9,2.4 V,0,37067,37709,21.9,2.4,21.9,2.7 V,0,37709,37924,21.9,2.7,21.9,1.1 V,0,37924,38138,21.9,1.1,21.9,2.3 V,0,38138,38567,21.9,2.3,21.9,2.8 V,0,38567,38781,21.9,2.8,21.9,2.5 V,0,38781,38995,21.9,2.5,21.9,3.8 V,0,38995,39209,21.9,3.8,21.9,1.3 V,0,39209,39424,21.9,1.3,21.9,2.9 V,0,39424,39638,21.9,2.9,21.9,2.3 V,0,39638,39852,21.9,2.3,21.9,3.9 V,0,39852,40067,21.9,3.9,21.9,4.3 V,0,40067,40281,21.9,4.3,21.9,3.2 V,0,40281,40495,21.9,3.2,21.9,4.1 V,0,40495,40709,21.9,4.1,21.9,3.6 V,0,40709,41138,21.9,3.6,21.9,4.4 V,0,41138,41352,21.9,4.4,21.9,1.3 V,0,41352,41567,21.9,1.3,21.9,3.6 V,0,41567,41781,21.9,3.6,21.9,2.5 V,0,41781,42209,21.9,2.5,21.9,2.2 V,0,42209,42424,21.9,2.2,21.9,2.6 V,0,42424,42638,21.9,2.6,21.9,4.3 V,0,42638,42852,21.9,4.3,21.9,3.1 V,0,42852,43281,21.9,3.1,21.9,3.5 V,0,43281,43495,21.9,3.5,21.9,4.2 V,0,43495,43709,21.9,4.2,21.9,3.2 V,0,43709,44138,21.9,3.2,21.9,4.1 V,0,44138,44352,21.9,4.1,21.9,2 V,0,44352,44567,21.9,2,21.9,3.6 V,0,44567,44781,21.9,3.6,21.9,2.6 V,0,44781,44995,21.9,2.6,21.9,0.6 V,0,44995,45209,21.9,0.6,21.9,3.5 V,0,45209,45424,21.9,3.5,21.9,1.6 V,0,45424,45638,21.9,1.6,21.9,2.4 V,0,45638,45852,21.9,2.4,21.9,2.7 V,0,45852,46281,21.9,2.7,21.9,0.5 V,0,46281,46495,21.9,0.5,21.9,2.5 V,0,46495,46924,21.9,2.5,21.9,2.9 V,0,46924,47138,21.9,2.9,21.9,2 V,0,47138,47781,21.9,2,21.9,3.2 V,0,47781,47995,21.9,3.2,21.9,2.8 V,0,47995,48209,21.9,2.8,21.9,0.9 V,0,48209,48424,21.9,0.9,21.9,0.6 V,0,48424,48638,21.9,0.6,21.9,2.6 V,0,48638,48852,21.9,2.6,21.9,0.4 V,0,48852,49067,21.9,0.4,21.9,2.5 V,0,49067,49281,21.9,2.5,21.9,3.9 V,0,49281,49495,21.9,3.9,21.9,4.1 V,0,49495,49709,21.9,4.1,21.9,2.2 V,0,49709,50567,21.9,2.2,21.9,2.8 V,0,50567,50781,21.9,2.8,21.9,0.8 V,0,50781,51209,21.9,0.8,21.9,3.1 V,0,51209,51424,21.9,3.1,21.9,0.8 V,0,51424,51638,21.9,0.8,21.9,1.5 V,0,51638,51852,21.9,1.5,21.9,1.3 V,0,51852,52281,21.9,1.3,21.9,2.2 V,0,52281,52495,21.9,2.2,21.9,1.3 V,0,52495,52709,21.9,1.3,21.9,1.7 V,0,52709,52924,21.9,1.7,21.9,4.3 V,0,52924,53138,21.9,4.3,21.9,3.1 V,0,53138,53352,21.9,3.1,21.9,2.6 V,0,53352,53567,21.9,2.6,21.9,3.8 V,0,53567,53781,21.9,3.8,21.9,4 V,0,53781,53995,21.9,4,21.9,2.8 V,0,53995,54209,21.9,2.8,21.9,4.3 V,0,54209,54424,21.9,4.3,21.9,3.4 V,0,54424,54638,21.9,3.4,21.9,4.5 V,0,54638,54852,21.9,4.5,21.9,1.6 V,0,54852,55067,21.9,1.6,21.9,0.9 V,0,55067,55281,21.9,0.9,21.9,2.7 V,0,55281,55495,21.9,2.7,21.9,2.9 V,0,55495,55709,21.9,2.9,21.9,2 V,0,55709,55924,21.9,2,21.9,2.1 V,0,55924,56138,21.9,2.1,21.9,3.1 V,0,56138,56352,21.9,3.1,21.9,1.5 V,0,56352,56781,21.9,1.5,21.9,3.3 V,0,56781,56995,21.9,3.3,21.9,3.6 V,0,56995,57209,21.9,3.6,21.9,3.3 V,0,57209,57424,21.9,3.3,21.9,2 V,0,57424,57638,21.9,2,21.9,4.2 V,0,57638,58067,21.9,4.2,21.9,2.7 V,0,58067,58281,21.9,2.7,21.9,2.5 V,0,58281,58495,21.9,2.5,21.9,1.3 V,0,58495,58924,21.9,1.3,21.9,2.5 V,0,58924,59352,21.9,2.5,21.9,1.6 V,0,59352,59567,21.9,1.6,21.9,3.1 V,0,59567,59781,21.9,3.1,21.9,3.5 V,0,59781,59995,21.9,3.5,21.9,0.5 V,0,59995,60424,21.9,0.5,21.9,3 V,0,60424,60638,21.9,3,21.9,2 V,0,60638,60852,21.9,2,21.9,2.8 V,0,60852,61495,21.9,2.8,21.9,1.3 V,0,61495,61924,21.9,1.3,21.9,2.5 V,0,61924,62138,21.9,2.5,21.9,0.3 V,0,62138,62352,21.9,0.3,21.9,2.4 V,0,62352,62567,21.9,2.4,21.9,2 V,0,62567,62781,21.9,2,21.9,2.9 V,0,62781,63209,21.9,2.9,21.9,3.5 V,0,63209,63638,21.9,3.5,21.9,2.1 V,0,63852,64067,21.9,2.1,21.9,3.1 V,0,64067,64281,21.9,3.1,21.9,3.3 V,0,64281,64495,21.9,3.3,21.9,3.2 V,0,64495,64709,21.9,3.2,21.9,2.2 V,0,64709,64924,21.9,2.2,21.9,3.5 V,0,64924,65138,21.9,3.5,21.9,2.7 V,0,65138,65352,21.9,2.7,21.9,0.8 V,0,65352,65567,21.9,0.8,21.9,2.2 V,0,65567,65995,21.9,2.2,21.9,1.3 V,0,65995,66209,21.9,1.3,21.9,2.3 V,0,66209,66424,21.9,2.3,21.9,1.1 V,0,66424,66638,21.9,1.1,21.9,3.2 V,0,66638,67067,21.9,3.2,21.9,1.2 V,0,67067,67495,21.9,1.2,21.9,2.7 V,0,67495,67709,21.9,2.7,21.9,1.4 V,0,67709,67924,21.9,1.4,21.9,2.2 V,0,67924,68138,21.9,2.2,21.9,2.3 V,0,68138,68352,21.9,2.3,21.9,1.3 V,0,68352,68781,21.9,1.3,21.9,2.2 V,0,68781,68995,21.9,2.2,21.9,1.2 V,0,68995,69209,21.9,1.2,21.9,1.1 V,0,69209,69638,21.9,1.1,21.9,2.8 V,0,69638,70067,21.9,2.8,21.9,1.6 V,0,70067,70281,21.9,1.6,21.9,2 V,0,70281,70495,21.9,2,21.9,1.1 V,0,70495,70924,21.9,1.1,21.9,3.4 V,0,70924,71138,21.9,3.4,21.9,1.7 V,0,71138,71352,21.9,1.7,21.9,2.8 V,0,71352,71567,21.9,2.8,21.9,2.5 V,0,71567,71781,21.9,2.5,21.9,3 V,0,71781,71995,21.9,3,21.9,1.7 V,0,71995,72424,21.9,1.7,21.9,2.3 V,0,72424,72638,21.9,2.3,21.9,3.2 V,0,72638,72852,21.9,3.2,21.9,1.6 V,0,72852,73067,21.9,1.6,21.9,3.1 V,0,73067,73281,21.9,3.1,21.9,2.4 V,0,73281,73709,21.9,2.4,21.9,2.2 V,0,73709,74138,21.9,2.2,21.9,4.3 F,0,73710,74567,0.6,0 V,0,74138,74352,21.9,4.3,21.9,3.7
Sprite,Background,BottomCentre,"sb\bar.png",910.25,485 F,0,32567,,0.6 C,0,32567,,242,132,86 V,0,32567,32781,21.9,0.3,21.9,0.1 V,0,32781,32995,21.9,0.1,21.9,0.7 V,0,32995,33209,21.9,0.7,21.9,0.5 V,0,33209,33424,21.9,0.5,21.9,2.4 V,0,33424,33638,21.9,2.4,21.9,1.4 V,0,33852,34067,21.9,1.4,21.9,0.4 V,0,34067,34495,21.9,0.4,21.9,0.2 V,0,34495,34709,21.9,0.2,21.9,0.7 V,0,34709,34924,21.9,0.7,21.9,0.1 V,0,34924,35138,21.9,0.1,21.9,2.8 V,0,35138,35352,21.9,2.8,21.9,0.3 V,0,35352,35567,21.9,0.3,21.9,0.2 V,0,35567,35781,21.9,0.2,21.9,1.2 V,0,35781,35995,21.9,1.2,21.9,0.3 V,0,35995,36209,21.9,0.3,21.9,1.5 V,0,36209,36424,21.9,1.5,21.9,2.1 V,0,36424,36638,21.9,2.1,21.9,1.9 V,0,36638,36852,21.9,1.9,21.9,2.8 V,0,37067,37281,21.9,2.8,21.9,1.1 V,0,37281,37495,21.9,1.1,21.9,0.7 V,0,37495,37709,21.9,0.7,21.9,1.5 V,0,37709,37924,21.9,1.5,21.9,0.8 V,0,37924,38352,21.9,0.8,21.9,1.6 V,0,38352,38567,21.9,1.6,21.9,2.7 V,0,38567,38995,21.9,2.7,21.9,1 V,0,38995,39209,21.9,1,21.9,1.2 V,0,39209,39424,21.9,1.2,21.9,0.5 V,0,39424,40067,21.9,0.5,21.9,2 V,0,40067,40281,21.9,2,21.9,3.2 V,0,40281,40495,21.9,3.2,21.9,0.8 V,0,40495,40709,21.9,0.8,21.9,1.1 V,0,40709,40924,21.9,1.1,21.9,0.8 V,0,40924,41138,21.9,0.8,21.9,1.3 V,0,41138,41352,21.9,1.3,21.9,0.5 V,0,41352,41781,21.9,0.5,21.9,1.6 V,0,41781,41995,21.9,1.6,21.9,2.6 V,0,41995,42209,21.9,2.6,21.9,1.4 V,0,42209,42424,21.9,1.4,21.9,1.3 V,0,42424,42638,21.9,1.3,21.9,0.3 V,0,42638,43495,21.9,0.3,21.9,1 V,0,43495,43709,21.9,1,21.9,3.2 V,0,43709,43924,21.9,3.2,21.9,3.3 V,0,43924,44138,21.9,3.3,21.9,1.1 V,0,44138,44352,21.9,1.1,21.9,0.8 V,0,44352,45209,21.9,0.8,21.9,0.7 V,0,45209,45424,21.9,0.7,21.9,2.9 V,0,45424,45638,21.9,2.9,21.9,0.8 V,0,45638,45852,21.9,0.8,21.9,0.5 V,0,45852,46067,21.9,0.5,21.9,1.1 V,0,46067,46281,21.9,1.1,21.9,0.3 V,0,46924,47138,21.9,0.3,21.9,3.1 V,0,47138,47352,21.9,3.1,21.9,0.6 V,0,47352,47781,21.9,0.6,21.9,0.1 V,0,47781,47995,21.9,0.1,21.9,1.2 V,0,47995,48209,21.9,1.2,21.9,1.1 V,0,48209,48424,21.9,1.1,21.9,0.2 V,0,48424,48638,21.9,0.2,21.9,1.3 V,0,48638,48852,21.9,1.3,21.9,3 V,0,48852,49067,21.9,3,21.9,0.7 V,0,49067,49281,21.9,0.7,21.9,0.3 V,0,49281,49709,21.9,0.3,21.9,0.2 V,0,49709,50138,21.9,0.2,21.9,1.5 V,0,50352,50567,21.9,1.5,21.9,3 V,0,50567,50995,21.9,3,21.9,0.8 V,0,50995,51852,21.9,0.8,21.9,1.2 V,0,51852,52281,21.9,1.2,21.9,2.9 V,0,52281,52495,21.9,2.9,21.9,1.6 V,0,52495,52924,21.9,1.6,21.9,1.3 V,0,52924,53138,21.9,1.3,21.9,0.4 V,0,53138,53781,21.9,0.4,21.9,2 V,0,53781,53995,21.9,2,21.9,3.2 V,0,53995,54209,21.9,3.2,21.9,1.1 V,0,54209,54424,21.9,1.1,21.9,1.6 V,0,54424,54638,21.9,1.6,21.9,0.7 V,0,54638,54852,21.9,0.7,21.9,1.3 V,0,54852,55067,21.9,1.3,21.9,0.6 V,0,55067,55281,21.9,0.6,21.9,1.7 V,0,55281,55495,21.9,1.7,21.9,1.5 V,0,55495,55709,21.9,1.5,21.9,3.1 V,0,55709,55924,21.9,3.1,21.9,1.6 V,0,55924,56567,21.9,1.6,21.9,0.5 V,0,56567,57209,21.9,0.5,21.9,0.6 V,0,57209,57424,21.9,0.6,21.9,3 V,0,57424,57638,21.9,3,21.9,2.9 V,0,57638,57852,21.9,2.9,21.9,0.9 V,0,57852,58924,21.9,0.9,21.9,0.3 V,0,58924,59138,21.9,0.3,21.9,3.2 V,0,59138,59352,21.9,3.2,21.9,0.8 V,0,60209,60638,21.9,0.8,21.9,1.5 V,0,60638,60852,21.9,1.5,21.9,2.7 V,0,60852,61495,21.9,2.7,21.9,0.4 V,0,61495,61924,21.9,0.4,21.9,1.8 V,0,61924,62138,21.9,1.8,21.9,0.7 V,0,62138,62352,21.9,0.7,21.9,1.3 V,0,62352,62567,21.9,1.3,21.9,2.8 V,0,62567,62781,21.9,2.8,21.9,1 V,0,62781,62995,21.9,1,21.9,0.7 V,0,62995,63209,21.9,0.7,21.9,1.4 V,0,63209,63638,21.9,1.4,21.9,0.7 V,0,63638,63852,21.9,0.7,21.9,1.3 V,0,63852,64067,21.9,1.3,21.9,0.8 V,0,64067,64281,21.9,0.8,21.9,3.2 V,0,64281,64495,21.9,3.2,21.9,1.5 V,0,64495,64709,21.9,1.5,21.9,0.8 V,0,64709,65138,21.9,0.8,21.9,1 V,0,65138,65352,21.9,1,21.9,0.3 V,0,65352,65567,21.9,0.3,21.9,1.2 V,0,65567,65781,21.9,1.2,21.9,0.9 V,0,65781,65995,21.9,0.9,21.9,2.9 V,0,65995,66209,21.9,2.9,21.9,1.4 V,0,66209,66424,21.9,1.4,21.9,1.6 V,0,66424,66638,21.9,1.6,21.9,0.8 V,0,66638,66852,21.9,0.8,21.9,0.7 V,0,66852,67281,21.9,0.7,21.9,1.2 V,0,67281,67495,21.9,1.2,21.9,0.5 V,0,67495,67709,21.9,0.5,21.9,2.9 V,0,67709,67924,21.9,2.9,21.9,1.4 V,0,67924,68138,21.9,1.4,21.9,1.2 V,0,68138,68352,21.9,1.2,21.9,0.3 V,0,68352,68567,21.9,0.3,21.9,1 V,0,68567,68995,21.9,1,21.9,0.3 V,0,68995,69209,21.9,0.3,21.9,0.5 V,0,69209,69424,21.9,0.5,21.9,2.7 V,0,69424,69638,21.9,2.7,21.9,1 V,0,69638,69852,21.9,1,21.9,0.5 V,0,69852,70067,21.9,0.5,21.9,0.9 V,0,70067,70281,21.9,0.9,21.9,0.3 V,0,70281,70495,21.9,0.3,21.9,1.3 V,0,70495,70709,21.9,1.3,21.9,0.2 V,0,70709,70924,21.9,0.2,21.9,0.3 V,0,70924,71138,21.9,0.3,21.9,3.2 V,0,71138,71352,21.9,3.2,21.9,0.5 V,0,71352,71567,21.9,0.5,21.9,1.3 V,0,71567,71781,21.9,1.3,21.9,1.4 V,0,71781,72209,21.9,1.4,21.9,0.5 V,0,72209,72424,21.9,0.5,21.9,1.6 V,0,72424,72638,21.9,1.6,21.9,0.7 V,0,72638,72852,21.9,0.7,21.9,2.8 V,0,72852,73067,21.9,2.8,21.9,0.3 V,0,73067,73281,21.9,0.3,21.9,1 V,0,73281,73924,21.9,1,21.9,0.4 F,0,73710,74567,0.6,0 V,0,73924,74138,21.9,0.4,21.9,1.3 V,0,74138,74352,21.9,1.3,21.9,0.7
Sprite,Background,BottomCentre,"sb\bar.png",963,485 F,0,32567,,0.6 C,0,32567,,242,132,86 V,0,32567,33209,21.9,0.6,21.9,0.2 V,0,33209,33424,21.9,0.2,21.9,2.1 V,0,33424,33638,21.9,2.1,21.9,0.7 V,0,33638,33852,21.9,0.7,21.9,0.4 V,0,33852,34709,21.9,0.4,21.9,0.6 V,0,34709,35138,21.9,0.6,21.9,1.7 V,0,35138,35567,21.9,1.7,21.9,0.1 V,0,35567,36209,21.9,0.1,21.9,0.9 V,0,36209,36638,21.9,0.9,21.9,0.8 V,0,36638,36852,21.9,0.8,21.9,1.4 V,0,36852,37067,21.9,1.4,21.9,0.3 V,0,37067,37281,21.9,0.3,21.9,1 V,0,37281,37495,21.9,1,21.9,0.7 V,0,37495,37709,21.9,0.7,21.9,1.7 V,0,37709,38138,21.9,1.7,21.9,0.8 V,0,38352,38567,21.9,0.8,21.9,1.9 V,0,38567,38781,21.9,1.9,21.9,1.1 V,0,38781,39424,21.9,1.1,21.9,0.3 V,0,39424,39852,21.9,0.3,21.9,0.8 V,0,39852,40067,21.9,0.8,21.9,0.3 V,0,40067,40281,21.9,0.3,21.9,1.3 V,0,40281,40709,21.9,1.3,21.9,0.2 V,0,40709,40924,21.9,0.2,21.9,0.8 V,0,40924,41567,21.9,0.8,21.9,0.4 V,0,41567,41781,21.9,0.4,21.9,1.4 V,0,41781,41995,21.9,1.4,21.9,1.9 V,0,41995,42424,21.9,1.9,21.9,0.5 V,0,42424,43067,21.9,0.5,21.9,0.3 V,0,43495,43709,21.9,0.3,21.9,1.7 V,0,43709,44138,21.9,1.7,21.9,0.4 V,0,44138,44567,21.9,0.4,21.9,0.5 V,0,44567,44781,21.9,0.5,21.9,1.2 V,0,44781,44995,21.9,1.2,21.9,0.8 V,0,44995,45209,21.9,0.8,21.9,1.6 V,0,45209,46067,21.9,1.6,21.9,0.3 V,0,46067,46281,21.9,0.3,21.9,0.7 V,0,46281,46709,21.9,0.7,21.9,0.3 V,0,46709,46924,21.9,0.3,21.9,0.5 V,0,46924,47138,21.9,0.5,21.9,1.4 V,0,47138,47352,21.9,1.4,21.9,0.4 V,0,47352,48209,21.9,0.4,21.9,0.5 V,0,48209,48852,21.9,0.5,21.9,1.4 V,0,48852,49067,21.9,1.4,21.9,0.5 V,0,49067,49281,21.9,0.5,21.9,0.3 V,0,49281,49924,21.9,0.3,21.9,0.9 V,0,49924,50352,21.9,0.9,21.9,0.5 V,0,50352,50567,21.9,0.5,21.9,2 V,0,50567,50995,21.9,2,21.9,0.3 V,0,50995,51424,21.9,0.3,21.9,0.2 V,0,51424,51638,21.9,0.2,21.9,1.1 V,0,52067,52281,21.9,1.1,21.9,1.9 V,0,52281,52709,21.9,1.9,21.9,0.4 V,0,52709,52924,21.9,0.4,21.9,1.2 V,0,52924,53138,21.9,1.2,21.9,0.5 V,0,53138,53781,21.9,0.5,21.9,0.8 V,0,53781,53995,21.9,0.8,21.9,1.5 V,0,53995,54209,21.9,1.5,21.9,0.4 V,0,54209,54638,21.9,0.4,21.9,0.1 V,0,54638,55067,21.9,0.1,21.9,0.7 V,0,55067,55281,21.9,0.7,21.9,0.4 V,0,55281,55495,21.9,0.4,21.9,1.4 V,0,55495,55709,21.9,1.4,21.9,1.6 V,0,55709,55924,21.9,1.6,21.9,0.3 V,0,55924,56138,21.9,0.3,21.9,0.8 V,0,56567,56995,21.9,0.8,21.9,0.3 V,0,56995,57209,21.9,0.3,21.9,0.6 V,0,57209,57424,21.9,0.6,21.9,1.8 V,0,57424,57638,21.9,1.8,21.9,0.3 V,0,57638,58281,21.9,0.3,21.9,0.7 V,0,58281,58495,21.9,0.7,21.9,1.4 V,0,58495,58709,21.9,1.4,21.9,0.8 V,0,58709,58924,21.9,0.8,21.9,0.9 V,0,58924,59138,21.9,0.9,21.9,2.3 V,0,59138,59352,21.9,2.3,21.9,0.5 V,0,59352,59781,21.9,0.5,21.9,0.7 V,0,59781,60209,21.9,0.7,21.9,0.2 V,0,60424,60852,21.9,0.2,21.9,1.5 V,0,60852,61067,21.9,1.5,21.9,1.3 V,0,61067,61281,21.9,1.3,21.9,0.3 V,0,61281,61495,21.9,0.3,21.9,0.9 V,0,61495,61709,21.9,0.9,21.9,0.5 V,0,61709,61924,21.9,0.5,21.9,0.9 V,0,61924,62352,21.9,0.9,21.9,1 V,0,62352,62567,21.9,1,21.9,1.6 V,0,62567,62781,21.9,1.6,21.9,0.3 V,0,62781,63209,21.9,0.3,21.9,1.4 V,0,63209,63638,21.9,1.4,21.9,0.5 V,0,63638,64281,21.9,0.5,21.9,1.9 V,0,64281,64495,21.9,1.9,21.9,0.5 V,0,64495,64924,21.9,0.5,21.9,0.4 V,0,64924,65352,21.9,0.4,21.9,1.1 V,0,65352,65567,21.9,1.1,21.9,0.2 V,0,65567,65995,21.9,0.2,21.9,1.4 V,0,65995,66209,21.9,1.4,21.9,0.4 V,0,66209,66424,21.9,0.4,21.9,0.6 V,0,66424,66638,21.9,0.6,21.9,0.1 V,0,66638,67067,21.9,0.1,21.9,0.4 V,0,67067,67281,21.9,0.4,21.9,1 V,0,67281,67709,21.9,1,21.9,0.7 V,0,67709,67924,21.9,0.7,21.9,1.1 V,0,67924,68567,21.9,1.1,21.9,0.3 V,0,68567,68781,21.9,0.3,21.9,1 V,0,68781,69209,21.9,1,21.9,0.8 V,0,69209,69424,21.9,0.8,21.9,1.9 V,0,69424,69852,21.9,1.9,21.9,0.4 V,0,69852,70067,21.9,0.4,21.9,1.4 V,0,70067,70281,21.9,1.4,21.9,0.2 V,0,70281,70495,21.9,0.2,21.9,0.9 V,0,70495,70709,21.9,0.9,21.9,0.4 V,0,70709,70924,21.9,0.4,21.9,0.7 V,0,70924,71138,21.9,0.7,21.9,1.8 V,0,71138,71352,21.9,1.8,21.9,0.7 V,0,71352,72424,21.9,0.7,21.9,0.1 V,0,72424,72638,21.9,0.1,21.9,0.3 V,0,72638,72852,21.9,0.3,21.9,2 V,0,72852,73067,21.9,2,21.9,0.6 V,0,73067,73281,21.9,0.6,21.9,0.3 V,0,73281,74352,21.9,0.3,21.9,0.2 F,0,73710,74567,0.6,0
Sprite,Background,BottomCentre,"sb\bar.png",1015.75,485 F,0,32567,,0.6 C,0,32567,,242,132,86 V,0,32567,32781,21.9,0.1,21.9,1.3 V,0,32781,32995,21.9,1.3,21.9,0.3 V,0,32995,33209,21.9,0.3,21.9,0.6 V,0,33209,33424,21.9,0.6,21.9,1.5 V,0,33424,34067,21.9,1.5,21.9,0.1 V,0,34067,34709,21.9,0.1,21.9,0.2 V,0,34709,34924,21.9,0.2,21.9,2.9 V,0,34924,35352,21.9,2.9,21.9,1 V,0,35352,35781,21.9,1,21.9,0.2 V,0,35781,35995,21.9,0.2,21.9,0.3 V,0,35995,36209,21.9,0.3,21.9,2.1 V,0,36209,36424,21.9,2.1,21.9,1.7 V,0,36424,36852,21.9,1.7,21.9,2.2 V,0,36852,37067,21.9,2.2,21.9,0.6 V,0,37067,37281,21.9,0.6,21.9,0.4 V,0,37281,37495,21.9,0.4,21.9,1 V,0,37495,37709,21.9,1,21.9,0.4 V,0,37709,38138,21.9,0.4,21.9,0.7 V,0,38138,38352,21.9,0.7,21.9,1.7 V,0,38352,38567,21.9,1.7,21.9,1.8 V,0,38567,38995,21.9,1.8,21.9,0.3 V,0,38995,39209,21.9,0.3,21.9,0.9 V,0,39209,39424,21.9,0.9,21.9,0.4 V,0,39424,39638,21.9,0.4,21.9,1.4 V,0,39638,39852,21.9,1.4,21.9,0.1 V,0,39852,40067,21.9,0.1,21.9,0.5 V,0,40067,40281,21.9,0.5,21.9,1.6 V,0,40281,40495,21.9,1.6,21.9,1.4 V,0,40495,40709,21.9,1.4,21.9,0.2 V,0,40709,41138,21.9,0.2,21.9,0.9 V,0,41138,41567,21.9,0.9,21.9,0.3 V,0,41567,41781,21.9,0.3,21.9,2.8 V,0,41781,42209,21.9,2.8,21.9,0.7 V,0,42209,42852,21.9,0.7,21.9,0.3 V,0,42852,43067,21.9,0.3,21.9,1.7 V,0,43067,43495,21.9,1.7,21.9,2.2 V,0,43495,43924,21.9,2.2,21.9,1.6 V,0,43924,44138,21.9,1.6,21.9,0.3 V,0,44138,44352,21.9,0.3,21.9,0.1 V,0,44352,44995,21.9,0.1,21.9,0.4 V,0,44995,45209,21.9,0.4,21.9,2.1 V,0,45209,46067,21.9,2.1,21.9,0.2 V,0,46067,46281,21.9,0.2,21.9,0.3 V,0,46281,46495,21.9,0.3,21.9,1.2 V,0,46495,46709,21.9,1.2,21.9,0.2 V,0,46924,47138,21.9,0.2,21.9,2 V,0,47138,47567,21.9,2,21.9,0.2 V,0,47781,48424,21.9,0.2,21.9,0.3 V,0,48424,48638,21.9,0.3,21.9,2.9 V,0,48638,49495,21.9,2.9,21.9,0.4 V,0,49709,49924,21.9,0.4,21.9,1.6 V,0,49924,50352,21.9,1.6,21.9,1.8 V,0,50352,50567,21.9,1.8,21.9,1.1 V,0,50567,51209,21.9,1.1,21.9,0.6 V,0,51209,51424,21.9,0.6,21.9,0.1 V,0,51424,51852,21.9,0.1,21.9,0.7 V,0,51852,52067,21.9,0.7,21.9,2.1 V,0,52067,52495,21.9,2.1,21.9,1.3 V,0,52495,52709,21.9,1.3,21.9,0.3 V,0,52709,52924,21.9,0.3,21.9,0.6 V,0,52924,53781,21.9,0.6,21.9,0.1 V,0,53781,53995,21.9,0.1,21.9,2.1 V,0,53995,54424,21.9,2.1,21.9,0.1 V,0,54424,54852,21.9,0.1,21.9,0.7 V,0,54852,55281,21.9,0.7,21.9,0.2 V,0,55281,55495,21.9,0.2,21.9,1.8 V,0,55495,55709,21.9,1.8,21.9,2.5 V,0,55709,55924,21.9,2.5,21.9,1 V,0,55924,56138,21.9,1,21.9,0.5 V,0,56138,56567,21.9,0.5,21.9,0.6 V,0,56567,56781,21.9,0.6,21.9,1.8 V,0,56781,57424,21.9,1.8,21.9,1.9 V,0,57424,58067,21.9,1.9,21.9,0.3 V,0,58067,58709,21.9,0.3,21.9,0.6 V,0,58709,58924,21.9,0.6,21.9,2.2 V,0,58924,59138,21.9,2.2,21.9,2.3 V,0,59138,59352,21.9,2.3,21.9,0.8 V,0,59352,59567,21.9,0.8,21.9,0.2 V,0,59567,60209,21.9,0.2,21.9,0.7 V,0,60209,60638,21.9,0.7,21.9,0.4 V,0,60638,60852,21.9,0.4,21.9,1.4 V,0,60852,61495,21.9,1.4,21.9,0.3 V,0,61495,61924,21.9,0.3,21.9,0.8 V,0,61924,62138,21.9,0.8,21.9,0.4 V,0,62138,62567,21.9,0.4,21.9,1.7 V,0,62567,63209,21.9,1.7,21.9,0.4 V,0,63209,63424,21.9,0.4,21.9,0.7 V,0,63424,63638,21.9,0.7,21.9,1.9 V,0,63638,63852,21.9,1.9,21.9,1.6 V,0,63852,64067,21.9,1.6,21.9,1.9 V,0,64067,64709,21.9,1.9,21.9,0.6 V,0,64709,65138,21.9,0.6,21.9,0.7 V,0,65138,65352,21.9,0.7,21.9,0.3 V,0,65352,65781,21.9,0.3,21.9,1.5 V,0,65781,65995,21.9,1.5,21.9,0.6 V,0,65995,66852,21.9,0.6,21.9,0.3 V,0,66852,67709,21.9,0.3,21.9,1.3 V,0,67709,67924,21.9,1.3,21.9,1.1 V,0,67924,68138,21.9,1.1,21.9,1.8 V,0,68138,68352,21.9,1.8,21.9,0.3 V,0,68352,68567,21.9,0.3,21.9,0.2 V,0,68567,68781,21.9,0.2,21.9,1.1 V,0,68781,69209,21.9,1.1,21.9,0.3 V,0,69209,69424,21.9,0.3,21.9,1.2 V,0,69424,69852,21.9,1.2,21.9,1.6 V,0,69852,70067,21.9,1.6,21.9,0.6 V,0,70067,70281,21.9,0.6,21.9,0.4 V,0,70281,70495,21.9,0.4,21.9,1.7 V,0,70495,70709,21.9,1.7,21.9,1.9 V,0,70709,71138,21.9,1.9,21.9,1.6 V,0,71138,71352,21.9,1.6,21.9,0.8 V,0,71352,71781,21.9,0.8,21.9,0.3 V,0,71781,71995,21.9,0.3,21.9,0.6 V,0,71995,72209,21.9,0.6,21.9,0.2 V,0,72209,72424,21.9,0.2,21.9,1.3 V,0,72424,72852,21.9,1.3,21.9,1.2 V,0,72852,73709,21.9,1.2,21.9,0.2 V,0,73709,74352,21.9,0.2,21.9,0.3 F,0,73710,74567,0.6,0
Sprite,Background,BottomCentre,"sb\bar.png",1068.5,485 F,0,32567,,0.6 C,0,32567,,242,132,86 V,0,32567,33209,21.9,0.2,21.9,0.4 V,0,33209,33424,21.9,0.4,21.9,2.8 V,0,33424,33852,21.9,2.8,21.9,0.1 V,0,34709,35138,21.9,0.1,21.9,2.7 V,0,35138,35352,21.9,2.7,21.9,1.1 V,0,35352,35781,21.9,1.1,21.9,0.1 V,0,35781,35995,21.9,0.1,21.9,0.2 V,0,35995,36424,21.9,0.2,21.9,1.8 V,0,36638,36852,21.9,1.8,21.9,2.6 V,0,36852,37067,21.9,2.6,21.9,0.8 V,0,37067,37281,21.9,0.8,21.9,0.1 V,0,37281,38352,21.9,0.1,21.9,0.8 V,0,38352,38567,21.9,0.8,21.9,2.6 V,0,38567,38781,21.9,2.6,21.9,1.2 V,0,38781,38995,21.9,1.2,21.9,0.6 V,0,38995,39209,21.9,0.6,21.9,1.5 V,0,39209,39424,21.9,1.5,21.9,0.2 V,0,39424,39638,21.9,0.2,21.9,1 V,0,39638,39852,21.9,1,21.9,0.1 V,0,39852,40067,21.9,0.1,21.9,0.2 V,0,40067,40281,21.9,0.2,21.9,2.6 V,0,40281,40709,21.9,2.6,21.9,0.1 V,0,41567,41995,21.9,0.1,21.9,2.7 V,0,41995,42209,21.9,2.7,21.9,0.8 V,0,42209,42638,21.9,0.8,21.9,0.1 V,0,42638,43067,21.9,0.1,21.9,1.3 V,0,43067,43495,21.9,1.3,21.9,1.7 V,0,43495,43709,21.9,1.7,21.9,2.8 V,0,43709,44138,21.9,2.8,21.9,0.1 V,0,44138,44995,21.9,0.1,21.9,0.2 V,0,44995,45209,21.9,0.2,21.9,0.6 V,0,45209,45424,21.9,0.6,21.9,2.7 V,0,45424,45638,21.9,2.7,21.9,1.1 V,0,45638,45852,21.9,1.1,21.9,0.1 V,0,45852,46281,21.9,0.1,21.9,0.2 V,0,46281,46495,21.9,0.2,21.9,1.3 V,0,46495,46709,21.9,1.3,21.9,0.1 V,0,46709,46924,21.9,0.1,21.9,0.5 V,0,46924,47138,21.9,0.5,21.9,2.6 V,0,47138,47352,21.9,2.6,21.9,0.6 V,0,47352,47567,21.9,0.6,21.9,0.1 V,0,48209,48638,21.9,0.1,21.9,0.8 V,0,48638,48852,21.9,0.8,21.9,2.9 V,0,48852,49067,21.9,2.9,21.9,0.9 V,0,49067,49495,21.9,0.9,21.9,0.2 V,0,49495,49709,21.9,0.2,21.9,0.3 V,0,49709,49924,21.9,0.3,21.9,1.6 V,0,49924,50352,21.9,1.6,21.9,1.8 V,0,50352,50567,21.9,1.8,21.9,2.8 V,0,50567,50995,21.9,2.8,21.9,0.1 V,0,50995,52067,21.9,0.1,21.9,0.2 V,0,52067,52281,21.9,0.2,21.9,2.7 V,0,52281,52495,21.9,2.7,21.9,1 V,0,52495,52709,21.9,1,21.9,0.1 V,0,53352,53781,21.9,0.1,21.9,0.2 V,0,53781,53995,21.9,0.2,21.9,3 V,0,53995,54209,21.9,3,21.9,1 V,0,54209,54424,21.9,1,21.9,0.1 V,0,55281,55495,21.9,0.1,21.9,2.3 V,0,55495,55709,21.9,2.3,21.9,2.8 V,0,55709,55924,21.9,2.8,21.9,0.6 V,0,55924,56138,21.9,0.6,21.9,0.8 V,0,56138,56352,21.9,0.8,21.9,0.1 V,0,56352,56567,21.9,0.1,21.9,0.5 V,0,56567,56781,21.9,0.5,21.9,1.8 V,0,57209,57424,21.9,1.8,21.9,2.8 V,0,57424,57638,21.9,2.8,21.9,0.7 V,0,57638,57852,21.9,0.7,21.9,0.1 V,0,58495,58924,21.9,0.1,21.9,0.8 V,0,58924,59138,21.9,0.8,21.9,3.1 V,0,59138,59352,21.9,3.1,21.9,1 V,0,59352,59567,21.9,1,21.9,0.1 V,0,59781,60209,21.9,0.1,21.9,1.3 V,0,60209,60424,21.9,1.3,21.9,0.2 V,0,60638,60852,21.9,0.2,21.9,2.5 V,0,60852,61067,21.9,2.5,21.9,0.9 V,0,61067,61281,21.9,0.9,21.9,0.2 V,0,62138,62352,21.9,0.2,21.9,1 V,0,62352,62567,21.9,1,21.9,2.8 V,0,62567,62781,21.9,2.8,21.9,0.7 V,0,62781,63209,21.9,0.7,21.9,0.1 V,0,63424,63638,21.9,0.1,21.9,1.8 V,0,63638,63852,21.9,1.8,21.9,1 V,0,63852,64281,21.9,1,21.9,2.5 V,0,64281,64495,21.9,2.5,21.9,1 V,0,64495,64709,21.9,1,21.9,0.1 V,0,65567,65781,21.9,0.1,21.9,0.3 V,0,65781,65995,21.9,0.3,21.9,2.6 V,0,65995,66424,21.9,2.6,21.9,0.2 V,0,66424,66638,21.9,0.2,21.9,1.1 V,0,66638,66852,21.9,1.1,21.9,0.2 V,0,66852,67067,21.9,0.2,21.9,1.2 V,0,67067,67281,21.9,1.2,21.9,0.1 V,0,67281,67495,21.9,0.1,21.9,0.2 V,0,67495,67709,21.9,0.2,21.9,2.8 V,0,67709,67924,21.9,2.8,21.9,1 V,0,67924,68138,21.9,1,21.9,0.1 V,0,68138,68995,21.9,0.1,21.9,0.2 V,0,68995,69424,21.9,0.2,21.9,2.6 V,0,69424,69638,21.9,2.6,21.9,0.8 V,0,69638,69852,21.9,0.8,21.9,0.9 V,0,69852,70067,21.9,0.9,21.9,0.1 V,0,70067,70709,21.9,0.1,21.9,2.1 V,0,70709,70924,21.9,2.1,21.9,1.5 V,0,70924,71138,21.9,1.5,21.9,2.9 V,0,71138,71352,21.9,2.9,21.9,1.1 V,0,71352,71567,21.9,1.1,21.9,0.2 V,0,71567,72424,21.9,0.2,21.9,0.1 V,0,72424,72638,21.9,0.1,21.9,0.2 V,0,72638,72852,21.9,0.2,21.9,3 V,0,72852,73067,21.9,3,21.9,0.9 V,0,73067,73281,21.9,0.9,21.9,0.1 F,0,73710,74567,0.6,0
Sprite,Background,BottomCentre,"sb\bar.png",1121.25,485 F,0,32567,,0.6 C,0,32567,,242,132,86 V,0,34709,34924,21.9,0.1,21.9,1.6 V,0,34924,35138,21.9,1.6,21.9,0.5 V,0,35138,35567,21.9,0.5,21.9,0.1 V,0,35567,35995,21.9,0.1,21.9,0.2 V,0,35995,36209,21.9,0.2,21.9,1.1 V,0,36209,36424,21.9,1.1,21.9,0.6 V,0,36424,36638,21.9,0.6,21.9,1.2 V,0,36638,36852,21.9,1.2,21.9,0.1 V,0,38352,38781,21.9,0.1,21.9,0.6 V,0,38781,38995,21.9,0.6,21.9,0.1 V,0,38995,39209,21.9,0.1,21.9,0.6 V,0,39209,39852,21.9,0.6,21.9,0.1 V,0,39852,40281,21.9,0.1,21.9,0.4 V,0,40281,40495,21.9,0.4,21.9,0.1 V,0,41567,41781,21.9,0.1,21.9,0.8 V,0,41781,41995,21.9,0.8,21.9,0.1 V,0,41995,42852,21.9,0.1,21.9,0.2 V,0,42852,43067,21.9,0.2,21.9,0.7 V,0,43067,44138,21.9,0.7,21.9,0.1 V,0,44138,45209,21.9,0.1,21.9,0.4 V,0,45209,48424,21.9,0.4,21.9,0.1 V,0,48424,48638,21.9,0.1,21.9,1.1 V,0,48638,48852,21.9,1.1,21.9,0.4 V,0,48852,49495,21.9,0.4,21.9,0.1 V,0,49495,50352,21.9,0.1,21.9,0.9 V,0,50352,50995,21.9,0.9,21.9,0.1 V,0,50995,53995,21.9,0.1,21.9,0.4 V,0,53995,56352,21.9,0.4,21.9,0.1 V,0,56352,56567,21.9,0.1,21.9,0.2 V,0,56567,56781,21.9,0.2,21.9,1 V,0,56781,56995,21.9,1,21.9,0.4 V,0,56995,57209,21.9,0.4,21.9,0.6 V,0,57209,57424,21.9,0.6,21.9,0.1 V,0,58495,58924,21.9,0.1,21.9,0.7 V,0,58924,59567,21.9,0.7,21.9,0.1 V,0,61281,61495,21.9,0.1,21.9,0.4 V,0,61495,61924,21.9,0.4,21.9,0.1 V,0,62138,62352,21.9,0.1,21.9,1.8 V,0,62352,62567,21.9,1.8,21.9,0.1 V,0,62781,62995,21.9,0.1,21.9,0.8 V,0,62995,63209,21.9,0.8,21.9,0.1 V,0,63424,63638,21.9,0.1,21.9,1 V,0,63638,63852,21.9,1,21.9,0.5 V,0,63852,64067,21.9,0.5,21.9,1 V,0,64067,64281,21.9,1,21.9,0.1 V,0,64495,65781,21.9,0.1,21.9,0.4 V,0,65781,68781,21.9,0.4,21.9,0.1 V,0,68995,69209,21.9,0.1,21.9,1.3 V,0,69209,69424,21.9,1.3,21.9,0.1 V,0,69424,69852,21.9,0.1,21.9,0.8 V,0,69852,70067,21.9,0.8,21.9,0.1 V,0,70281,70709,21.9,0.1,21.9,1 V,0,70924,71138,21.9,1,21.9,0.1 V,0,72424,72638,21.9,0.1,21.9,0.5 V,0,72638,74352,21.9,0.5,21.9,0.1 F,0,73710,74567,0.6,0
Sprite,Background,Centre,"sb\glowing particle thats mean to be snow.png",0,0 V,0,0,500,0.02,0.02 C,0,32567,,255,165,0 M,0,32567,36067,527,500,377,-100 F,0,32567,36067,0.5 F,0,32567,73710,0.5
Sprite,Background,Centre,"sb\glowing particle thats mean to be snow.png",0,0 V,0,0,500,0.02,0.02 F,0,32567,73710,0.5 C,0,32614,,255,165,0 M,0,32614,36114,562,500,412,-100 F,0,32614,36114,0.5
Sprite,Background,Centre,"sb\glowing particle thats mean to be snow.png",0,0 V,0,0,500,0.02,0.02 F,0,32567,73710,0.5 C,0,32662,,255,165,0 M,0,32662,36162,85,500,-65,-100 F,0,32662,36162,0.5
Sprite,Background,Centre,"sb\glowing particle thats mean to be snow.png",0,0 V,0,0,500,0.02,0.02 F,0,32567,73710,0.5 C,0,32709,,242,132,86 M,0,32709,36209,680,500,530,-100 F,0,32709,36209,0.5
Sprite,Background,Centre,"sb\glowing particle thats mean to be snow.png",0,0 V,0,0,500,0.02,0.02 F,0,32567,73710,0.5 C,0,32757,,242,132,86 M,0,32757,36257,740,500,590,-100 F,0,32757,36257,0.5
Sprite,Background,Centre,"sb\glowing particle thats mean to be snow.png",0,0 V,0,0,500,0.02,0.02 F,0,32567,73710,0.5 C,0,32805,,242,132,86 M,0,32805,36305,158,500,8,-100 F,0,32805,36305,0.5
Sprite,Background,Centre,"sb\glowing particle thats mean to be snow.png",0,0 V,0,0,500,0.02,0.02 F,0,32567,73710,0.5 C,0,32852,,242,132,86 M,0,32852,36352,447,500,297,-100 F,0,32852,36352,0.5
Sprite,Background,Centre,"sb\glowing particle thats mean to be snow.png",0,0 V,0,0,500,0.02,0.02 F,0,32567,73710,0.5 C,0,32900,,242,132,86 M,0,32900,36400,744,500,594,-100 F,0,32900,36400,0.5
Sprite,Background,Centre,"sb\glowing particle thats mean to be snow.png",0,0 V,0,0,500,0.02,0.02 F,0,32567,73710,0.5 C,0,32947,,255,165,0 M,0,32947,36447,643,500,493,-100 F,0,32947,36447,0.5
Sprite,Background,Centre,"sb\glowing particle thats mean to be snow.png",0,0 V,0,0,500,0.02,0.02 F,0,32567,73710,0.5 C,0,32995,,242,132,86 M,0,32995,36495,485,500,335,-100 F,0,32995,36495,0.5
Sprite,Background,Centre,"sb\glowing particle thats mean to be snow.png",0,0 V,0,0,500,0.02,0.02 F,0,32567,73710,0.5 C,0,33043,,255,165,0 M,0,33043,36543,604,500,454,-100 F,0,33043,36543,0.5
Sprite,Background,Centre,"sb\glowing particle thats mean to be snow.png",0,0 V,0,0,500,0.02,0.02 F,0,32567,73710,0.5 C,0,33090,,242,132,86 M,0,33090,36590,753,500,603,-100 F,0,33090,36590,0.5
Sprite,Background,Centre,"sb\glowing particle thats mean to be snow.png",0,0 V,0,0,500,0.02,0.02 F,0,32567,73710,0.5 C,0,33138,,255,165,0 M,0,33138,36638,504,500,354,-100 F,0,33138,36638,0.5
Sprite,Background,Centre,"sb\glowing particle thats mean to be snow.png",0,0 V,0,0,500,0.02,0.02 F,0,32567,73710,0.5 C,0,33186,,255,165,0 M,0,33186,36686,703,500,553,-100 F,0,33186,36686,0.5
Sprite,Background,Centre,"sb\glowing particle thats mean to be snow.png",0,0 V,0,0,500,0.02,0.02 F,0,32567,73710,0.5 C,0,33233,,242,132,86 M,0,33233,36733,374,500,224,-100 F,0,33233,36733,0.5
Sprite,Background,Centre,"sb\glowing particle thats mean to be snow.png",0,0 V,0,0,500,0.02,0.02 F,0,32567,73710,0.5 C,0,33281,,242,132,86 M,0,33281,36781,69,500,-81,-100 F,0,33281,36781,0.5
Sprite,Background,Centre,"sb\glowing particle thats mean to be snow.png",0,0 V,0,0,500,0.02,0.02 F,0,32567,73710,0.5 C,0,33328,,255,165,0 M,0,33328,36828,162,500,12,-100 F,0,33328,36828,0.5
Sprite,Background,Centre,"sb\glowing particle thats mean to be snow.png",0,0 V,0,0,500,0.02,0.02 F,0,32567,73710,0.5 C,0,33376,,255,165,0 M,0,33376,36876,456,500,306,-100 F,0,33376,36876,0.5
Sprite,Background,Centre,"sb\glowing particle thats mean to be snow.png",0,0 V,0,0,500,0.02,0.02 F,0,32567,73710,0.5 C,0,33424,,242,132,86 M,0,33424,36924,-65,500,-215,-100 F,0,33424,36924,0.5
Sprite,Background,Centre,"sb\glowing particle thats mean to be snow.png",0,0 V,0,0,500,0.02,0.02 F,0,32567,73710,0.5 C,0,33471,,255,165,0 M,0,33471,36971,201,500,51,-100 F,0,33471,36971,0.5
Sprite,Background,Centre,"sb\glowing particle thats mean to be snow.png",0,0 V,0,0,500,0.02,0.02 F,0,32567,73710,0.5 C,0,33519,,255,165,0 M,0,33519,37019,339,500,189,-100 F,0,33519,37019,0.5
Sprite,Background,Centre,"sb\glowing particle thats mean to be snow.png",0,0 V,0,0,500,0.02,0.02 F,0,32567,73710,0.5 C,0,33566,,242,132,86 M,0,33566,37066,11,500,-139,-100 F,0,33566,37066,0.5
Sprite,Background,Centre,"sb\glowing particle thats mean to be snow.png",0,0 V,0,0,500,0.02,0.02 F,0,32567,73710,0.5 C,0,33614,,255,165,0 M,0,33614,37114,681,500,531,-100 F,0,33614,37114,0.5
Sprite,Background,Centre,"sb\glowing particle thats mean to be snow.png",0,0 V,0,0,500,0.02,0.02 F,0,32567,73710,0.5 C,0,33662,,242,132,86 M,0,33662,37162,196,500,46,-100 F,0,33662,37162,0.5
Sprite,Background,Centre,"sb\glowing particle thats mean to be snow.png",0,0 V,0,0,500,0.02,0.02 F,0,32567,73710,0.5 C,0,33709,,242,132,86 M,0,33709,37209,34,500,-116,-100 F,0,33709,37209,0.5
Sprite,Background,Centre,"sb\glowing particle thats mean to be snow.png",0,0 V,0,0,500,0.02,0.02 F,0,32567,73710,0.5 C,0,33757,,255,165,0 M,0,33757,37257,258,500,108,-100 F,0,33757,37257,0.5
Sprite,Background,Centre,"sb\glowing particle thats mean to be snow.png",0,0 V,0,0,500,0.02,0.02 F,0,32567,73710,0.5 C,0,33805,,242,132,86 M,0,33805,37305,436,500,286,-100 F,0,33805,37305,0.5
Sprite,Background,Centre,"sb\glowing particle thats mean to be snow.png",0,0 V,0,0,500,0.02,0.02 F,0,32567,73710,0.5 C,0,33852,,255,165,0 M,0,33852,37352,75,500,-75,-100 F,0,33852,37352,0.5
Sprite,Background,Centre,"sb\glowing particle thats mean to be snow.png",0,0 V,0,0,500,0.02,0.02 F,0,32567,73710,0.5 C,0,33900,,255,165,0 M,0,33900,37400,611,500,461,-100 F,0,33900,37400,0.5
Sprite,Background,Centre,"sb\glowing particle thats mean to be snow.png",0,0 V,0,0,500,0.02,0.02 F,0,32567,73710,0.5 C,0,33947,,255,165,0 M,0,33947,37447,639,500,489,-100 F,0,33947,37447,0.5
Sprite,Background,Centre,"sb\glowing particle thats mean to be snow.png",0,0 V,0,0,500,0.02,0.02 F,0,32567,73710,0.5 C,0,33995,,242,132,86 M,0,33995,37495,441,500,291,-100 F,0,33995,37495,0.5
Sprite,Background,Centre,"sb\glowing particle thats mean to be snow.png",0,0 V,0,0,500,0.02,0.02 F,0,32567,73710,0.5 C,0,34043,,255,165,0 M,0,34043,37543,671,500,521,-100 F,0,34043,37543,0.5
Sprite,Background,Centre,"sb\glowing particle thats mean to be snow.png",0,0 V,0,0,500,0.02,0.02 F,0,32567,73710,0.5 C,0,34090,,255,165,0 M,0,34090,37590,-17,500,-167,-100 F,0,34090,37590,0.5
Sprite,Background,Centre,"sb\glowing particle thats mean to be snow.png",0,0 V,0,0,500,0.02,0.02 F,0,32567,73710,0.5 C,0,34138,,255,165,0 M,0,34138,37638,54,500,-96,-100 F,0,34138,37638,0.5
Sprite,Background,Centre,"sb\glowing particle thats mean to be snow.png",0,0 V,0,0,500,0.02,0.02 F,0,32567,73710,0.5 C,0,34186,,242,132,86 M,0,34186,37686,612,500,462,-100 F,0,34186,37686,0.5
Sprite,Background,Centre,"sb\glowing particle thats mean to be snow.png",0,0 V,0,0,500,0.02,0.02 F,0,32567,73710,0.5 C,0,34233,,242,132,86 M,0,34233,37733,759,500,609,-100 F,0,34233,37733,0.5
Sprite,Background,Centre,"sb\glowing particle thats mean to be snow.png",0,0 V,0,0,500,0.02,0.02 F,0,32567,73710,0.5 C,0,34281,,255,165,0 M,0,34281,37781,464,500,314,-100 F,0,34281,37781,0.5
Sprite,Background,Centre,"sb\glowing particle thats mean to be snow.png",0,0 V,0,0,500,0.02,0.02 F,0,32567,73710,0.5 C,0,34328,,242,132,86 M,0,34328,37828,598,500,448,-100 F,0,34328,37828,0.5
Sprite,Background,Centre,"sb\glowing particle thats mean to be snow.png",0,0 V,0,0,500,0.02,0.02 F,0,32567,73710,0.5 C,0,34376,,255,165,0 M,0,34376,37876,529,500,379,-100 F,0,34376,37876,0.5
Sprite,Background,Centre,"sb\glowing particle thats mean to be snow.png",0,0 V,0,0,500,0.02,0.02 F,0,32567,73710,0.5 C,0,34424,,255,165,0 M,0,34424,37924,16,500,-134,-100 F,0,34424,37924,0.5
Sprite,Background,Centre,"sb\glowing particle thats mean to be snow.png",0,0 V,0,0,500,0.02,0.02 F,0,32567,73710,0.5 C,0,34471,,242,132,86 M,0,34471,37971,70,500,-80,-100 F,0,34471,37971,0.5
Sprite,Background,Centre,"sb\glowing particle thats mean to be snow.png",0,0 V,0,0,500,0.02,0.02 F,0,32567,73710,0.5 C,0,34519,,242,132,86 M,0,34519,38019,369,500,219,-100 F,0,34519,38019,0.5
Sprite,Background,Centre,"sb\glowing particle thats mean to be snow.png",0,0 V,0,0,500,0.02,0.02 F,0,32567,73710,0.5 C,0,34566,,242,132,86 M,0,34566,38066,480,500,330,-100 F,0,34566,38066,0.5
Sprite,Background,Centre,"sb\glowing particle thats mean to be snow.png",0,0 V,0,0,500,0.02,0.02 F,0,32567,73710,0.5 C,0,34614,,255,165,0 M,0,34614,38114,618,500,468,-100 F,0,34614,38114,0.5
Sprite,Background,Centre,"sb\glowing particle thats mean to be snow.png",0,0 V,0,0,500,0.02,0.02 F,0,32567,73710,0.5 C,0,34662,,255,165,0 M,0,34662,38162,584,500,434,-100 F,0,34662,38162,0.5
Sprite,Background,Centre,"sb\glowing particle thats mean to be snow.png",0,0 V,0,0,500,0.02,0.02 F,0,32567,73710,0.5 C,0,34709,,242,132,86 M,0,34709,38209,706,500,556,-100 F,0,34709,38209,0.5
Sprite,Background,Centre,"sb\glowing particle thats mean to be snow.png",0,0 V,0,0,500,0.02,0.02 F,0,32567,73710,0.5 C,0,34757,,255,165,0 M,0,34757,38257,354,500,204,-100 F,0,34757,38257,0.5
Sprite,Background,Centre,"sb\glowing particle thats mean to be snow.png",0,0 V,0,0,500,0.02,0.02 F,0,32567,73710,0.5 C,0,34805,,242,132,86 M,0,34805,38305,192,500,42,-100 F,0,34805,38305,0.5
Sprite,Background,Centre,"sb\glowing particle thats mean to be snow.png",0,0 V,0,0,500,0.02,0.02 F,0,32567,73710,0.5 C,0,34852,,242,132,86 M,0,34852,38352,607,500,457,-100 F,0,34852,38352,0.5
Sprite,Background,Centre,"sb\glowing particle thats mean to be snow.png",0,0 V,0,0,500,0.02,0.02 F,0,32567,73710,0.5 C,0,34900,,242,132,86 M,0,34900,38400,68,500,-82,-100 F,0,34900,38400,0.5
Sprite,Background,Centre,"sb\glowing particle thats mean to be snow.png",0,0 V,0,0,500,0.02,0.02 F,0,32567,73710,0.5 C,0,34947,,255,165,0 M,0,34947,38447,440,500,290,-100 F,0,34947,38447,0.5
Sprite,Background,Centre,"sb\glowing particle thats mean to be snow.png",0,0 V,0,0,500,0.02,0.02 F,0,32567,73710,0.5 C,0,34995,,255,165,0 M,0,34995,38495,445,500,295,-100 F,0,34995,38495,0.5
Sprite,Background,Centre,"sb\glowing particle thats mean to be snow.png",0,0 V,0,0,500,0.02,0.02 F,0,32567,73710,0.5 C,0,35043,,255,165,0 M,0,35043,38543,98,500,-52,-100 F,0,35043,38543,0.5
Sprite,Background,Centre,"sb\glowing particle thats mean to be snow.png",0,0 V,0,0,500,0.02,0.02 F,0,32567,73710,0.5 C,0,35090,,255,165,0 M,0,35090,38590,-34,500,-184,-100 F,0,35090,38590,0.5
Sprite,Background,Centre,"sb\glowing particle thats mean to be snow.png",0,0 V,0,0,500,0.02,0.02 F,0,32567,73710,0.5 C,0,35138,,242,132,86 M,0,35138,38638,486,500,336,-100 F,0,35138,38638,0.5
Sprite,Background,Centre,"sb\glowing particle thats mean to be snow.png",0,0 V,0,0,500,0.02,0.02 F,0,32567,73710,0.5 C,0,35186,,242,132,86 M,0,35186,38686,36,500,-114,-100 F,0,35186,38686,0.5
Sprite,Background,Centre,"sb\glowing particle thats mean to be snow.png",0,0 V,0,0,500,0.02,0.02 F,0,32567,73710,0.5 C,0,35233,,255,165,0 M,0,35233,38733,428,500,278,-100 F,0,35233,38733,0.5
Sprite,Background,Centre,"sb\glowing particle thats mean to be snow.png",0,0 V,0,0,500,0.02,0.02 F,0,32567,73710,0.5 C,0,35281,,242,132,86 M,0,35281,38781,327,500,177,-100 F,0,35281,38781,0.5
Sprite,Background,Centre,"sb\glowing particle thats mean to be snow.png",0,0 V,0,0,500,0.02,0.02 F,0,32567,73710,0.5 C,0,35328,,255,165,0 M,0,35328,38828,485,500,335,-100 F,0,35328,38828,0.5
Sprite,Background,Centre,"sb\glowing particle thats mean to be snow.png",0,0 V,0,0,500,0.02,0.02 F,0,32567,73710,0.5 C,0,35376,,255,165,0 M,0,35376,38876,101,500,-49,-100 F,0,35376,38876,0.5
Sprite,Background,Centre,"sb\glowing particle thats mean to be snow.png",0,0 V,0,0,500,0.02,0.02 F,0,32567,73710,0.5 C,0,35424,,242,132,86 M,0,35424,38924,-86,500,-236,-100 F,0,35424,38924,0.5
Sprite,Background,Centre,"sb\glowing particle thats mean to be snow.png",0,0 V,0,0,500,0.02,0.02 F,0,32567,73710,0.5 C,0,35471,,242,132,86 M,0,35471,38971,632,500,482,-100 F,0,35471,38971,0.5
Sprite,Background,Centre,"sb\glowing particle thats mean to be snow.png",0,0 V,0,0,500,0.02,0.02 F,0,32567,73710,0.5 C,0,35519,,255,165,0 M,0,35519,39019,149,500,-1,-100 F,0,35519,39019,0.5
Sprite,Background,Centre,"sb\glowing particle thats mean to be snow.png",0,0 V,0,0,500,0.02,0.02 F,0,32567,73710,0.5 C,0,35566,,255,165,0 M,0,35566,39066,724,500,574,-100 F,0,35566,39066,0.5
Sprite,Background,Centre,"sb\glowing particle thats mean to be snow.png",0,0 V,0,0,500,0.02,0.02 F,0,32567,73710,0.5 C,0,35614,,255,165,0 M,0,35614,39114,239,500,89,-100 F,0,35614,39114,0.5
Sprite,Background,Centre,"sb\glowing particle thats mean to be snow.png",0,0 V,0,0,500,0.02,0.02 F,0,32567,73710,0.5 C,0,35662,,242,132,86 M,0,35662,39162,148,500,-2,-100 F,0,35662,39162,0.5
Sprite,Background,Centre,"sb\glowing particle thats mean to be snow.png",0,0 V,0,0,500,0.02,0.02 F,0,32567,73710,0.5 C,0,35709,,242,132,86 M,0,35709,39209,361,500,211,-100 F,0,35709,39209,0.5
Sprite,Background,Centre,"sb\glowing particle thats mean to be snow.png",0,0 V,0,0,500,0.02,0.02 F,0,32567,73710,0.5 C,0,35757,,242,132,86 M,0,35757,39257,148,500,-2,-100 F,0,35757,39257,0.5
Sprite,Background,Centre,"sb\glowing particle thats mean to be snow.png",0,0 V,0,0,500,0.02,0.02 F,0,32567,73710,0.5 C,0,35805,,255,165,0 M,0,35805,39305,629,500,479,-100 F,0,35805,39305,0.5
Sprite,Background,Centre,"sb\glowing particle thats mean to be snow.png",0,0 V,0,0,500,0.02,0.02 F,0,32567,73710,0.5 C,0,35852,,255,165,0 M,0,35852,39352,-2,500,-152,-100 F,0,35852,39352,0.5
Sprite,Background,Centre,"sb\glowing particle thats mean to be snow.png",0,0 V,0,0,500,0.02,0.02 F,0,32567,73710,0.5 C,0,35900,,255,165,0 M,0,35900,39400,251,500,101,-100 F,0,35900,39400,0.5
Sprite,Background,Centre,"sb\glowing particle thats mean to be snow.png",0,0 V,0,0,500,0.02,0.02 F,0,32567,73710,0.5 C,0,35947,,255,165,0 M,0,35947,39447,21,500,-129,-100 F,0,35947,39447,0.5
Sprite,Background,Centre,"sb\glowing particle thats mean to be snow.png",0,0 V,0,0,500,0.02,0.02 F,0,32567,73710,0.5 C,0,35995,,255,165,0 M,0,35995,39495,433,500,283,-100 F,0,35995,39495,0.5
Sprite,Background,Centre,"sb\glowing particle thats mean to be snow.png",0,0 V,0,0,500,0.02,0.02 F,0,32567,73710,0.5 C,0,36043,,255,165,0 M,0,36043,39543,492,500,342,-100 F,0,36043,39543,0.5
Sprite,Background,Centre,"sb\glowing particle thats mean to be snow.png",0,0 V,0,0,500,0.02,0.02 F,0,32567,73710,0.5 C,0,36090,,242,132,86 M,0,36090,39590,56,500,-94,-100 F,0,36090,39590,0.5
Sprite,Background,Centre,"sb\glowing particle thats mean to be snow.png",0,0 V,0,0,500,0.02,0.02 F,0,32567,73710,0.5 C,0,36138,,242,132,86 M,0,36138,39638,427,500,277,-100 F,0,36138,39638,0.5
Sprite,Background,Centre,"sb\glowing particle thats mean to be snow.png",0,0 V,0,0,500,0.02,0.02 F,0,32567,73710,0.5 C,0,36186,,255,165,0 M,0,36186,39686,757,500,607,-100 F,0,36186,39686,0.5
Sprite,Background,Centre,"sb\glowing particle thats mean to be snow.png",0,0 V,0,0,500,0.02,0.02 F,0,32567,73710,0.5 C,0,36233,,242,132,86 M,0,36233,39733,-37,500,-187,-100 F,0,36233,39733,0.5
Sprite,Background,Centre,"sb\glowing particle thats mean to be snow.png",0,0 V,0,0,500,0.02,0.02 F,0,32567,73710,0.5 C,0,36281,,255,165,0 M,0,36281,39781,626,500,476,-100 F,0,36281,39781,0.5
Sprite,Background,Centre,"sb\glowing particle thats mean to be snow.png",0,0 V,0,0,500,0.02,0.02 F,0,32567,73710,0.5 C,0,36328,,255,165,0 M,0,36328,39828,459,500,309,-100 F,0,36328,39828,0.5
Sprite,Background,Centre,"sb\glowing particle thats mean to be snow.png",0,0 V,0,0,500,0.02,0.02 F,0,32567,73710,0.5 C,0,36376,,242,132,86 M,0,36376,39876,734,500,584,-100 F,0,36376,39876,0.5
Sprite,Background,Centre,"sb\glowing particle thats mean to be snow.png",0,0 V,0,0,500,0.02,0.02 F,0,32567,73710,0.5 C,0,36424,,242,132,86 M,0,36424,39924,346,500,196,-100 F,0,36424,39924,0.5
Sprite,Background,Centre,"sb\glowing particle thats mean to be snow.png",0,0 V,0,0,500,0.02,0.02 F,0,32567,73710,0.5 C,0,36471,,255,165,0 M,0,36471,39971,601,500,451,-100 F,0,36471,39971,0.5
Sprite,Background,Centre,"sb\glowing particle thats mean to be snow.png",0,0 V,0,0,500,0.02,0.02 F,0,32567,73710,0.5 C,0,36519,,255,165,0 M,0,36519,40019,399,500,249,-100 F,0,36519,40019,0.5
Sprite,Background,Centre,"sb\glowing particle thats mean to be snow.png",0,0 V,0,0,500,0.02,0.02 F,0,32567,73710,0.5 C,0,36566,,255,165,0 M,0,36566,40066,481,500,331,-100 F,0,36566,40066,0.5
Sprite,Background,Centre,"sb\glowing particle thats mean to be snow.png",0,0 V,0,0,500,0.02,0.02 F,0,32567,73710,0.5 C,0,36614,,242,132,86 M,0,36614,40114,166,500,16,-100 F,0,36614,40114,0.5
Sprite,Background,Centre,"sb\glowing particle thats mean to be snow.png",0,0 V,0,0,500,0.02,0.02 F,0,32567,73710,0.5 C,0,36662,,242,132,86 M,0,36662,40162,305,500,155,-100 F,0,36662,40162,0.5
Sprite,Background,Centre,"sb\glowing particle thats mean to be snow.png",0,0 V,0,0,500,0.02,0.02 F,0,32567,73710,0.5 C,0,36709,,242,132,86 M,0,36709,40209,93,500,-57,-100 F,0,36709,40209,0.5
Sprite,Background,Centre,"sb\glowing particle thats mean to be snow.png",0,0 V,0,0,500,0.02,0.02 F,0,32567,73710,0.5 C,0,36757,,242,132,86 M,0,36757,40257,105,500,-45,-100 F,0,36757,40257,0.5
Sprite,Background,Centre,"sb\glowing particle thats mean to be snow.png",0,0 V,0,0,500,0.02,0.02 F,0,32567,73710,0.5 C,0,36805,,242,132,86 M,0,36805,40305,289,500,139,-100 F,0,36805,40305,0.5
Sprite,Background,Centre,"sb\glowing particle thats mean to be snow.png",0,0 V,0,0,500,0.02,0.02 F,0,32567,73710,0.5 C,0,36852,,242,132,86 M,0,36852,40352,-74,500,-224,-100 F,0,36852,40352,0.5
Sprite,Background,Centre,"sb\glowing particle thats mean to be snow.png",0,0 V,0,0,500,0.02,0.02 F,0,32567,73710,0.5 C,0,36900,,242,132,86 M,0,36900,40400,603,500,453,-100 F,0,36900,40400,0.5
Sprite,Background,Centre,"sb\glowing particle thats mean to be snow.png",0,0 V,0,0,500,0.02,0.02 F,0,32567,73710,0.5 C,0,36947,,242,132,86 M,0,36947,40447,686,500,536,-100 F,0,36947,40447,0.5
Sprite,Background,Centre,"sb\glowing particle thats mean to be snow.png",0,0 V,0,0,500,0.02,0.02 F,0,32567,73710,0.5 C,0,36995,,255,165,0 M,0,36995,40495,343,500,193,-100 F,0,36995,40495,0.5
Sprite,Background,Centre,"sb\glowing particle thats mean to be snow.png",0,0 V,0,0,500,0.02,0.02 F,0,32567,73710,0.5 C,0,37043,,242,132,86 M,0,37043,40543,754,500,604,-100 F,0,37043,40543,0.5
Sprite,Background,Centre,"sb\glowing particle thats mean to be snow.png",0,0 V,0,0,500,0.02,0.02 F,0,32567,73710,0.5 C,0,37090,,242,132,86 M,0,37090,40590,465,500,315,-100 F,0,37090,40590,0.5
Sprite,Background,Centre,"sb\glowing particle thats mean to be snow.png",0,0 V,0,0,500,0.02,0.02 F,0,32567,73710,0.5 C,0,37138,,255,165,0 M,0,37138,40638,732,500,582,-100 F,0,37138,40638,0.5
Sprite,Background,Centre,"sb\glowing particle thats mean to be snow.png",0,0 V,0,0,500,0.02,0.02 F,0,32567,73710,0.5 C,0,37186,,242,132,86 M,0,37186,40686,566,500,416,-100 F,0,37186,40686,0.5
Sprite,Background,Centre,"sb\glowing particle thats mean to be snow.png",0,0 V,0,0,500,0.02,0.02 F,0,32567,73710,0.5 C,0,37233,,255,165,0 M,0,37233,40733,267,500,117,-100 F,0,37233,40733,0.5
Sprite,Background,Centre,"sb\glowing particle thats mean to be snow.png",0,0 V,0,0,500,0.02,0.02 F,0,32567,73710,0.5 C,0,37281,,255,165,0 M,0,37281,40781,663,500,513,-100 F,0,37281,40781,0.5
Sprite,Background,Centre,"sb\glowing particle thats mean to be snow.png",0,0 V,0,0,500,0.02,0.02 F,0,32567,73710,0.5 C,0,37328,,242,132,86 M,0,37328,40828,126,500,-24,-100 F,0,37328,40828,0.5
Sprite,Background,Centre,"sb\glowing particle thats mean to be snow.png",0,0 V,0,0,500,0.02,0.02 F,0,32567,73710,0.5 C,0,37376,,242,132,86 M,0,37376,40876,672,500,522,-100 F,0,37376,40876,0.5
Sprite,Background,Centre,"sb\glowing particle thats mean to be snow.png",0,0 V,0,0,500,0.02,0.02 F,0,32567,73710,0.5 C,0,37424,,255,165,0 M,0,37424,40924,660,500,510,-100 F,0,37424,40924,0.5
Sprite,Background,Centre,"sb\glowing particle thats mean to be snow.png",0,0 V,0,0,500,0.02,0.02 F,0,32567,73710,0.5 C,0,37471,,255,165,0 M,0,37471,40971,577,500,427,-100 F,0,37471,40971,0.5
Sprite,Background,Centre,"sb\glowing particle thats mean to be snow.png",0,0 V,0,0,500,0.02,0.02 F,0,32567,73710,0.5 C,0,37519,,255,165,0 M,0,37519,41019,209,500,59,-100 F,0,37519,41019,0.5
Sprite,Background,Centre,"sb\glowing particle thats mean to be snow.png",0,0 V,0,0,500,0.02,0.02 F,0,32567,73710,0.5 C,0,37566,,255,165,0 M,0,37566,41066,-62,500,-212,-100 F,0,37566,41066,0.5
Sprite,Background,Centre,"sb\glowing particle thats mean to be snow.png",0,0 V,0,0,500,0.02,0.02 F,0,32567,73710,0.5 C,0,37614,,242,132,86 M,0,37614,41114,13,500,-137,-100 F,0,37614,41114,0.5
Sprite,Background,Centre,"sb\glowing particle thats mean to be snow.png",0,0 V,0,0,500,0.02,0.02 F,0,32567,73710,0.5 C,0,37662,,255,165,0 M,0,37662,41162,332,500,182,-100 F,0,37662,41162,0.5
Sprite,Background,Centre,"sb\glowing particle thats mean to be snow.png",0,0 V,0,0,500,0.02,0.02 F,0,32567,73710,0.5 C,0,37709,,242,132,86 M,0,37709,41209,132,500,-18,-100 F,0,37709,41209,0.5
Sprite,Background,Centre,"sb\glowing particle thats mean to be snow.png",0,0 V,0,0,500,0.02,0.02 F,0,32567,73710,0.5 C,0,37757,,255,165,0 M,0,37757,41257,115,500,-35,-100 F,0,37757,41257,0.5
Sprite,Background,Centre,"sb\glowing particle thats mean to be snow.png",0,0 V,0,0,500,0.02,0.02 F,0,32567,73710,0.5 C,0,37805,,255,165,0 M,0,37805,41305,23,500,-127,-100 F,0,37805,41305,0.5
Sprite,Background,Centre,"sb\glowing particle thats mean to be snow.png",0,0 V,0,0,500,0.02,0.02 F,0,32567,73710,0.5 C,0,37852,,255,165,0 M,0,37852,41352,385,500,235,-100 F,0,37852,41352,0.5
Sprite,Background,Centre,"sb\glowing particle thats mean to be snow.png",0,0 V,0,0,500,0.02,0.02 F,0,32567,73710,0.5 C,0,37900,,242,132,86 M,0,37900,41400,199,500,49,-100 F,0,37900,41400,0.5
Sprite,Background,Centre,"sb\glowing particle thats mean to be snow.png",0,0 V,0,0,500,0.02,0.02 F,0,32567,73710,0.5 C,0,37947,,255,165,0 M,0,37947,41447,-8,500,-158,-100 F,0,37947,41447,0.5
Sprite,Background,Centre,"sb\glowing particle thats mean to be snow.png",0,0 V,0,0,500,0.02,0.02 F,0,32567,73710,0.5 C,0,37995,,255,165,0 M,0,37995,41495,514,500,364,-100 F,0,37995,41495,0.5
Sprite,Background,Centre,"sb\glowing particle thats mean to be snow.png",0,0 V,0,0,500,0.02,0.02 F,0,32567,73710,0.5 C,0,38043,,242,132,86 M,0,38043,41543,463,500,313,-100 F,0,38043,41543,0.5
Sprite,Background,Centre,"sb\glowing particle thats mean to be snow.png",0,0 V,0,0,500,0.02,0.02 F,0,32567,73710,0.5 C,0,38090,,242,132,86 M,0,38090,41590,135,500,-15,-100 F,0,38090,41590,0.5
Sprite,Background,Centre,"sb\glowing particle thats mean to be snow.png",0,0 V,0,0,500,0.02,0.02 F,0,32567,73710,0.5 C,0,38138,,255,165,0 M,0,38138,41638,76,500,-74,-100 F,0,38138,41638,0.5
Sprite,Background,Centre,"sb\glowing particle thats mean to be snow.png",0,0 V,0,0,500,0.02,0.02 F,0,32567,73710,0.5 C,0,38186,,255,165,0 M,0,38186,41686,327,500,177,-100 F,0,38186,41686,0.5
Sprite,Background,Centre,"sb\glowing particle thats mean to be snow.png",0,0 V,0,0,500,0.02,0.02 F,0,32567,73710,0.5 C,0,38233,,242,132,86 M,0,38233,41733,181,500,31,-100 F,0,38233,41733,0.5
Sprite,Background,Centre,"sb\glowing particle thats mean to be snow.png",0,0 V,0,0,500,0.02,0.02 F,0,32567,73710,0.5 C,0,38281,,255,165,0 M,0,38281,41781,117,500,-33,-100 F,0,38281,41781,0.5
Sprite,Background,Centre,"sb\glowing particle thats mean to be snow.png",0,0 V,0,0,500,0.02,0.02 F,0,32567,73710,0.5 C,0,38328,,242,132,86 M,0,38328,41828,428,500,278,-100 F,0,38328,41828,0.5
Sprite,Background,Centre,"sb\glowing particle thats mean to be snow.png",0,0 V,0,0,500,0.02,0.02 F,0,32567,73710,0.5 C,0,38376,,255,165,0 M,0,38376,41876,745,500,595,-100 F,0,38376,41876,0.5
Sprite,Background,Centre,"sb\glowing particle thats mean to be snow.png",0,0 V,0,0,500,0.02,0.02 F,0,32567,73710,0.5 C,0,38424,,255,165,0 M,0,38424,41924,43,500,-107,-100 F,0,38424,41924,0.5
Sprite,Background,Centre,"sb\glowing particle thats mean to be snow.png",0,0 V,0,0,500,0.02,0.02 F,0,32567,73710,0.5 C,0,38471,,242,132,86 M,0,38471,41971,-13,500,-163,-100 F,0,38471,41971,0.5
Sprite,Background,Centre,"sb\glowing particle thats mean to be snow.png",0,0 V,0,0,500,0.02,0.02 F,0,32567,73710,0.5 C,0,38519,,242,132,86 M,0,38519,42019,-37,500,-187,-100 F,0,38519,42019,0.5
Sprite,Background,Centre,"sb\glowing particle thats mean to be snow.png",0,0 V,0,0,500,0.02,0.02 F,0,32567,73710,0.5 C,0,38566,,242,132,86 M,0,38566,42066,532,500,382,-100 F,0,38566,42066,0.5
Sprite,Background,Centre,"sb\glowing particle thats mean to be snow.png",0,0 V,0,0,500,0.02,0.02 F,0,32567,73710,0.5 C,0,38614,,255,165,0 M,0,38614,42114,623,500,473,-100 F,0,38614,42114,0.5
Sprite,Background,Centre,"sb\glowing particle thats mean to be snow.png",0,0 V,0,0,500,0.02,0.02 F,0,32567,73710,0.5 C,0,38662,,242,132,86 M,0,38662,42162,397,500,247,-100 F,0,38662,42162,0.5
Sprite,Background,Centre,"sb\glowing particle thats mean to be snow.png",0,0 V,0,0,500,0.02,0.02 F,0,32567,73710,0.5 C,0,38709,,255,165,0 M,0,38709,42209,621,500,471,-100 F,0,38709,42209,0.5
Sprite,Background,Centre,"sb\glowing particle thats mean to be snow.png",0,0 V,0,0,500,0.02,0.02 F,0,32567,73710,0.5 C,0,38757,,255,165,0 M,0,38757,42257,290,500,140,-100 F,0,38757,42257,0.5
Sprite,Background,Centre,"sb\glowing particle thats mean to be snow.png",0,0 V,0,0,500,0.02,0.02 F,0,32567,73710,0.5 C,0,38805,,242,132,86 M,0,38805,42305,592,500,442,-100 F,0,38805,42305,0.5
Sprite,Background,Centre,"sb\glowing particle thats mean to be snow.png",0,0 V,0,0,500,0.02,0.02 F,0,32567,73710,0.5 C,0,38852,,255,165,0 M,0,38852,42352,199,500,49,-100 F,0,38852,42352,0.5
Sprite,Background,Centre,"sb\glowing particle thats mean to be snow.png",0,0 V,0,0,500,0.02,0.02 F,0,32567,73710,0.5 C,0,38900,,255,165,0 M,0,38900,42400,272,500,122,-100 F,0,38900,42400,0.5
Sprite,Background,Centre,"sb\glowing particle thats mean to be snow.png",0,0 V,0,0,500,0.02,0.02 F,0,32567,73710,0.5 C,0,38947,,255,165,0 M,0,38947,42447,759,500,609,-100 F,0,38947,42447,0.5
Sprite,Background,Centre,"sb\glowing particle thats mean to be snow.png",0,0 V,0,0,500,0.02,0.02 F,0,32567,73710,0.5 C,0,38995,,255,165,0 M,0,38995,42495,-14,500,-164,-100 F,0,38995,42495,0.5
Sprite,Background,Centre,"sb\glowing particle thats mean to be snow.png",0,0 V,0,0,500,0.02,0.02 F,0,32567,73710,0.5 C,0,39043,,255,165,0 M,0,39043,42543,752,500,602,-100 F,0,39043,42543,0.5
Sprite,Background,Centre,"sb\glowing particle thats mean to be snow.png",0,0 V,0,0,500,0.02,0.02 F,0,32567,73710,0.5 C,0,39090,,242,132,86 M,0,39090,42590,368,500,218,-100 F,0,39090,42590,0.5
Sprite,Background,Centre,"sb\glowing particle thats mean to be snow.png",0,0 V,0,0,500,0.02,0.02 F,0,32567,73710,0.5 C,0,39138,,255,165,0 M,0,39138,42638,-89,500,-239,-100 F,0,39138,42638,0.5
Sprite,Background,Centre,"sb\glowing particle thats mean to be snow.png",0,0 V,0,0,500,0.02,0.02 F,0,32567,73710,0.5 C,0,39186,,242,132,86 M,0,39186,42686,481,500,331,-100 F,0,39186,42686,0.5
Sprite,Background,Centre,"sb\glowing particle thats mean to be snow.png",0,0 V,0,0,500,0.02,0.02 F,0,32567,73710,0.5 C,0,39233,,242,132,86 M,0,39233,42733,646,500,496,-100 F,0,39233,42733,0.5
Sprite,Background,Centre,"sb\glowing particle thats mean to be snow.png",0,0 V,0,0,500,0.02,0.02 F,0,32567,73710,0.5 C,0,39281,,255,165,0 M,0,39281,42781,578,500,428,-100 F,0,39281,42781,0.5
Sprite,Background,Centre,"sb\glowing particle thats mean to be snow.png",0,0 V,0,0,500,0.02,0.02 F,0,32567,73710,0.5 C,0,39328,,255,165,0 M,0,39328,42828,615,500,465,-100 F,0,39328,42828,0.5
Sprite,Background,Centre,"sb\glowing particle thats mean to be snow.png",0,0 V,0,0,500,0.02,0.02 F,0,32567,73710,0.5 C,0,39376,,242,132,86 M,0,39376,42876,354,500,204,-100 F,0,39376,42876,0.5
Sprite,Background,Centre,"sb\glowing particle thats mean to be snow.png",0,0 V,0,0,500,0.02,0.02 F,0,32567,73710,0.5 C,0,39424,,255,165,0 M,0,39424,42924,449,500,299,-100 F,0,39424,42924,0.5
Sprite,Background,Centre,"sb\glowing particle thats mean to be snow.png",0,0 V,0,0,500,0.02,0.02 F,0,32567,73710,0.5 C,0,39471,,242,132,86 M,0,39471,42971,177,500,27,-100 F,0,39471,42971,0.5
Sprite,Background,Centre,"sb\glowing particle thats mean to be snow.png",0,0 V,0,0,500,0.02,0.02 F,0,32567,73710,0.5 C,0,39519,,242,132,86 M,0,39519,43019,590,500,440,-100 F,0,39519,43019,0.5
Sprite,Background,Centre,"sb\glowing particle thats mean to be snow.png",0,0 V,0,0,500,0.02,0.02 F,0,32567,73710,0.5 C,0,39566,,242,132,86 M,0,39566,43066,693,500,543,-100 F,0,39566,43066,0.5
Sprite,Background,Centre,"sb\glowing particle thats mean to be snow.png",0,0 V,0,0,500,0.02,0.02 F,0,32567,73710,0.5 C,0,39614,,242,132,86 M,0,39614,43114,73,500,-77,-100 F,0,39614,43114,0.5
Sprite,Background,Centre,"sb\glowing particle thats mean to be snow.png",0,0 V,0,0,500,0.02,0.02 F,0,32567,73710,0.5 C,0,39662,,242,132,86 M,0,39662,43162,472,500,322,-100 F,0,39662,43162,0.5
Sprite,Background,Centre,"sb\glowing particle thats mean to be snow.png",0,0 V,0,0,500,0.02,0.02 F,0,32567,73710,0.5 C,0,39709,,242,132,86 M,0,39709,43209,364,500,214,-100 F,0,39709,43209,0.5
Sprite,Background,Centre,"sb\glowing particle thats mean to be snow.png",0,0 V,0,0,500,0.02,0.02 F,0,32567,73710,0.5 C,0,39757,,242,132,86 M,0,39757,43257,567,500,417,-100 F,0,39757,43257,0.5
Sprite,Background,Centre,"sb\glowing particle thats mean to be snow.png",0,0 V,0,0,500,0.02,0.02 F,0,32567,73710,0.5 C,0,39805,,242,132,86 M,0,39805,43305,-4,500,-154,-100 F,0,39805,43305,0.5
Sprite,Background,Centre,"sb\glowing particle thats mean to be snow.png",0,0 V,0,0,500,0.02,0.02 F,0,32567,73710,0.5 C,0,39852,,255,165,0 M,0,39852,43352,11,500,-139,-100 F,0,39852,43352,0.5
Sprite,Background,Centre,"sb\glowing particle thats mean to be snow.png",0,0 V,0,0,500,0.02,0.02 F,0,32567,73710,0.5 C,0,39900,,255,165,0 M,0,39900,43400,388,500,238,-100 F,0,39900,43400,0.5
Sprite,Background,Centre,"sb\glowing particle thats mean to be snow.png",0,0 V,0,0,500,0.02,0.02 F,0,32567,73710,0.5 C,0,39947,,242,132,86 M,0,39947,43447,454,500,304,-100 F,0,39947,43447,0.5
Sprite,Background,Centre,"sb\glowing particle thats mean to be snow.png",0,0 V,0,0,500,0.02,0.02 F,0,32567,73710,0.5 C,0,39995,,242,132,86 M,0,39995,43495,394,500,244,-100 F,0,39995,43495,0.5
Sprite,Background,Centre,"sb\glowing particle thats mean to be snow.png",0,0 V,0,0,500,0.02,0.02 F,0,32567,73710,0.5 C,0,40043,,242,132,86 M,0,40043,43543,754,500,604,-100 F,0,40043,43543,0.5
Sprite,Background,Centre,"sb\glowing particle thats mean to be snow.png",0,0 V,0,0,500,0.02,0.02 F,0,32567,73710,0.5 C,0,40090,,242,132,86 M,0,40090,43590,12,500,-138,-100 F,0,40090,43590,0.5
Sprite,Background,Centre,"sb\glowing particle thats mean to be snow.png",0,0 V,0,0,500,0.02,0.02 F,0,32567,73710,0.5 C,0,40138,,255,165,0 M,0,40138,43638,446,500,296,-100 F,0,40138,43638,0.5
Sprite,Background,Centre,"sb\glowing particle thats mean to be snow.png",0,0 V,0,0,500,0.02,0.02 F,0,32567,73710,0.5 C,0,40186,,242,132,86 M,0,40186,43686,127,500,-23,-100 F,0,40186,43686,0.5
Sprite,Background,Centre,"sb\glowing particle thats mean to be snow.png",0,0 V,0,0,500,0.02,0.02 F,0,32567,73710,0.5 C,0,40233,,242,132,86 M,0,40233,43733,-79,500,-229,-100 F,0,40233,43733,0.5
Sprite,Background,Centre,"sb\glowing particle thats mean to be snow.png",0,0 V,0,0,500,0.02,0.02 F,0,32567,73710,0.5 C,0,40281,,255,165,0 M,0,40281,43781,160,500,10,-100 F,0,40281,43781,0.5
Sprite,Background,Centre,"sb\glowing particle thats mean to be snow.png",0,0 V,0,0,500,0.02,0.02 F,0,32567,73710,0.5 C,0,40328,,255,165,0 M,0,40328,43828,609,500,459,-100 F,0,40328,43828,0.5
Sprite,Background,Centre,"sb\glowing particle thats mean to be snow.png",0,0 V,0,0,500,0.02,0.02 F,0,32567,73710,0.5 C,0,40376,,242,132,86 M,0,40376,43876,718,500,568,-100 F,0,40376,43876,0.5
Sprite,Background,Centre,"sb\glowing particle thats mean to be snow.png",0,0 V,0,0,500,0.02,0.02 F,0,32567,73710,0.5 C,0,40424,,255,165,0 M,0,40424,43924,713,500,563,-100 F,0,40424,43924,0.5
Sprite,Background,Centre,"sb\glowing particle thats mean to be snow.png",0,0 V,0,0,500,0.02,0.02 F,0,32567,73710,0.5 C,0,40471,,242,132,86 M,0,40471,43971,671,500,521,-100 F,0,40471,43971,0.5
Sprite,Background,Centre,"sb\glowing particle thats mean to be snow.png",0,0 V,0,0,500,0.02,0.02 F,0,32567,73710,0.5 C,0,40519,,242,132,86 M,0,40519,44019,627,500,477,-100 F,0,40519,44019,0.5
Sprite,Background,Centre,"sb\glowing particle thats mean to be snow.png",0,0 V,0,0,500,0.02,0.02 F,0,32567,73710,0.5 C,0,40566,,242,132,86 M,0,40566,44066,379,500,229,-100 F,0,40566,44066,0.5
Sprite,Background,Centre,"sb\glowing particle thats mean to be snow.png",0,0 V,0,0,500,0.02,0.02 F,0,32567,73710,0.5 C,0,40614,,242,132,86 M,0,40614,44114,265,500,115,-100 F,0,40614,44114,0.5
Sprite,Background,Centre,"sb\glowing particle thats mean to be snow.png",0,0 V,0,0,500,0.02,0.02 F,0,32567,73710,0.5 C,0,40662,,255,165,0 M,0,40662,44162,268,500,118,-100 F,0,40662,44162,0.5
Sprite,Background,Centre,"sb\glowing particle thats mean to be snow.png",0,0 V,0,0,500,0.02,0.02 F,0,32567,73710,0.5 C,0,40709,,255,165,0 M,0,40709,44209,420,500,270,-100 F,0,40709,44209,0.5
Sprite,Background,Centre,"sb\glowing particle thats mean to be snow.png",0,0 V,0,0,500,0.02,0.02 F,0,32567,73710,0.5 C,0,40757,,242,132,86 M,0,40757,44257,685,500,535,-100 F,0,40757,44257,0.5
Sprite,Background,Centre,"sb\glowing particle thats mean to be snow.png",0,0 V,0,0,500,0.02,0.02 F,0,32567,73710,0.5 C,0,40805,,242,132,86 M,0,40805,44305,488,500,338,-100 F,0,40805,44305,0.5
Sprite,Background,Centre,"sb\glowing particle thats mean to be snow.png",0,0 V,0,0,500,0.02,0.02 F,0,32567,73710,0.5 C,0,40852,,255,165,0 M,0,40852,44352,306,500,156,-100 F,0,40852,44352,0.5
Sprite,Background,Centre,"sb\glowing particle thats mean to be snow.png",0,0 V,0,0,500,0.02,0.02 F,0,32567,73710,0.5 C,0,40900,,255,165,0 M,0,40900,44400,94,500,-56,-100 F,0,40900,44400,0.5
Sprite,Background,Centre,"sb\glowing particle thats mean to be snow.png",0,0 V,0,0,500,0.02,0.02 F,0,32567,73710,0.5 C,0,40947,,255,165,0 M,0,40947,44447,351,500,201,-100 F,0,40947,44447,0.5
Sprite,Background,Centre,"sb\glowing particle thats mean to be snow.png",0,0 V,0,0,500,0.02,0.02 F,0,32567,73710,0.5 C,0,40995,,242,132,86 M,0,40995,44495,717,500,567,-100 F,0,40995,44495,0.5
Sprite,Background,Centre,"sb\glowing particle thats mean to be snow.png",0,0 V,0,0,500,0.02,0.02 F,0,32567,73710,0.5 C,0,41043,,242,132,86 M,0,41043,44543,332,500,182,-100 F,0,41043,44543,0.5
Sprite,Background,Centre,"sb\glowing particle thats mean to be snow.png",0,0 V,0,0,500,0.02,0.02 F,0,32567,73710,0.5 C,0,41090,,242,132,86 M,0,41090,44590,69,500,-81,-100 F,0,41090,44590,0.5
Sprite,Background,Centre,"sb\glowing particle thats mean to be snow.png",0,0 V,0,0,500,0.02,0.02 F,0,32567,73710,0.5 C,0,41138,,255,165,0 M,0,41138,44638,433,500,283,-100 F,0,41138,44638,0.5
Sprite,Background,Centre,"sb\glowing particle thats mean to be snow.png",0,0 V,0,0,500,0.02,0.02 F,0,32567,73710,0.5 C,0,41186,,242,132,86 M,0,41186,44686,681,500,531,-100 F,0,41186,44686,0.5
Sprite,Background,Centre,"sb\glowing particle thats mean to be snow.png",0,0 V,0,0,500,0.02,0.02 F,0,32567,73710,0.5 C,0,41233,,255,165,0 M,0,41233,44733,553,500,403,-100 F,0,41233,44733,0.5
Sprite,Background,Centre,"sb\glowing particle thats mean to be snow.png",0,0 V,0,0,500,0.02,0.02 F,0,32567,73710,0.5 C,0,41281,,242,132,86 M,0,41281,44781,11,500,-139,-100 F,0,41281,44781,0.5
Sprite,Background,Centre,"sb\glowing particle thats mean to be snow.png",0,0 V,0,0,500,0.02,0.02 F,0,32567,73710,0.5 C,0,41328,,255,165,0 M,0,41328,44828,431,500,281,-100 F,0,41328,44828,0.5
Sprite,Background,Centre,"sb\glowing particle thats mean to be snow.png",0,0 V,0,0,500,0.02,0.02 F,0,32567,73710,0.5 C,0,41376,,255,165,0 M,0,41376,44876,394,500,244,-100 F,0,41376,44876,0.5
Sprite,Background,Centre,"sb\glowing particle thats mean to be snow.png",0,0 V,0,0,500,0.02,0.02 F,0,32567,73710,0.5 C,0,41424,,242,132,86 M,0,41424,44924,644,500,494,-100 F,0,41424,44924,0.5
Sprite,Background,Centre,"sb\glowing particle thats mean to be snow.png",0,0 V,0,0,500,0.02,0.02 F,0,32567,73710,0.5 C,0,41471,,255,165,0 M,0,41471,44971,230,500,80,-100 F,0,41471,44971,0.5
Sprite,Background,Centre,"sb\glowing particle thats mean to be snow.png",0,0 V,0,0,500,0.02,0.02 F,0,32567,73710,0.5 C,0,41519,,242,132,86 M,0,41519,45019,473,500,323,-100 F,0,41519,45019,0.5
Sprite,Background,Centre,"sb\glowing particle thats mean to be snow.png",0,0 V,0,0,500,0.02,0.02 F,0,32567,73710,0.5 C,0,41566,,255,165,0 M,0,41566,45066,363,500,213,-100 F,0,41566,45066,0.5
Sprite,Background,Centre,"sb\glowing particle thats mean to be snow.png",0,0 V,0,0,500,0.02,0.02 F,0,32567,73710,0.5 C,0,41614,,242,132,86 M,0,41614,45114,45,500,-105,-100 F,0,41614,45114,0.5
Sprite,Background,Centre,"sb\glowing particle thats mean to be snow.png",0,0 V,0,0,500,0.02,0.02 F,0,32567,73710,0.5 C,0,41662,,242,132,86 M,0,41662,45162,-36,500,-186,-100 F,0,41662,45162,0.5
Sprite,Background,Centre,"sb\glowing particle thats mean to be snow.png",0,0 V,0,0,500,0.02,0.02 F,0,32567,73710,0.5 C,0,41709,,242,132,86 M,0,41709,45209,747,500,597,-100 F,0,41709,45209,0.5
Sprite,Background,Centre,"sb\glowing particle thats mean to be snow.png",0,0 V,0,0,500,0.02,0.02 F,0,32567,73710,0.5 C,0,41757,,242,132,86 M,0,41757,45257,192,500,42,-100 F,0,41757,45257,0.5
Sprite,Background,Centre,"sb\glowing particle thats mean to be snow.png",0,0 V,0,0,500,0.02,0.02 F,0,32567,73710,0.5 C,0,41805,,255,165,0 M,0,41805,45305,349,500,199,-100 F,0,41805,45305,0.5
Sprite,Background,Centre,"sb\glowing particle thats mean to be snow.png",0,0 V,0,0,500,0.02,0.02 F,0,32567,73710,0.5 C,0,41852,,242,132,86 M,0,41852,45352,640,500,490,-100 F,0,41852,45352,0.5
Sprite,Background,Centre,"sb\glowing particle thats mean to be snow.png",0,0 V,0,0,500,0.02,0.02 F,0,32567,73710,0.5 C,0,41900,,242,132,86 M,0,41900,45400,8,500,-142,-100 F,0,41900,45400,0.5
Sprite,Background,Centre,"sb\glowing particle thats mean to be snow.png",0,0 V,0,0,500,0.02,0.02 F,0,32567,73710,0.5 C,0,41947,,255,165,0 M,0,41947,45447,569,500,419,-100 F,0,41947,45447,0.5
Sprite,Background,Centre,"sb\glowing particle thats mean to be snow.png",0,0 V,0,0,500,0.02,0.02 F,0,32567,73710,0.5 C,0,41995,,242,132,86 M,0,41995,45495,551,500,401,-100 F,0,41995,45495,0.5
Sprite,Background,Centre,"sb\glowing particle thats mean to be snow.png",0,0 V,0,0,500,0.02,0.02 F,0,32567,73710,0.5 C,0,42043,,242,132,86 M,0,42043,45543,58,500,-92,-100 F,0,42043,45543,0.5
Sprite,Background,Centre,"sb\glowing particle thats mean to be snow.png",0,0 V,0,0,500,0.02,0.02 F,0,32567,73710,0.5 C,0,42090,,255,165,0 M,0,42090,45590,62,500,-88,-100 F,0,42090,45590,0.5
Sprite,Background,Centre,"sb\glowing particle thats mean to be snow.png",0,0 V,0,0,500,0.02,0.02 F,0,32567,73710,0.5 C,0,42138,,255,165,0 M,0,42138,45638,529,500,379,-100 F,0,42138,45638,0.5
Sprite,Background,Centre,"sb\glowing particle thats mean to be snow.png",0,0 V,0,0,500,0.02,0.02 F,0,32567,73710,0.5 C,0,42186,,242,132,86 M,0,42186,45686,104,500,-46,-100 F,0,42186,45686,0.5
Sprite,Background,Centre,"sb\glowing particle thats mean to be snow.png",0,0 V,0,0,500,0.02,0.02 F,0,32567,73710,0.5 C,0,42233,,242,132,86 M,0,42233,45733,-53,500,-203,-100 F,0,42233,45733,0.5
Sprite,Background,Centre,"sb\glowing particle thats mean to be snow.png",0,0 V,0,0,500,0.02,0.02 F,0,32567,73710,0.5 C,0,42281,,242,132,86 M,0,42281,45781,321,500,171,-100 F,0,42281,45781,0.5
Sprite,Background,Centre,"sb\glowing particle thats mean to be snow.png",0,0 V,0,0,500,0.02,0.02 F,0,32567,73710,0.5 C,0,42328,,242,132,86 M,0,42328,45828,426,500,276,-100 F,0,42328,45828,0.5
Sprite,Background,Centre,"sb\glowing particle thats mean to be snow.png",0,0 V,0,0,500,0.02,0.02 F,0,32567,73710,0.5 C,0,42376,,242,132,86 M,0,42376,45876,585,500,435,-100 F,0,42376,45876,0.5
Sprite,Background,Centre,"sb\glowing particle thats mean to be snow.png",0,0 V,0,0,500,0.02,0.02 F,0,32567,73710,0.5 C,0,42424,,242,132,86 M,0,42424,45924,-4,500,-154,-100 F,0,42424,45924,0.5
Sprite,Background,Centre,"sb\glowing particle thats mean to be snow.png",0,0 V,0,0,500,0.02,0.02 F,0,32567,73710,0.5 C,0,42471,,255,165,0 M,0,42471,45971,356,500,206,-100 F,0,42471,45971,0.5
Sprite,Background,Centre,"sb\glowing particle thats mean to be snow.png",0,0 V,0,0,500,0.02,0.02 F,0,32567,73710,0.5 C,0,42519,,255,165,0 M,0,42519,46019,228,500,78,-100 F,0,42519,46019,0.5
Sprite,Background,Centre,"sb\glowing particle thats mean to be snow.png",0,0 V,0,0,500,0.02,0.02 F,0,32567,73710,0.5 C,0,42566,,242,132,86 M,0,42566,46066,298,500,148,-100 F,0,42566,46066,0.5
Sprite,Background,Centre,"sb\glowing particle thats mean to be snow.png",0,0 V,0,0,500,0.02,0.02 F,0,32567,73710,0.5 C,0,42614,,242,132,86 M,0,42614,46114,407,500,257,-100 F,0,42614,46114,0.5
Sprite,Background,Centre,"sb\glowing particle thats mean to be snow.png",0,0 V,0,0,500,0.02,0.02 F,0,32567,73710,0.5 C,0,42662,,242,132,86 M,0,42662,46162,571,500,421,-100 F,0,42662,46162,0.5
Sprite,Background,Centre,"sb\glowing particle thats mean to be snow.png",0,0 V,0,0,500,0.02,0.02 F,0,32567,73710,0.5 C,0,42709,,255,165,0 M,0,42709,46209,504,500,354,-100 F,0,42709,46209,0.5
Sprite,Background,Centre,"sb\glowing particle thats mean to be snow.png",0,0 V,0,0,500,0.02,0.02 F,0,32567,73710,0.5 C,0,42757,,255,165,0 M,0,42757,46257,304,500,154,-100 F,0,42757,46257,0.5
Sprite,Background,Centre,"sb\glowing particle thats mean to be snow.png",0,0 V,0,0,500,0.02,0.02 F,0,32567,73710,0.5 C,0,42805,,242,132,86 M,0,42805,46305,622,500,472,-100 F,0,42805,46305,0.5
Sprite,Background,Centre,"sb\glowing particle thats mean to be snow.png",0,0 V,0,0,500,0.02,0.02 F,0,32567,73710,0.5 C,0,42852,,242,132,86 M,0,42852,46352,679,500,529,-100 F,0,42852,46352,0.5
Sprite,Background,Centre,"sb\glowing particle thats mean to be snow.png",0,0 V,0,0,500,0.02,0.02 F,0,32567,73710,0.5 C,0,42900,,255,165,0 M,0,42900,46400,603,500,453,-100 F,0,42900,46400,0.5
Sprite,Background,Centre,"sb\glowing particle thats mean to be snow.png",0,0 V,0,0,500,0.02,0.02 F,0,32567,73710,0.5 C,0,42947,,242,132,86 M,0,42947,46447,548,500,398,-100 F,0,42947,46447,0.5
Sprite,Background,Centre,"sb\glowing particle thats mean to be snow.png",0,0 V,0,0,500,0.02,0.02 F,0,32567,73710,0.5 C,0,42995,,255,165,0 M,0,42995,46495,695,500,545,-100 F,0,42995,46495,0.5
Sprite,Background,Centre,"sb\glowing particle thats mean to be snow.png",0,0 V,0,0,500,0.02,0.02 F,0,32567,73710,0.5 C,0,43043,,242,132,86 M,0,43043,46543,752,500,602,-100 F,0,43043,46543,0.5
Sprite,Background,Centre,"sb\glowing particle thats mean to be snow.png",0,0 V,0,0,500,0.02,0.02 F,0,32567,73710,0.5 C,0,43090,,242,132,86 M,0,43090,46590,377,500,227,-100 F,0,43090,46590,0.5
Sprite,Background,Centre,"sb\glowing particle thats mean to be snow.png",0,0 V,0,0,500,0.02,0.02 F,0,32567,73710,0.5 C,0,43138,,242,132,86 M,0,43138,46638,731,500,581,-100 F,0,43138,46638,0.5
Sprite,Background,Centre,"sb\glowing particle thats mean to be snow.png",0,0 V,0,0,500,0.02,0.02 F,0,32567,73710,0.5 C,0,43186,,255,165,0 M,0,43186,46686,275,500,125,-100 F,0,43186,46686,0.5
Sprite,Background,Centre,"sb\glowing particle thats mean to be snow.png",0,0 V,0,0,500,0.02,0.02 F,0,32567,73710,0.5 C,0,43233,,255,165,0 M,0,43233,46733,-44,500,-194,-100 F,0,43233,46733,0.5
Sprite,Background,Centre,"sb\glowing particle thats mean to be snow.png",0,0 V,0,0,500,0.02,0.02 F,0,32567,73710,0.5 C,0,43281,,255,165,0 M,0,43281,46781,171,500,21,-100 F,0,43281,46781,0.5
Sprite,Background,Centre,"sb\glowing particle thats mean to be snow.png",0,0 V,0,0,500,0.02,0.02 F,0,32567,73710,0.5 C,0,43328,,242,132,86 M,0,43328,46828,645,500,495,-100 F,0,43328,46828,0.5
Sprite,Background,Centre,"sb\glowing particle thats mean to be snow.png",0,0 V,0,0,500,0.02,0.02 F,0,32567,73710,0.5 C,0,43376,,242,132,86 M,0,43376,46876,476,500,326,-100 F,0,43376,46876,0.5
Sprite,Background,Centre,"sb\glowing particle thats mean to be snow.png",0,0 V,0,0,500,0.02,0.02 F,0,32567,73710,0.5 C,0,43424,,255,165,0 M,0,43424,46924,753,500,603,-100 F,0,43424,46924,0.5
Sprite,Background,Centre,"sb\glowing particle thats mean to be snow.png",0,0 V,0,0,500,0.02,0.02 F,0,32567,73710,0.5 C,0,43471,,255,165,0 M,0,43471,46971,-47,500,-197,-100 F,0,43471,46971,0.5
Sprite,Background,Centre,"sb\glowing particle thats mean to be snow.png",0,0 V,0,0,500,0.02,0.02 F,0,32567,73710,0.5 C,0,43519,,242,132,86 M,0,43519,47019,505,500,355,-100 F,0,43519,47019,0.5
Sprite,Background,Centre,"sb\glowing particle thats mean to be snow.png",0,0 V,0,0,500,0.02,0.02 F,0,32567,73710,0.5 C,0,43566,,255,165,0 M,0,43566,47066,603,500,453,-100 F,0,43566,47066,0.5
Sprite,Background,Centre,"sb\glowing particle thats mean to be snow.png",0,0 V,0,0,500,0.02,0.02 F,0,32567,73710,0.5 C,0,43614,,242,132,86 M,0,43614,47114,351,500,201,-100 F,0,43614,47114,0.5
Sprite,Background,Centre,"sb\glowing particle thats mean to be snow.png",0,0 V,0,0,500,0.02,0.02 F,0,32567,73710,0.5 C,0,43662,,242,132,86 M,0,43662,47162,343,500,193,-100 F,0,43662,47162,0.5
Sprite,Background,Centre,"sb\glowing particle thats mean to be snow.png",0,0 V,0,0,500,0.02,0.02 F,0,32567,73710,0.5 C,0,43709,,255,165,0 M,0,43709,47209,230,500,80,-100 F,0,43709,47209,0.5
Sprite,Background,Centre,"sb\glowing particle thats mean to be snow.png",0,0 V,0,0,500,0.02,0.02 F,0,32567,73710,0.5 C,0,43757,,242,132,86 M,0,43757,47257,235,500,85,-100 F,0,43757,47257,0.5
Sprite,Background,Centre,"sb\glowing particle thats mean to be snow.png",0,0 V,0,0,500,0.02,0.02 F,0,32567,73710,0.5 C,0,43805,,255,165,0 M,0,43805,47305,617,500,467,-100 F,0,43805,47305,0.5
Sprite,Background,Centre,"sb\glowing particle thats mean to be snow.png",0,0 V,0,0,500,0.02,0.02 F,0,32567,73710,0.5 C,0,43852,,242,132,86 M,0,43852,47352,529,500,379,-100 F,0,43852,47352,0.5
Sprite,Background,Centre,"sb\glowing particle thats mean to be snow.png",0,0 V,0,0,500,0.02,0.02 F,0,32567,73710,0.5 C,0,43900,,242,132,86 M,0,43900,47400,365,500,215,-100 F,0,43900,47400,0.5
Sprite,Background,Centre,"sb\glowing particle thats mean to be snow.png",0,0 V,0,0,500,0.02,0.02 F,0,32567,73710,0.5 C,0,43947,,242,132,86 M,0,43947,47447,-27,500,-177,-100 F,0,43947,47447,0.5
Sprite,Background,Centre,"sb\glowing particle thats mean to be snow.png",0,0 V,0,0,500,0.02,0.02 F,0,32567,73710,0.5 C,0,43995,,255,165,0 M,0,43995,47495,688,500,538,-100 F,0,43995,47495,0.5
Sprite,Background,Centre,"sb\glowing particle thats mean to be snow.png",0,0 V,0,0,500,0.02,0.02 F,0,32567,73710,0.5 C,0,44043,,255,165,0 M,0,44043,47543,464,500,314,-100 F,0,44043,47543,0.5
Sprite,Background,Centre,"sb\glowing particle thats mean to be snow.png",0,0 V,0,0,500,0.02,0.02 F,0,32567,73710,0.5 C,0,44090,,255,165,0 M,0,44090,47590,111,500,-39,-100 F,0,44090,47590,0.5
Sprite,Background,Centre,"sb\glowing particle thats mean to be snow.png",0,0 V,0,0,500,0.02,0.02 F,0,32567,73710,0.5 C,0,44138,,242,132,86 M,0,44138,47638,384,500,234,-100 F,0,44138,47638,0.5
Sprite,Background,Centre,"sb\glowing particle thats mean to be snow.png",0,0 V,0,0,500,0.02,0.02 F,0,32567,73710,0.5 C,0,44186,,255,165,0 M,0,44186,47686,541,500,391,-100 F,0,44186,47686,0.5
Sprite,Background,Centre,"sb\glowing particle thats mean to be snow.png",0,0 V,0,0,500,0.02,0.02 F,0,32567,73710,0.5 C,0,44233,,242,132,86 M,0,44233,47733,410,500,260,-100 F,0,44233,47733,0.5
Sprite,Background,Centre,"sb\glowing particle thats mean to be snow.png",0,0 V,0,0,500,0.02,0.02 F,0,32567,73710,0.5 C,0,44281,,242,132,86 M,0,44281,47781,65,500,-85,-100 F,0,44281,47781,0.5
Sprite,Background,Centre,"sb\glowing particle thats mean to be snow.png",0,0 V,0,0,500,0.02,0.02 F,0,32567,73710,0.5 C,0,44328,,255,165,0 M,0,44328,47828,661,500,511,-100 F,0,44328,47828,0.5
Sprite,Background,Centre,"sb\glowing particle thats mean to be snow.png",0,0 V,0,0,500,0.02,0.02 F,0,32567,73710,0.5 C,0,44376,,255,165,0 M,0,44376,47876,110,500,-40,-100 F,0,44376,47876,0.5
Sprite,Background,Centre,"sb\glowing particle thats mean to be snow.png",0,0 V,0,0,500,0.02,0.02 F,0,32567,73710,0.5 C,0,44424,,255,165,0 M,0,44424,47924,455,500,305,-100 F,0,44424,47924,0.5
Sprite,Background,Centre,"sb\glowing particle thats mean to be snow.png",0,0 V,0,0,500,0.02,0.02 F,0,32567,73710,0.5 C,0,44471,,242,132,86 M,0,44471,47971,703,500,553,-100 F,0,44471,47971,0.5
Sprite,Background,Centre,"sb\glowing particle thats mean to be snow.png",0,0 V,0,0,500,0.02,0.02 F,0,32567,73710,0.5 C,0,44519,,255,165,0 M,0,44519,48019,374,500,224,-100 F,0,44519,48019,0.5
Sprite,Background,Centre,"sb\glowing particle thats mean to be snow.png",0,0 V,0,0,500,0.02,0.02 F,0,32567,73710,0.5 C,0,44566,,242,132,86 M,0,44566,48066,128,500,-22,-100 F,0,44566,48066,0.5
Sprite,Background,Centre,"sb\glowing particle thats mean to be snow.png",0,0 V,0,0,500,0.02,0.02 F,0,32567,73710,0.5 C,0,44614,,242,132,86 M,0,44614,48114,51,500,-99,-100 F,0,44614,48114,0.5
Sprite,Background,Centre,"sb\glowing particle thats mean to be snow.png",0,0 V,0,0,500,0.02,0.02 F,0,32567,73710,0.5 C,0,44662,,242,132,86 M,0,44662,48162,527,500,377,-100 F,0,44662,48162,0.5
Sprite,Background,Centre,"sb\glowing particle thats mean to be snow.png",0,0 V,0,0,500,0.02,0.02 F,0,32567,73710,0.5 C,0,44709,,255,165,0 M,0,44709,48209,384,500,234,-100 F,0,44709,48209,0.5
Sprite,Background,Centre,"sb\glowing particle thats mean to be snow.png",0,0 V,0,0,500,0.02,0.02 F,0,32567,73710,0.5 C,0,44757,,255,165,0 M,0,44757,48257,432,500,282,-100 F,0,44757,48257,0.5
Sprite,Background,Centre,"sb\glowing particle thats mean to be snow.png",0,0 V,0,0,500,0.02,0.02 F,0,32567,73710,0.5 C,0,44805,,255,165,0 M,0,44805,48305,731,500,581,-100 F,0,44805,48305,0.5
Sprite,Background,Centre,"sb\glowing particle thats mean to be snow.png",0,0 V,0,0,500,0.02,0.02 F,0,32567,73710,0.5 C,0,44852,,255,165,0 M,0,44852,48352,492,500,342,-100 F,0,44852,48352,0.5
Sprite,Background,Centre,"sb\glowing particle thats mean to be snow.png",0,0 V,0,0,500,0.02,0.02 F,0,32567,73710,0.5 C,0,44900,,255,165,0 M,0,44900,48400,507,500,357,-100 F,0,44900,48400,0.5
Sprite,Background,Centre,"sb\glowing particle thats mean to be snow.png",0,0 V,0,0,500,0.02,0.02 F,0,32567,73710,0.5 C,0,44947,,242,132,86 M,0,44947,48447,442,500,292,-100 F,0,44947,48447,0.5
Sprite,Background,Centre,"sb\glowing particle thats mean to be snow.png",0,0 V,0,0,500,0.02,0.02 F,0,32567,73710,0.5 C,0,44995,,255,165,0 M,0,44995,48495,455,500,305,-100 F,0,44995,48495,0.5
Sprite,Background,Centre,"sb\glowing particle thats mean to be snow.png",0,0 V,0,0,500,0.02,0.02 F,0,32567,73710,0.5 C,0,45043,,242,132,86 M,0,45043,48543,702,500,552,-100 F,0,45043,48543,0.5
Sprite,Background,Centre,"sb\glowing particle thats mean to be snow.png",0,0 V,0,0,500,0.02,0.02 F,0,32567,73710,0.5 C,0,45090,,255,165,0 M,0,45090,48590,1,500,-149,-100 F,0,45090,48590,0.5
Sprite,Background,Centre,"sb\glowing particle thats mean to be snow.png",0,0 V,0,0,500,0.02,0.02 F,0,32567,73710,0.5 C,0,45138,,242,132,86 M,0,45138,48638,680,500,530,-100 F,0,45138,48638,0.5
Sprite,Background,Centre,"sb\glowing particle thats mean to be snow.png",0,0 V,0,0,500,0.02,0.02 F,0,32567,73710,0.5 C,0,45186,,255,165,0 M,0,45186,48686,53,500,-97,-100 F,0,45186,48686,0.5
Sprite,Background,Centre,"sb\glowing particle thats mean to be snow.png",0,0 V,0,0,500,0.02,0.02 F,0,32567,73710,0.5 C,0,45233,,242,132,86 M,0,45233,48733,576,500,426,-100 F,0,45233,48733,0.5
Sprite,Background,Centre,"sb\glowing particle thats mean to be snow.png",0,0 V,0,0,500,0.02,0.02 F,0,32567,73710,0.5 C,0,45281,,255,165,0 M,0,45281,48781,251,500,101,-100 F,0,45281,48781,0.5
Sprite,Background,Centre,"sb\glowing particle thats mean to be snow.png",0,0 V,0,0,500,0.02,0.02 F,0,32567,73710,0.5 C,0,45328,,242,132,86 M,0,45328,48828,105,500,-45,-100 F,0,45328,48828,0.5
Sprite,Background,Centre,"sb\glowing particle thats mean to be snow.png",0,0 V,0,0,500,0.02,0.02 F,0,32567,73710,0.5 C,0,45376,,242,132,86 M,0,45376,48876,391,500,241,-100 F,0,45376,48876,0.5
Sprite,Background,Centre,"sb\glowing particle thats mean to be snow.png",0,0 V,0,0,500,0.02,0.02 F,0,32567,73710,0.5 C,0,45424,,242,132,86 M,0,45424,48924,481,500,331,-100 F,0,45424,48924,0.5
Sprite,Background,Centre,"sb\glowing particle thats mean to be snow.png",0,0 V,0,0,500,0.02,0.02 F,0,32567,73710,0.5 C,0,45471,,242,132,86 M,0,45471,48971,526,500,376,-100 F,0,45471,48971,0.5
Sprite,Background,Centre,"sb\glowing particle thats mean to be snow.png",0,0 V,0,0,500,0.02,0.02 F,0,32567,73710,0.5 C,0,45519,,242,132,86 M,0,45519,49019,48,500,-102,-100 F,0,45519,49019,0.5
Sprite,Background,Centre,"sb\glowing particle thats mean to be snow.png",0,0 V,0,0,500,0.02,0.02 F,0,32567,73710,0.5 C,0,45566,,242,132,86 M,0,45566,49066,290,500,140,-100 F,0,45566,49066,0.5
Sprite,Background,Centre,"sb\glowing particle thats mean to be snow.png",0,0 V,0,0,500,0.02,0.02 F,0,32567,73710,0.5 C,0,45614,,255,165,0 M,0,45614,49114,-27,500,-177,-100 F,0,45614,49114,0.5
Sprite,Background,Centre,"sb\glowing particle thats mean to be snow.png",0,0 V,0,0,500,0.02,0.02 F,0,32567,73710,0.5 C,0,45662,,242,132,86 M,0,45662,49162,733,500,583,-100 F,0,45662,49162,0.5
Sprite,Background,Centre,"sb\glowing particle thats mean to be snow.png",0,0 V,0,0,500,0.02,0.02 F,0,32567,73710,0.5 C,0,45709,,255,165,0 M,0,45709,49209,680,500,530,-100 F,0,45709,49209,0.5
Sprite,Background,Centre,"sb\glowing particle thats mean to be snow.png",0,0 V,0,0,500,0.02,0.02 F,0,32567,73710,0.5 C,0,45757,,255,165,0 M,0,45757,49257,41,500,-109,-100 F,0,45757,49257,0.5
Sprite,Background,Centre,"sb\glowing particle thats mean to be snow.png",0,0 V,0,0,500,0.02,0.02 F,0,32567,73710,0.5 C,0,45805,,255,165,0 M,0,45805,49305,252,500,102,-100 F,0,45805,49305,0.5
Sprite,Background,Centre,"sb\glowing particle thats mean to be snow.png",0,0 V,0,0,500,0.02,0.02 F,0,32567,73710,0.5 C,0,45852,,255,165,0 M,0,45852,49352,421,500,271,-100 F,0,45852,49352,0.5
Sprite,Background,Centre,"sb\glowing particle thats mean to be snow.png",0,0 V,0,0,500,0.02,0.02 F,0,32567,73710,0.5 C,0,45900,,242,132,86 M,0,45900,49400,682,500,532,-100 F,0,45900,49400,0.5
Sprite,Background,Centre,"sb\glowing particle thats mean to be snow.png",0,0 V,0,0,500,0.02,0.02 F,0,32567,73710,0.5 C,0,45947,,255,165,0 M,0,45947,49447,53,500,-97,-100 F,0,45947,49447,0.5
Sprite,Background,Centre,"sb\glowing particle thats mean to be snow.png",0,0 V,0,0,500,0.02,0.02 F,0,32567,73710,0.5 C,0,45995,,255,165,0 M,0,45995,49495,-11,500,-161,-100 F,0,45995,49495,0.5
Sprite,Background,Centre,"sb\glowing particle thats mean to be snow.png",0,0 V,0,0,500,0.02,0.02 F,0,32567,73710,0.5 C,0,46043,,242,132,86 M,0,46043,49543,576,500,426,-100 F,0,46043,49543,0.5
Sprite,Background,Centre,"sb\glowing particle thats mean to be snow.png",0,0 V,0,0,500,0.02,0.02 F,0,32567,73710,0.5 C,0,46090,,242,132,86 M,0,46090,49590,177,500,27,-100 F,0,46090,49590,0.5
Sprite,Background,Centre,"sb\glowing particle thats mean to be snow.png",0,0 V,0,0,500,0.02,0.02 F,0,32567,73710,0.5 C,0,46138,,255,165,0 M,0,46138,49638,499,500,349,-100 F,0,46138,49638,0.5
Sprite,Background,Centre,"sb\glowing particle thats mean to be snow.png",0,0 V,0,0,500,0.02,0.02 F,0,32567,73710,0.5 C,0,46186,,242,132,86 M,0,46186,49686,272,500,122,-100 F,0,46186,49686,0.5
Sprite,Background,Centre,"sb\glowing particle thats mean to be snow.png",0,0 V,0,0,500,0.02,0.02 F,0,32567,73710,0.5 C,0,46233,,242,132,86 M,0,46233,49733,-84,500,-234,-100 F,0,46233,49733,0.5
Sprite,Background,Centre,"sb\glowing particle thats mean to be snow.png",0,0 V,0,0,500,0.02,0.02 F,0,32567,73710,0.5 C,0,46281,,242,132,86 M,0,46281,49781,194,500,44,-100 F,0,46281,49781,0.5
Sprite,Background,Centre,"sb\glowing particle thats mean to be snow.png",0,0 V,0,0,500,0.02,0.02 F,0,32567,73710,0.5 C,0,46328,,255,165,0 M,0,46328,49828,329,500,179,-100 F,0,46328,49828,0.5
Sprite,Background,Centre,"sb\glowing particle thats mean to be snow.png",0,0 V,0,0,500,0.02,0.02 F,0,32567,73710,0.5 C,0,46376,,255,165,0 M,0,46376,49876,651,500,501,-100 F,0,46376,49876,0.5
Sprite,Background,Centre,"sb\glowing particle thats mean to be snow.png",0,0 V,0,0,500,0.02,0.02 F,0,32567,73710,0.5 C,0,46424,,255,165,0 M,0,46424,49924,518,500,368,-100 F,0,46424,49924,0.5
Sprite,Background,Centre,"sb\glowing particle thats mean to be snow.png",0,0 V,0,0,500,0.02,0.02 F,0,32567,73710,0.5 C,0,46471,,255,165,0 M,0,46471,49971,-1,500,-151,-100 F,0,46471,49971,0.5
Sprite,Background,Centre,"sb\glowing particle thats mean to be snow.png",0,0 V,0,0,500,0.02,0.02 F,0,32567,73710,0.5 C,0,46519,,255,165,0 M,0,46519,50019,-73,500,-223,-100 F,0,46519,50019,0.5
Sprite,Background,Centre,"sb\glowing particle thats mean to be snow.png",0,0 V,0,0,500,0.02,0.02 F,0,32567,73710,0.5 C,0,46566,,255,165,0 M,0,46566,50066,26,500,-124,-100 F,0,46566,50066,0.5
Sprite,Background,Centre,"sb\glowing particle thats mean to be snow.png",0,0 V,0,0,500,0.02,0.02 F,0,32567,73710,0.5 C,0,46614,,242,132,86 M,0,46614,50114,307,500,157,-100 F,0,46614,50114,0.5
Sprite,Background,Centre,"sb\glowing particle thats mean to be snow.png",0,0 V,0,0,500,0.02,0.02 F,0,32567,73710,0.5 C,0,46662,,255,165,0 M,0,46662,50162,348,500,198,-100 F,0,46662,50162,0.5
Sprite,Background,Centre,"sb\glowing particle thats mean to be snow.png",0,0 V,0,0,500,0.02,0.02 F,0,32567,73710,0.5 C,0,46709,,242,132,86 M,0,46709,50209,174,500,24,-100 F,0,46709,50209,0.5
Sprite,Background,Centre,"sb\glowing particle thats mean to be snow.png",0,0 V,0,0,500,0.02,0.02 F,0,32567,73710,0.5 C,0,46757,,242,132,86 M,0,46757,50257,177,500,27,-100 F,0,46757,50257,0.5
Sprite,Background,Centre,"sb\glowing particle thats mean to be snow.png",0,0 V,0,0,500,0.02,0.02 F,0,32567,73710,0.5 C,0,46805,,255,165,0 M,0,46805,50305,239,500,89,-100 F,0,46805,50305,0.5
Sprite,Background,Centre,"sb\glowing particle thats mean to be snow.png",0,0 V,0,0,500,0.02,0.02 F,0,32567,73710,0.5 C,0,46852,,242,132,86 M,0,46852,50352,111,500,-39,-100 F,0,46852,50352,0.5
Sprite,Background,Centre,"sb\glowing particle thats mean to be snow.png",0,0 V,0,0,500,0.02,0.02 F,0,32567,73710,0.5 C,0,46900,,255,165,0 M,0,46900,50400,38,500,-112,-100 F,0,46900,50400,0.5
Sprite,Background,Centre,"sb\glowing particle thats mean to be snow.png",0,0 V,0,0,500,0.02,0.02 F,0,32567,73710,0.5 C,0,46947,,242,132,86 M,0,46947,50447,135,500,-15,-100 F,0,46947,50447,0.5
Sprite,Background,Centre,"sb\glowing particle thats mean to be snow.png",0,0 V,0,0,500,0.02,0.02 F,0,32567,73710,0.5 C,0,46995,,242,132,86 M,0,46995,50495,605,500,455,-100 F,0,46995,50495,0.5
Sprite,Background,Centre,"sb\glowing particle thats mean to be snow.png",0,0 V,0,0,500,0.02,0.02 F,0,32567,73710,0.5 C,0,47043,,242,132,86 M,0,47043,50543,720,500,570,-100 F,0,47043,50543,0.5
Sprite,Background,Centre,"sb\glowing particle thats mean to be snow.png",0,0 V,0,0,500,0.02,0.02 F,0,32567,73710,0.5 C,0,47090,,242,132,86 M,0,47090,50590,368,500,218,-100 F,0,47090,50590,0.5
Sprite,Background,Centre,"sb\glowing particle thats mean to be snow.png",0,0 V,0,0,500,0.02,0.02 F,0,32567,73710,0.5 C,0,47138,,255,165,0 M,0,47138,50638,246,500,96,-100 F,0,47138,50638,0.5
Sprite,Background,Centre,"sb\glowing particle thats mean to be snow.png",0,0 V,0,0,500,0.02,0.02 F,0,32567,73710,0.5 C,0,47186,,242,132,86 M,0,47186,50686,-37,500,-187,-100 F,0,47186,50686,0.5
Sprite,Background,Centre,"sb\glowing particle thats mean to be snow.png",0,0 V,0,0,500,0.02,0.02 F,0,32567,73710,0.5 C,0,47233,,242,132,86 M,0,47233,50733,470,500,320,-100 F,0,47233,50733,0.5
Sprite,Background,Centre,"sb\glowing particle thats mean to be snow.png",0,0 V,0,0,500,0.02,0.02 F,0,32567,73710,0.5 C,0,47281,,242,132,86 M,0,47281,50781,374,500,224,-100 F,0,47281,50781,0.5
Sprite,Background,Centre,"sb\glowing particle thats mean to be snow.png",0,0 V,0,0,500,0.02,0.02 F,0,32567,73710,0.5 C,0,47328,,255,165,0 M,0,47328,50828,430,500,280,-100 F,0,47328,50828,0.5
Sprite,Background,Centre,"sb\glowing particle thats mean to be snow.png",0,0 V,0,0,500,0.02,0.02 F,0,32567,73710,0.5 C,0,47376,,255,165,0 M,0,47376,50876,67,500,-83,-100 F,0,47376,50876,0.5
Sprite,Background,Centre,"sb\glowing particle thats mean to be snow.png",0,0 V,0,0,500,0.02,0.02 F,0,32567,73710,0.5 C,0,47424,,242,132,86 M,0,47424,50924,443,500,293,-100 F,0,47424,50924,0.5
Sprite,Background,Centre,"sb\glowing particle thats mean to be snow.png",0,0 V,0,0,500,0.02,0.02 F,0,32567,73710,0.5 C,0,47471,,255,165,0 M,0,47471,50971,-47,500,-197,-100 F,0,47471,50971,0.5
Sprite,Background,Centre,"sb\glowing particle thats mean to be snow.png",0,0 V,0,0,500,0.02,0.02 F,0,32567,73710,0.5 C,0,47519,,255,165,0 M,0,47519,51019,56,500,-94,-100 F,0,47519,51019,0.5
Sprite,Background,Centre,"sb\glowing particle thats mean to be snow.png",0,0 V,0,0,500,0.02,0.02 F,0,32567,73710,0.5 C,0,47566,,242,132,86 M,0,47566,51066,614,500,464,-100 F,0,47566,51066,0.5
Sprite,Background,Centre,"sb\glowing particle thats mean to be snow.png",0,0 V,0,0,500,0.02,0.02 F,0,32567,73710,0.5 C,0,47614,,255,165,0 M,0,47614,51114,567,500,417,-100 F,0,47614,51114,0.5
Sprite,Background,Centre,"sb\glowing particle thats mean to be snow.png",0,0 V,0,0,500,0.02,0.02 F,0,32567,73710,0.5 C,0,47662,,255,165,0 M,0,47662,51162,483,500,333,-100 F,0,47662,51162,0.5
Sprite,Background,Centre,"sb\glowing particle thats mean to be snow.png",0,0 V,0,0,500,0.02,0.02 F,0,32567,73710,0.5 C,0,47709,,255,165,0 M,0,47709,51209,327,500,177,-100 F,0,47709,51209,0.5
Sprite,Background,Centre,"sb\glowing particle thats mean to be snow.png",0,0 V,0,0,500,0.02,0.02 F,0,32567,73710,0.5 C,0,47757,,255,165,0 M,0,47757,51257,489,500,339,-100 F,0,47757,51257,0.5
Sprite,Background,Centre,"sb\glowing particle thats mean to be snow.png",0,0 V,0,0,500,0.02,0.02 F,0,32567,73710,0.5 C,0,47805,,255,165,0 M,0,47805,51305,1,500,-149,-100 F,0,47805,51305,0.5
Sprite,Background,Centre,"sb\glowing particle thats mean to be snow.png",0,0 V,0,0,500,0.02,0.02 F,0,32567,73710,0.5 C,0,47852,,242,132,86 M,0,47852,51352,648,500,498,-100 F,0,47852,51352,0.5
Sprite,Background,Centre,"sb\glowing particle thats mean to be snow.png",0,0 V,0,0,500,0.02,0.02 F,0,32567,73710,0.5 C,0,47900,,242,132,86 M,0,47900,51400,749,500,599,-100 F,0,47900,51400,0.5
Sprite,Background,Centre,"sb\glowing particle thats mean to be snow.png",0,0 V,0,0,500,0.02,0.02 F,0,32567,73710,0.5 C,0,47947,,255,165,0 M,0,47947,51447,712,500,562,-100 F,0,47947,51447,0.5
Sprite,Background,Centre,"sb\glowing particle thats mean to be snow.png",0,0 V,0,0,500,0.02,0.02 F,0,32567,73710,0.5 C,0,47995,,242,132,86 M,0,47995,51495,391,500,241,-100 F,0,47995,51495,0.5
Sprite,Background,Centre,"sb\glowing particle thats mean to be snow.png",0,0 V,0,0,500,0.02,0.02 F,0,32567,73710,0.5 C,0,48043,,242,132,86 M,0,48043,51543,450,500,300,-100 F,0,48043,51543,0.5
Sprite,Background,Centre,"sb\glowing particle thats mean to be snow.png",0,0 V,0,0,500,0.02,0.02 F,0,32567,73710,0.5 C,0,48090,,242,132,86 M,0,48090,51590,358,500,208,-100 F,0,48090,51590,0.5
Sprite,Background,Centre,"sb\glowing particle thats mean to be snow.png",0,0 V,0,0,500,0.02,0.02 F,0,32567,73710,0.5 C,0,48138,,242,132,86 M,0,48138,51638,690,500,540,-100 F,0,48138,51638,0.5
Sprite,Background,Centre,"sb\glowing particle thats mean to be snow.png",0,0 V,0,0,500,0.02,0.02 F,0,32567,73710,0.5 C,0,48186,,242,132,86 M,0,48186,51686,709,500,559,-100 F,0,48186,51686,0.5
Sprite,Background,Centre,"sb\glowing particle thats mean to be snow.png",0,0 V,0,0,500,0.02,0.02 F,0,32567,73710,0.5 C,0,48233,,255,165,0 M,0,48233,51733,209,500,59,-100 F,0,48233,51733,0.5
Sprite,Background,Centre,"sb\glowing particle thats mean to be snow.png",0,0 V,0,0,500,0.02,0.02 F,0,32567,73710,0.5 C,0,48281,,242,132,86 M,0,48281,51781,207,500,57,-100 F,0,48281,51781,0.5
Sprite,Background,Centre,"sb\glowing particle thats mean to be snow.png",0,0 V,0,0,500,0.02,0.02 F,0,32567,73710,0.5 C,0,48328,,242,132,86 M,0,48328,51828,122,500,-28,-100 F,0,48328,51828,0.5
Sprite,Background,Centre,"sb\glowing particle thats mean to be snow.png",0,0 V,0,0,500,0.02,0.02 F,0,32567,73710,0.5 C,0,48376,,242,132,86 M,0,48376,51876,65,500,-85,-100 F,0,48376,51876,0.5
Sprite,Background,Centre,"sb\glowing particle thats mean to be snow.png",0,0 V,0,0,500,0.02,0.02 F,0,32567,73710,0.5 C,0,48424,,242,132,86 M,0,48424,51924,308,500,158,-100 F,0,48424,51924,0.5
Sprite,Background,Centre,"sb\glowing particle thats mean to be snow.png",0,0 V,0,0,500,0.02,0.02 F,0,32567,73710,0.5 C,0,48471,,242,132,86 M,0,48471,51971,-77,500,-227,-100 F,0,48471,51971,0.5
Sprite,Background,Centre,"sb\glowing particle thats mean to be snow.png",0,0 V,0,0,500,0.02,0.02 F,0,32567,73710,0.5 C,0,48519,,255,165,0 M,0,48519,52019,569,500,419,-100 F,0,48519,52019,0.5
Sprite,Background,Centre,"sb\glowing particle thats mean to be snow.png",0,0 V,0,0,500,0.02,0.02 F,0,32567,73710,0.5 C,0,48566,,255,165,0 M,0,48566,52066,368,500,218,-100 F,0,48566,52066,0.5
Sprite,Background,Centre,"sb\glowing particle thats mean to be snow.png",0,0 V,0,0,500,0.02,0.02 F,0,32567,73710,0.5 C,0,48614,,242,132,86 M,0,48614,52114,-39,500,-189,-100 F,0,48614,52114,0.5
Sprite,Background,Centre,"sb\glowing particle thats mean to be snow.png",0,0 V,0,0,500,0.02,0.02 F,0,32567,73710,0.5 C,0,48662,,242,132,86 M,0,48662,52162,-12,500,-162,-100 F,0,48662,52162,0.5
Sprite,Background,Centre,"sb\glowing particle thats mean to be snow.png",0,0 V,0,0,500,0.02,0.02 F,0,32567,73710,0.5 C,0,48709,,242,132,86 M,0,48709,52209,589,500,439,-100 F,0,48709,52209,0.5
Sprite,Background,Centre,"sb\glowing particle thats mean to be snow.png",0,0 V,0,0,500,0.02,0.02 F,0,32567,73710,0.5 C,0,48757,,242,132,86 M,0,48757,52257,258,500,108,-100 F,0,48757,52257,0.5
Sprite,Background,Centre,"sb\glowing particle thats mean to be snow.png",0,0 V,0,0,500,0.02,0.02 F,0,32567,73710,0.5 C,0,48805,,242,132,86 M,0,48805,52305,105,500,-45,-100 F,0,48805,52305,0.5
Sprite,Background,Centre,"sb\glowing particle thats mean to be snow.png",0,0 V,0,0,500,0.02,0.02 F,0,32567,73710,0.5 C,0,48852,,255,165,0 M,0,48852,52352,-26,500,-176,-100 F,0,48852,52352,0.5
Sprite,Background,Centre,"sb\glowing particle thats mean to be snow.png",0,0 V,0,0,500,0.02,0.02 F,0,32567,73710,0.5 C,0,48900,,255,165,0 M,0,48900,52400,533,500,383,-100 F,0,48900,52400,0.5
Sprite,Background,Centre,"sb\glowing particle thats mean to be snow.png",0,0 V,0,0,500,0.02,0.02 F,0,32567,73710,0.5 C,0,48947,,242,132,86 M,0,48947,52447,-52,500,-202,-100 F,0,48947,52447,0.5
Sprite,Background,Centre,"sb\glowing particle thats mean to be snow.png",0,0 V,0,0,500,0.02,0.02 F,0,32567,73710,0.5 C,0,48995,,242,132,86 M,0,48995,52495,595,500,445,-100 F,0,48995,52495,0.5
Sprite,Background,Centre,"sb\glowing particle thats mean to be snow.png",0,0 V,0,0,500,0.02,0.02 F,0,32567,73710,0.5 C,0,49043,,255,165,0 M,0,49043,52543,236,500,86,-100 F,0,49043,52543,0.5
Sprite,Background,Centre,"sb\glowing particle thats mean to be snow.png",0,0 V,0,0,500,0.02,0.02 F,0,32567,73710,0.5 C,0,49090,,242,132,86 M,0,49090,52590,210,500,60,-100 F,0,49090,52590,0.5
Sprite,Background,Centre,"sb\glowing particle thats mean to be snow.png",0,0 V,0,0,500,0.02,0.02 F,0,32567,73710,0.5 C,0,49138,,255,165,0 M,0,49138,52638,204,500,54,-100 F,0,49138,52638,0.5
Sprite,Background,Centre,"sb\glowing particle thats mean to be snow.png",0,0 V,0,0,500,0.02,0.02 F,0,32567,73710,0.5 C,0,49186,,255,165,0 M,0,49186,52686,711,500,561,-100 F,0,49186,52686,0.5
Sprite,Background,Centre,"sb\glowing particle thats mean to be snow.png",0,0 V,0,0,500,0.02,0.02 F,0,32567,73710,0.5 C,0,49233,,255,165,0 M,0,49233,52733,552,500,402,-100 F,0,49233,52733,0.5
Sprite,Background,Centre,"sb\glowing particle thats mean to be snow.png",0,0 V,0,0,500,0.02,0.02 F,0,32567,73710,0.5 C,0,49281,,242,132,86 M,0,49281,52781,598,500,448,-100 F,0,49281,52781,0.5
Sprite,Background,Centre,"sb\glowing particle thats mean to be snow.png",0,0 V,0,0,500,0.02,0.02 F,0,32567,73710,0.5 C,0,49328,,255,165,0 M,0,49328,52828,137,500,-13,-100 F,0,49328,52828,0.5
Sprite,Background,Centre,"sb\glowing particle thats mean to be snow.png",0,0 V,0,0,500,0.02,0.02 F,0,32567,73710,0.5 C,0,49376,,255,165,0 M,0,49376,52876,380,500,230,-100 F,0,49376,52876,0.5
Sprite,Background,Centre,"sb\glowing particle thats mean to be snow.png",0,0 V,0,0,500,0.02,0.02 F,0,32567,73710,0.5 C,0,49424,,255,165,0 M,0,49424,52924,44,500,-106,-100 F,0,49424,52924,0.5
Sprite,Background,Centre,"sb\glowing particle thats mean to be snow.png",0,0 V,0,0,500,0.02,0.02 F,0,32567,73710,0.5 C,0,49471,,255,165,0 M,0,49471,52971,65,500,-85,-100 F,0,49471,52971,0.5
Sprite,Background,Centre,"sb\glowing particle thats mean to be snow.png",0,0 V,0,0,500,0.02,0.02 F,0,32567,73710,0.5 C,0,49519,,255,165,0 M,0,49519,53019,390,500,240,-100 F,0,49519,53019,0.5
Sprite,Background,Centre,"sb\glowing particle thats mean to be snow.png",0,0 V,0,0,500,0.02,0.02 F,0,32567,73710,0.5 C,0,49566,,242,132,86 M,0,49566,53066,336,500,186,-100 F,0,49566,53066,0.5
Sprite,Background,Centre,"sb\glowing particle thats mean to be snow.png",0,0 V,0,0,500,0.02,0.02 F,0,32567,73710,0.5 C,0,49614,,242,132,86 M,0,49614,53114,583,500,433,-100 F,0,49614,53114,0.5
Sprite,Background,Centre,"sb\glowing particle thats mean to be snow.png",0,0 V,0,0,500,0.02,0.02 F,0,32567,73710,0.5 C,0,49662,,242,132,86 M,0,49662,53162,50,500,-100,-100 F,0,49662,53162,0.5
Sprite,Background,Centre,"sb\glowing particle thats mean to be snow.png",0,0 V,0,0,500,0.02,0.02 F,0,32567,73710,0.5 C,0,49709,,255,165,0 M,0,49709,53209,373,500,223,-100 F,0,49709,53209,0.5
Sprite,Background,Centre,"sb\glowing particle thats mean to be snow.png",0,0 V,0,0,500,0.02,0.02 F,0,32567,73710,0.5 C,0,49757,,255,165,0 M,0,49757,53257,239,500,89,-100 F,0,49757,53257,0.5
Sprite,Background,Centre,"sb\glowing particle thats mean to be snow.png",0,0 V,0,0,500,0.02,0.02 F,0,32567,73710,0.5 C,0,49805,,255,165,0 M,0,49805,53305,343,500,193,-100 F,0,49805,53305,0.5
Sprite,Background,Centre,"sb\glowing particle thats mean to be snow.png",0,0 V,0,0,500,0.02,0.02 F,0,32567,73710,0.5 C,0,49852,,255,165,0 M,0,49852,53352,368,500,218,-100 F,0,49852,53352,0.5
Sprite,Background,Centre,"sb\glowing particle thats mean to be snow.png",0,0 V,0,0,500,0.02,0.02 F,0,32567,73710,0.5 C,0,49900,,255,165,0 M,0,49900,53400,325,500,175,-100 F,0,49900,53400,0.5
Sprite,Background,Centre,"sb\glowing particle thats mean to be snow.png",0,0 V,0,0,500,0.02,0.02 F,0,32567,73710,0.5 C,0,49947,,242,132,86 M,0,49947,53447,477,500,327,-100 F,0,49947,53447,0.5
Sprite,Background,Centre,"sb\glowing particle thats mean to be snow.png",0,0 V,0,0,500,0.02,0.02 F,0,32567,73710,0.5 C,0,49995,,242,132,86 M,0,49995,53495,9,500,-141,-100 F,0,49995,53495,0.5
Sprite,Background,Centre,"sb\glowing particle thats mean to be snow.png",0,0 V,0,0,500,0.02,0.02 F,0,32567,73710,0.5 C,0,50043,,255,165,0 M,0,50043,53543,459,500,309,-100 F,0,50043,53543,0.5
Sprite,Background,Centre,"sb\glowing particle thats mean to be snow.png",0,0 V,0,0,500,0.02,0.02 F,0,32567,73710,0.5 C,0,50090,,255,165,0 M,0,50090,53590,263,500,113,-100 F,0,50090,53590,0.5
Sprite,Background,Centre,"sb\glowing particle thats mean to be snow.png",0,0 V,0,0,500,0.02,0.02 F,0,32567,73710,0.5 C,0,50138,,242,132,86 M,0,50138,53638,642,500,492,-100 F,0,50138,53638,0.5
Sprite,Background,Centre,"sb\glowing particle thats mean to be snow.png",0,0 V,0,0,500,0.02,0.02 F,0,32567,73710,0.5 C,0,50186,,242,132,86 M,0,50186,53686,64,500,-86,-100 F,0,50186,53686,0.5
Sprite,Background,Centre,"sb\glowing particle thats mean to be snow.png",0,0 V,0,0,500,0.02,0.02 F,0,32567,73710,0.5 C,0,50233,,242,132,86 M,0,50233,53733,247,500,97,-100 F,0,50233,53733,0.5
Sprite,Background,Centre,"sb\glowing particle thats mean to be snow.png",0,0 V,0,0,500,0.02,0.02 F,0,32567,73710,0.5 C,0,50281,,255,165,0 M,0,50281,53781,93,500,-57,-100 F,0,50281,53781,0.5
Sprite,Background,Centre,"sb\glowing particle thats mean to be snow.png",0,0 V,0,0,500,0.02,0.02 F,0,32567,73710,0.5 C,0,50328,,242,132,86 M,0,50328,53828,387,500,237,-100 F,0,50328,53828,0.5
Sprite,Background,Centre,"sb\glowing particle thats mean to be snow.png",0,0 V,0,0,500,0.02,0.02 F,0,32567,73710,0.5 C,0,50376,,242,132,86 M,0,50376,53876,137,500,-13,-100 F,0,50376,53876,0.5
Sprite,Background,Centre,"sb\glowing particle thats mean to be snow.png",0,0 V,0,0,500,0.02,0.02 F,0,32567,73710,0.5 C,0,50424,,242,132,86 M,0,50424,53924,159,500,9,-100 F,0,50424,53924,0.5
Sprite,Background,Centre,"sb\glowing particle thats mean to be snow.png",0,0 V,0,0,500,0.02,0.02 F,0,32567,73710,0.5 C,0,50471,,242,132,86 M,0,50471,53971,303,500,153,-100 F,0,50471,53971,0.5
Sprite,Background,Centre,"sb\glowing particle thats mean to be snow.png",0,0 V,0,0,500,0.02,0.02 F,0,32567,73710,0.5 C,0,50519,,255,165,0 M,0,50519,54019,49,500,-101,-100 F,0,50519,54019,0.5
Sprite,Background,Centre,"sb\glowing particle thats mean to be snow.png",0,0 V,0,0,500,0.02,0.02 F,0,32567,73710,0.5 C,0,50566,,242,132,86 M,0,50566,54066,14,500,-136,-100 F,0,50566,54066,0.5
Sprite,Background,Centre,"sb\glowing particle thats mean to be snow.png",0,0 V,0,0,500,0.02,0.02 F,0,32567,73710,0.5 C,0,50614,,255,165,0 M,0,50614,54114,538,500,388,-100 F,0,50614,54114,0.5
Sprite,Background,Centre,"sb\glowing particle thats mean to be snow.png",0,0 V,0,0,500,0.02,0.02 F,0,32567,73710,0.5 C,0,50662,,255,165,0 M,0,50662,54162,57,500,-93,-100 F,0,50662,54162,0.5
Sprite,Background,Centre,"sb\glowing particle thats mean to be snow.png",0,0 V,0,0,500,0.02,0.02 F,0,32567,73710,0.5 C,0,50709,,242,132,86 M,0,50709,54209,76,500,-74,-100 F,0,50709,54209,0.5
Sprite,Background,Centre,"sb\glowing particle thats mean to be snow.png",0,0 V,0,0,500,0.02,0.02 F,0,32567,73710,0.5 C,0,50757,,255,165,0 M,0,50757,54257,109,500,-41,-100 F,0,50757,54257,0.5
Sprite,Background,Centre,"sb\glowing particle thats mean to be snow.png",0,0 V,0,0,500,0.02,0.02 F,0,32567,73710,0.5 C,0,50805,,242,132,86 M,0,50805,54305,560,500,410,-100 F,0,50805,54305,0.5
Sprite,Background,Centre,"sb\glowing particle thats mean to be snow.png",0,0 V,0,0,500,0.02,0.02 F,0,32567,73710,0.5 C,0,50852,,255,165,0 M,0,50852,54352,166,500,16,-100 F,0,50852,54352,0.5
Sprite,Background,Centre,"sb\glowing particle thats mean to be snow.png",0,0 V,0,0,500,0.02,0.02 F,0,32567,73710,0.5 C,0,50900,,255,165,0 M,0,50900,54400,511,500,361,-100 F,0,50900,54400,0.5
Sprite,Background,Centre,"sb\glowing particle thats mean to be snow.png",0,0 V,0,0,500,0.02,0.02 F,0,32567,73710,0.5 C,0,50947,,255,165,0 M,0,50947,54447,130,500,-20,-100 F,0,50947,54447,0.5
Sprite,Background,Centre,"sb\glowing particle thats mean to be snow.png",0,0 V,0,0,500,0.02,0.02 F,0,32567,73710,0.5 C,0,50995,,242,132,86 M,0,50995,54495,136,500,-14,-100 F,0,50995,54495,0.5
Sprite,Background,Centre,"sb\glowing particle thats mean to be snow.png",0,0 V,0,0,500,0.02,0.02 F,0,32567,73710,0.5 C,0,51043,,242,132,86 M,0,51043,54543,350,500,200,-100 F,0,51043,54543,0.5
Sprite,Background,Centre,"sb\glowing particle thats mean to be snow.png",0,0 V,0,0,500,0.02,0.02 F,0,32567,73710,0.5 C,0,51090,,255,165,0 M,0,51090,54590,250,500,100,-100 F,0,51090,54590,0.5
Sprite,Background,Centre,"sb\glowing particle thats mean to be snow.png",0,0 V,0,0,500,0.02,0.02 F,0,32567,73710,0.5 C,0,51138,,242,132,86 M,0,51138,54638,-16,500,-166,-100 F,0,51138,54638,0.5
Sprite,Background,Centre,"sb\glowing particle thats mean to be snow.png",0,0 V,0,0,500,0.02,0.02 F,0,32567,73710,0.5 C,0,51186,,242,132,86 M,0,51186,54686,336,500,186,-100 F,0,51186,54686,0.5
Sprite,Background,Centre,"sb\glowing particle thats mean to be snow.png",0,0 V,0,0,500,0.02,0.02 F,0,32567,73710,0.5 C,0,51233,,242,132,86 M,0,51233,54733,489,500,339,-100 F,0,51233,54733,0.5
Sprite,Background,Centre,"sb\glowing particle thats mean to be snow.png",0,0 V,0,0,500,0.02,0.02 F,0,32567,73710,0.5 C,0,51281,,255,165,0 M,0,51281,54781,-89,500,-239,-100 F,0,51281,54781,0.5
Sprite,Background,Centre,"sb\glowing particle thats mean to be snow.png",0,0 V,0,0,500,0.02,0.02 F,0,32567,73710,0.5 C,0,51328,,255,165,0 M,0,51328,54828,697,500,547,-100 F,0,51328,54828,0.5
Sprite,Background,Centre,"sb\glowing particle thats mean to be snow.png",0,0 V,0,0,500,0.02,0.02 F,0,32567,73710,0.5 C,0,51376,,242,132,86 M,0,51376,54876,569,500,419,-100 F,0,51376,54876,0.5
Sprite,Background,Centre,"sb\glowing particle thats mean to be snow.png",0,0 V,0,0,500,0.02,0.02 F,0,32567,73710,0.5 C,0,51424,,242,132,86 M,0,51424,54924,114,500,-36,-100 F,0,51424,54924,0.5
Sprite,Background,Centre,"sb\glowing particle thats mean to be snow.png",0,0 V,0,0,500,0.02,0.02 F,0,32567,73710,0.5 C,0,51471,,242,132,86 M,0,51471,54971,71,500,-79,-100 F,0,51471,54971,0.5
Sprite,Background,Centre,"sb\glowing particle thats mean to be snow.png",0,0 V,0,0,500,0.02,0.02 F,0,32567,73710,0.5 C,0,51519,,242,132,86 M,0,51519,55019,634,500,484,-100 F,0,51519,55019,0.5
Sprite,Background,Centre,"sb\glowing particle thats mean to be snow.png",0,0 V,0,0,500,0.02,0.02 F,0,32567,73710,0.5 C,0,51566,,242,132,86 M,0,51566,55066,681,500,531,-100 F,0,51566,55066,0.5
Sprite,Background,Centre,"sb\glowing particle thats mean to be snow.png",0,0 V,0,0,500,0.02,0.02 F,0,32567,73710,0.5 C,0,51614,,242,132,86 M,0,51614,55114,44,500,-106,-100 F,0,51614,55114,0.5
Sprite,Background,Centre,"sb\glowing particle thats mean to be snow.png",0,0 V,0,0,500,0.02,0.02 F,0,32567,73710,0.5 C,0,51662,,255,165,0 M,0,51662,55162,23,500,-127,-100 F,0,51662,55162,0.5
Sprite,Background,Centre,"sb\glowing particle thats mean to be snow.png",0,0 V,0,0,500,0.02,0.02 F,0,32567,73710,0.5 C,0,51709,,242,132,86 M,0,51709,55209,353,500,203,-100 F,0,51709,55209,0.5
Sprite,Background,Centre,"sb\glowing particle thats mean to be snow.png",0,0 V,0,0,500,0.02,0.02 F,0,32567,73710,0.5 C,0,51757,,255,165,0 M,0,51757,55257,731,500,581,-100 F,0,51757,55257,0.5
Sprite,Background,Centre,"sb\glowing particle thats mean to be snow.png",0,0 V,0,0,500,0.02,0.02 F,0,32567,73710,0.5 C,0,51805,,255,165,0 M,0,51805,55305,104,500,-46,-100 F,0,51805,55305,0.5
Sprite,Background,Centre,"sb\glowing particle thats mean to be snow.png",0,0 V,0,0,500,0.02,0.02 F,0,32567,73710,0.5 C,0,51852,,255,165,0 M,0,51852,55352,184,500,34,-100 F,0,51852,55352,0.5
Sprite,Background,Centre,"sb\glowing particle thats mean to be snow.png",0,0 V,0,0,500,0.02,0.02 F,0,32567,73710,0.5 C,0,51900,,242,132,86 M,0,51900,55400,583,500,433,-100 F,0,51900,55400,0.5
Sprite,Background,Centre,"sb\glowing particle thats mean to be snow.png",0,0 V,0,0,500,0.02,0.02 F,0,32567,73710,0.5 C,0,51947,,242,132,86 M,0,51947,55447,361,500,211,-100 F,0,51947,55447,0.5
Sprite,Background,Centre,"sb\glowing particle thats mean to be snow.png",0,0 V,0,0,500,0.02,0.02 F,0,32567,73710,0.5 C,0,51995,,255,165,0 M,0,51995,55495,149,500,-1,-100 F,0,51995,55495,0.5
Sprite,Background,Centre,"sb\glowing particle thats mean to be snow.png",0,0 V,0,0,500,0.02,0.02 F,0,32567,73710,0.5 C,0,52043,,255,165,0 M,0,52043,55543,335,500,185,-100 F,0,52043,55543,0.5
Sprite,Background,Centre,"sb\glowing particle thats mean to be snow.png",0,0 V,0,0,500,0.02,0.02 F,0,32567,73710,0.5 C,0,52090,,242,132,86 M,0,52090,55590,519,500,369,-100 F,0,52090,55590,0.5
Sprite,Background,Centre,"sb\glowing particle thats mean to be snow.png",0,0 V,0,0,500,0.02,0.02 F,0,32567,73710,0.5 C,0,52138,,242,132,86 M,0,52138,55638,376,500,226,-100 F,0,52138,55638,0.5
Sprite,Background,Centre,"sb\glowing particle thats mean to be snow.png",0,0 V,0,0,500,0.02,0.02 F,0,32567,73710,0.5 C,0,52186,,242,132,86 M,0,52186,55686,613,500,463,-100 F,0,52186,55686,0.5
Sprite,Background,Centre,"sb\glowing particle thats mean to be snow.png",0,0 V,0,0,500,0.02,0.02 F,0,32567,73710,0.5 C,0,52233,,242,132,86 M,0,52233,55733,396,500,246,-100 F,0,52233,55733,0.5
Sprite,Background,Centre,"sb\glowing particle thats mean to be snow.png",0,0 V,0,0,500,0.02,0.02 F,0,32567,73710,0.5 C,0,52281,,255,165,0 M,0,52281,55781,430,500,280,-100 F,0,52281,55781,0.5
Sprite,Background,Centre,"sb\glowing particle thats mean to be snow.png",0,0 V,0,0,500,0.02,0.02 F,0,32567,73710,0.5 C,0,52328,,242,132,86 M,0,52328,55828,457,500,307,-100 F,0,52328,55828,0.5
Sprite,Background,Centre,"sb\glowing particle thats mean to be snow.png",0,0 V,0,0,500,0.02,0.02 F,0,32567,73710,0.5 C,0,52376,,255,165,0 M,0,52376,55876,197,500,47,-100 F,0,52376,55876,0.5
Sprite,Background,Centre,"sb\glowing particle thats mean to be snow.png",0,0 V,0,0,500,0.02,0.02 F,0,32567,73710,0.5 C,0,52424,,242,132,86 M,0,52424,55924,273,500,123,-100 F,0,52424,55924,0.5
Sprite,Background,Centre,"sb\glowing particle thats mean to be snow.png",0,0 V,0,0,500,0.02,0.02 F,0,32567,73710,0.5 C,0,52471,,255,165,0 M,0,52471,55971,734,500,584,-100 F,0,52471,55971,0.5
Sprite,Background,Centre,"sb\glowing particle thats mean to be snow.png",0,0 V,0,0,500,0.02,0.02 F,0,32567,73710,0.5 C,0,52519,,242,132,86 M,0,52519,56019,536,500,386,-100 F,0,52519,56019,0.5
Sprite,Background,Centre,"sb\glowing particle thats mean to be snow.png",0,0 V,0,0,500,0.02,0.02 F,0,32567,73710,0.5 C,0,52566,,242,132,86 M,0,52566,56066,314,500,164,-100 F,0,52566,56066,0.5
Sprite,Background,Centre,"sb\glowing particle thats mean to be snow.png",0,0 V,0,0,500,0.02,0.02 F,0,32567,73710,0.5 C,0,52614,,242,132,86 M,0,52614,56114,243,500,93,-100 F,0,52614,56114,0.5
Sprite,Background,Centre,"sb\glowing particle thats mean to be snow.png",0,0 V,0,0,500,0.02,0.02 F,0,32567,73710,0.5 C,0,52662,,255,165,0 M,0,52662,56162,319,500,169,-100 F,0,52662,56162,0.5
Sprite,Background,Centre,"sb\glowing particle thats mean to be snow.png",0,0 V,0,0,500,0.02,0.02 F,0,32567,73710,0.5 C,0,52709,,242,132,86 M,0,52709,56209,276,500,126,-100 F,0,52709,56209,0.5
Sprite,Background,Centre,"sb\glowing particle thats mean to be snow.png",0,0 V,0,0,500,0.02,0.02 F,0,32567,73710,0.5 C,0,52757,,242,132,86 M,0,52757,56257,515,500,365,-100 F,0,52757,56257,0.5
Sprite,Background,Centre,"sb\glowing particle thats mean to be snow.png",0,0 V,0,0,500,0.02,0.02 F,0,32567,73710,0.5 C,0,52805,,255,165,0 M,0,52805,56305,8,500,-142,-100 F,0,52805,56305,0.5
Sprite,Background,Centre,"sb\glowing particle thats mean to be snow.png",0,0 V,0,0,500,0.02,0.02 F,0,32567,73710,0.5 C,0,52852,,242,132,86 M,0,52852,56352,516,500,366,-100 F,0,52852,56352,0.5
Sprite,Background,Centre,"sb\glowing particle thats mean to be snow.png",0,0 V,0,0,500,0.02,0.02 F,0,32567,73710,0.5 C,0,52900,,242,132,86 M,0,52900,56400,573,500,423,-100 F,0,52900,56400,0.5
Sprite,Background,Centre,"sb\glowing particle thats mean to be snow.png",0,0 V,0,0,500,0.02,0.02 F,0,32567,73710,0.5 C,0,52947,,255,165,0 M,0,52947,56447,367,500,217,-100 F,0,52947,56447,0.5
Sprite,Background,Centre,"sb\glowing particle thats mean to be snow.png",0,0 V,0,0,500,0.02,0.02 F,0,32567,73710,0.5 C,0,52995,,242,132,86 M,0,52995,56495,621,500,471,-100 F,0,52995,56495,0.5
Sprite,Background,Centre,"sb\glowing particle thats mean to be snow.png",0,0 V,0,0,500,0.02,0.02 F,0,32567,73710,0.5 C,0,53043,,255,165,0 M,0,53043,56543,683,500,533,-100 F,0,53043,56543,0.5
Sprite,Background,Centre,"sb\glowing particle thats mean to be snow.png",0,0 V,0,0,500,0.02,0.02 F,0,32567,73710,0.5 C,0,53090,,242,132,86 M,0,53090,56590,-49,500,-199,-100 F,0,53090,56590,0.5
Sprite,Background,Centre,"sb\glowing particle thats mean to be snow.png",0,0 V,0,0,500,0.02,0.02 F,0,32567,73710,0.5 C,0,53138,,242,132,86 M,0,53138,56638,-71,500,-221,-100 F,0,53138,56638,0.5
Sprite,Background,Centre,"sb\glowing particle thats mean to be snow.png",0,0 V,0,0,500,0.02,0.02 F,0,32567,73710,0.5 C,0,53186,,255,165,0 M,0,53186,56686,367,500,217,-100 F,0,53186,56686,0.5
Sprite,Background,Centre,"sb\glowing particle thats mean to be snow.png",0,0 V,0,0,500,0.02,0.02 F,0,32567,73710,0.5 C,0,53233,,255,165,0 M,0,53233,56733,526,500,376,-100 F,0,53233,56733,0.5
Sprite,Background,Centre,"sb\glowing particle thats mean to be snow.png",0,0 V,0,0,500,0.02,0.02 F,0,32567,73710,0.5 C,0,53281,,242,132,86 M,0,53281,56781,-5,500,-155,-100 F,0,53281,56781,0.5
Sprite,Background,Centre,"sb\glowing particle thats mean to be snow.png",0,0 V,0,0,500,0.02,0.02 F,0,32567,73710,0.5 C,0,53328,,242,132,86 M,0,53328,56828,79,500,-71,-100 F,0,53328,56828,0.5
Sprite,Background,Centre,"sb\glowing particle thats mean to be snow.png",0,0 V,0,0,500,0.02,0.02 F,0,32567,73710,0.5 C,0,53376,,242,132,86 M,0,53376,56876,179,500,29,-100 F,0,53376,56876,0.5
Sprite,Background,Centre,"sb\glowing particle thats mean to be snow.png",0,0 V,0,0,500,0.02,0.02 F,0,32567,73710,0.5 C,0,53424,,242,132,86 M,0,53424,56924,548,500,398,-100 F,0,53424,56924,0.5
Sprite,Background,Centre,"sb\glowing particle thats mean to be snow.png",0,0 V,0,0,500,0.02,0.02 F,0,32567,73710,0.5 C,0,53471,,255,165,0 M,0,53471,56971,-79,500,-229,-100 F,0,53471,56971,0.5
Sprite,Background,Centre,"sb\glowing particle thats mean to be snow.png",0,0 V,0,0,500,0.02,0.02 F,0,32567,73710,0.5 C,0,53519,,242,132,86 M,0,53519,57019,-46,500,-196,-100 F,0,53519,57019,0.5
Sprite,Background,Centre,"sb\glowing particle thats mean to be snow.png",0,0 V,0,0,500,0.02,0.02 F,0,32567,73710,0.5 C,0,53566,,242,132,86 M,0,53566,57066,168,500,18,-100 F,0,53566,57066,0.5
Sprite,Background,Centre,"sb\glowing particle thats mean to be snow.png",0,0 V,0,0,500,0.02,0.02 F,0,32567,73710,0.5 C,0,53614,,255,165,0 M,0,53614,57114,549,500,399,-100 F,0,53614,57114,0.5
Sprite,Background,Centre,"sb\glowing particle thats mean to be snow.png",0,0 V,0,0,500,0.02,0.02 F,0,32567,73710,0.5 C,0,53662,,242,132,86 M,0,53662,57162,412,500,262,-100 F,0,53662,57162,0.5
Sprite,Background,Centre,"sb\glowing particle thats mean to be snow.png",0,0 V,0,0,500,0.02,0.02 F,0,32567,73710,0.5 C,0,53709,,242,132,86 M,0,53709,57209,14,500,-136,-100 F,0,53709,57209,0.5
Sprite,Background,Centre,"sb\glowing particle thats mean to be snow.png",0,0 V,0,0,500,0.02,0.02 F,0,32567,73710,0.5 C,0,53757,,242,132,86 M,0,53757,57257,302,500,152,-100 F,0,53757,57257,0.5
Sprite,Background,Centre,"sb\glowing particle thats mean to be snow.png",0,0 V,0,0,500,0.02,0.02 F,0,32567,73710,0.5 C,0,53805,,255,165,0 M,0,53805,57305,-90,500,-240,-100 F,0,53805,57305,0.5
Sprite,Background,Centre,"sb\glowing particle thats mean to be snow.png",0,0 V,0,0,500,0.02,0.02 F,0,32567,73710,0.5 C,0,53852,,255,165,0 M,0,53852,57352,156,500,6,-100 F,0,53852,57352,0.5
Sprite,Background,Centre,"sb\glowing particle thats mean to be snow.png",0,0 V,0,0,500,0.02,0.02 F,0,32567,73710,0.5 C,0,53900,,242,132,86 M,0,53900,57400,158,500,8,-100 F,0,53900,57400,0.5
Sprite,Background,Centre,"sb\glowing particle thats mean to be snow.png",0,0 V,0,0,500,0.02,0.02 F,0,32567,73710,0.5 C,0,53947,,242,132,86 M,0,53947,57447,110,500,-40,-100 F,0,53947,57447,0.5
Sprite,Background,Centre,"sb\glowing particle thats mean to be snow.png",0,0 V,0,0,500,0.02,0.02 F,0,32567,73710,0.5 C,0,53995,,255,165,0 M,0,53995,57495,216,500,66,-100 F,0,53995,57495,0.5
Sprite,Background,Centre,"sb\glowing particle thats mean to be snow.png",0,0 V,0,0,500,0.02,0.02 F,0,32567,73710,0.5 C,0,54043,,242,132,86 M,0,54043,57543,217,500,67,-100 F,0,54043,57543,0.5
Sprite,Background,Centre,"sb\glowing particle thats mean to be snow.png",0,0 V,0,0,500,0.02,0.02 F,0,32567,73710,0.5 C,0,54090,,255,165,0 M,0,54090,57590,-74,500,-224,-100 F,0,54090,57590,0.5
Sprite,Background,Centre,"sb\glowing particle thats mean to be snow.png",0,0 V,0,0,500,0.02,0.02 F,0,32567,73710,0.5 C,0,54138,,242,132,86 M,0,54138,57638,517,500,367,-100 F,0,54138,57638,0.5
Sprite,Background,Centre,"sb\glowing particle thats mean to be snow.png",0,0 V,0,0,500,0.02,0.02 F,0,32567,73710,0.5 C,0,54186,,242,132,86 M,0,54186,57686,588,500,438,-100 F,0,54186,57686,0.5
Sprite,Background,Centre,"sb\glowing particle thats mean to be snow.png",0,0 V,0,0,500,0.02,0.02 F,0,32567,73710,0.5 C,0,54233,,242,132,86 M,0,54233,57733,134,500,-16,-100 F,0,54233,57733,0.5
Sprite,Background,Centre,"sb\glowing particle thats mean to be snow.png",0,0 V,0,0,500,0.02,0.02 F,0,32567,73710,0.5 C,0,54281,,255,165,0 M,0,54281,57781,440,500,290,-100 F,0,54281,57781,0.5
Sprite,Background,Centre,"sb\glowing particle thats mean to be snow.png",0,0 V,0,0,500,0.02,0.02 F,0,32567,73710,0.5 C,0,54328,,242,132,86 M,0,54328,57828,746,500,596,-100 F,0,54328,57828,0.5
Sprite,Background,Centre,"sb\glowing particle thats mean to be snow.png",0,0 V,0,0,500,0.02,0.02 F,0,32567,73710,0.5 C,0,54376,,255,165,0 M,0,54376,57876,459,500,309,-100 F,0,54376,57876,0.5
Sprite,Background,Centre,"sb\glowing particle thats mean to be snow.png",0,0 V,0,0,500,0.02,0.02 F,0,32567,73710,0.5 C,0,54424,,242,132,86 M,0,54424,57924,426,500,276,-100 F,0,54424,57924,0.5
Sprite,Background,Centre,"sb\glowing particle thats mean to be snow.png",0,0 V,0,0,500,0.02,0.02 F,0,32567,73710,0.5 C,0,54471,,242,132,86 M,0,54471,57971,274,500,124,-100 F,0,54471,57971,0.5
Sprite,Background,Centre,"sb\glowing particle thats mean to be snow.png",0,0 V,0,0,500,0.02,0.02 F,0,32567,73710,0.5 C,0,54519,,242,132,86 M,0,54519,58019,560,500,410,-100 F,0,54519,58019,0.5
Sprite,Background,Centre,"sb\glowing particle thats mean to be snow.png",0,0 V,0,0,500,0.02,0.02 F,0,32567,73710,0.5 C,0,54566,,255,165,0 M,0,54566,58066,-32,500,-182,-100 F,0,54566,58066,0.5
Sprite,Background,Centre,"sb\glowing particle thats mean to be snow.png",0,0 V,0,0,500,0.02,0.02 F,0,32567,73710,0.5 C,0,54614,,242,132,86 M,0,54614,58114,287,500,137,-100 F,0,54614,58114,0.5
Sprite,Background,Centre,"sb\glowing particle thats mean to be snow.png",0,0 V,0,0,500,0.02,0.02 F,0,32567,73710,0.5 C,0,54662,,255,165,0 M,0,54662,58162,-81,500,-231,-100 F,0,54662,58162,0.5
Sprite,Background,Centre,"sb\glowing particle thats mean to be snow.png",0,0 V,0,0,500,0.02,0.02 F,0,32567,73710,0.5 C,0,54709,,255,165,0 M,0,54709,58209,-19,500,-169,-100 F,0,54709,58209,0.5
Sprite,Background,Centre,"sb\glowing particle thats mean to be snow.png",0,0 V,0,0,500,0.02,0.02 F,0,32567,73710,0.5 C,0,54757,,255,165,0 M,0,54757,58257,-45,500,-195,-100 F,0,54757,58257,0.5
Sprite,Background,Centre,"sb\glowing particle thats mean to be snow.png",0,0 V,0,0,500,0.02,0.02 F,0,32567,73710,0.5 C,0,54805,,242,132,86 M,0,54805,58305,392,500,242,-100 F,0,54805,58305,0.5
Sprite,Background,Centre,"sb\glowing particle thats mean to be snow.png",0,0 V,0,0,500,0.02,0.02 F,0,32567,73710,0.5 C,0,54852,,242,132,86 M,0,54852,58352,14,500,-136,-100 F,0,54852,58352,0.5
Sprite,Background,Centre,"sb\glowing particle thats mean to be snow.png",0,0 V,0,0,500,0.02,0.02 F,0,32567,73710,0.5 C,0,54900,,242,132,86 M,0,54900,58400,311,500,161,-100 F,0,54900,58400,0.5
Sprite,Background,Centre,"sb\glowing particle thats mean to be snow.png",0,0 V,0,0,500,0.02,0.02 F,0,32567,73710,0.5 C,0,54947,,242,132,86 M,0,54947,58447,-79,500,-229,-100 F,0,54947,58447,0.5
Sprite,Background,Centre,"sb\glowing particle thats mean to be snow.png",0,0 V,0,0,500,0.02,0.02 F,0,32567,73710,0.5 C,0,54995,,255,165,0 M,0,54995,58495,272,500,122,-100 F,0,54995,58495,0.5
Sprite,Background,Centre,"sb\glowing particle thats mean to be snow.png",0,0 V,0,0,500,0.02,0.02 F,0,32567,73710,0.5 C,0,55043,,242,132,86 M,0,55043,58543,36,500,-114,-100 F,0,55043,58543,0.5
Sprite,Background,Centre,"sb\glowing particle thats mean to be snow.png",0,0 V,0,0,500,0.02,0.02 F,0,32567,73710,0.5 C,0,55090,,242,132,86 M,0,55090,58590,511,500,361,-100 F,0,55090,58590,0.5
Sprite,Background,Centre,"sb\glowing particle thats mean to be snow.png",0,0 V,0,0,500,0.02,0.02 F,0,32567,73710,0.5 C,0,55138,,255,165,0 M,0,55138,58638,518,500,368,-100 F,0,55138,58638,0.5
Sprite,Background,Centre,"sb\glowing particle thats mean to be snow.png",0,0 V,0,0,500,0.02,0.02 F,0,32567,73710,0.5 C,0,55186,,255,165,0 M,0,55186,58686,657,500,507,-100 F,0,55186,58686,0.5
Sprite,Background,Centre,"sb\glowing particle thats mean to be snow.png",0,0 V,0,0,500,0.02,0.02 F,0,32567,73710,0.5 C,0,55233,,255,165,0 M,0,55233,58733,270,500,120,-100 F,0,55233,58733,0.5
Sprite,Background,Centre,"sb\glowing particle thats mean to be snow.png",0,0 V,0,0,500,0.02,0.02 F,0,32567,73710,0.5 C,0,55281,,242,132,86 M,0,55281,58781,-61,500,-211,-100 F,0,55281,58781,0.5
Sprite,Background,Centre,"sb\glowing particle thats mean to be snow.png",0,0 V,0,0,500,0.02,0.02 F,0,32567,73710,0.5 C,0,55328,,242,132,86 M,0,55328,58828,570,500,420,-100 F,0,55328,58828,0.5
Sprite,Background,Centre,"sb\glowing particle thats mean to be snow.png",0,0 V,0,0,500,0.02,0.02 F,0,32567,73710,0.5 C,0,55376,,242,132,86 M,0,55376,58876,6,500,-144,-100 F,0,55376,58876,0.5
Sprite,Background,Centre,"sb\glowing particle thats mean to be snow.png",0,0 V,0,0,500,0.02,0.02 F,0,32567,73710,0.5 C,0,55424,,242,132,86 M,0,55424,58924,104,500,-46,-100 F,0,55424,58924,0.5
Sprite,Background,Centre,"sb\glowing particle thats mean to be snow.png",0,0 V,0,0,500,0.02,0.02 F,0,32567,73710,0.5 C,0,55471,,242,132,86 M,0,55471,58971,251,500,101,-100 F,0,55471,58971,0.5
Sprite,Background,Centre,"sb\glowing particle thats mean to be snow.png",0,0 V,0,0,500,0.02,0.02 F,0,32567,73710,0.5 C,0,55519,,255,165,0 M,0,55519,59019,182,500,32,-100 F,0,55519,59019,0.5
Sprite,Background,Centre,"sb\glowing particle thats mean to be snow.png",0,0 V,0,0,500,0.02,0.02 F,0,32567,73710,0.5 C,0,55566,,242,132,86 M,0,55566,59066,75,500,-75,-100 F,0,55566,59066,0.5
Sprite,Background,Centre,"sb\glowing particle thats mean to be snow.png",0,0 V,0,0,500,0.02,0.02 F,0,32567,73710,0.5 C,0,55614,,242,132,86 M,0,55614,59114,200,500,50,-100 F,0,55614,59114,0.5
Sprite,Background,Centre,"sb\glowing particle thats mean to be snow.png",0,0 V,0,0,500,0.02,0.02 F,0,32567,73710,0.5 C,0,55662,,255,165,0 M,0,55662,59162,167,500,17,-100 F,0,55662,59162,0.5
Sprite,Background,Centre,"sb\glowing particle thats mean to be snow.png",0,0 V,0,0,500,0.02,0.02 F,0,32567,73710,0.5 C,0,55709,,255,165,0 M,0,55709,59209,-19,500,-169,-100 F,0,55709,59209,0.5
Sprite,Background,Centre,"sb\glowing particle thats mean to be snow.png",0,0 V,0,0,500,0.02,0.02 F,0,32567,73710,0.5 C,0,55757,,242,132,86 M,0,55757,59257,147,500,-3,-100 F,0,55757,59257,0.5
Sprite,Background,Centre,"sb\glowing particle thats mean to be snow.png",0,0 V,0,0,500,0.02,0.02 F,0,32567,73710,0.5 C,0,55805,,242,132,86 M,0,55805,59305,665,500,515,-100 F,0,55805,59305,0.5
Sprite,Background,Centre,"sb\glowing particle thats mean to be snow.png",0,0 V,0,0,500,0.02,0.02 F,0,32567,73710,0.5 C,0,55852,,255,165,0 M,0,55852,59352,49,500,-101,-100 F,0,55852,59352,0.5
Sprite,Background,Centre,"sb\glowing particle thats mean to be snow.png",0,0 V,0,0,500,0.02,0.02 F,0,32567,73710,0.5 C,0,55900,,242,132,86 M,0,55900,59400,-39,500,-189,-100 F,0,55900,59400,0.5
Sprite,Background,Centre,"sb\glowing particle thats mean to be snow.png",0,0 V,0,0,500,0.02,0.02 F,0,32567,73710,0.5 C,0,55947,,242,132,86 M,0,55947,59447,576,500,426,-100 F,0,55947,59447,0.5
Sprite,Background,Centre,"sb\glowing particle thats mean to be snow.png",0,0 V,0,0,500,0.02,0.02 F,0,32567,73710,0.5 C,0,55995,,242,132,86 M,0,55995,59495,684,500,534,-100 F,0,55995,59495,0.5
Sprite,Background,Centre,"sb\glowing particle thats mean to be snow.png",0,0 V,0,0,500,0.02,0.02 F,0,32567,73710,0.5 C,0,56043,,242,132,86 M,0,56043,59543,160,500,10,-100 F,0,56043,59543,0.5
Sprite,Background,Centre,"sb\glowing particle thats mean to be snow.png",0,0 V,0,0,500,0.02,0.02 F,0,32567,73710,0.5 C,0,56090,,255,165,0 M,0,56090,59590,348,500,198,-100 F,0,56090,59590,0.5
Sprite,Background,Centre,"sb\glowing particle thats mean to be snow.png",0,0 V,0,0,500,0.02,0.02 F,0,32567,73710,0.5 C,0,56138,,242,132,86 M,0,56138,59638,532,500,382,-100 F,0,56138,59638,0.5
Sprite,Background,Centre,"sb\glowing particle thats mean to be snow.png",0,0 V,0,0,500,0.02,0.02 F,0,32567,73710,0.5 C,0,56186,,242,132,86 M,0,56186,59686,-84,500,-234,-100 F,0,56186,59686,0.5
Sprite,Background,Centre,"sb\glowing particle thats mean to be snow.png",0,0 V,0,0,500,0.02,0.02 F,0,32567,73710,0.5 C,0,56233,,255,165,0 M,0,56233,59733,634,500,484,-100 F,0,56233,59733,0.5
Sprite,Background,Centre,"sb\glowing particle thats mean to be snow.png",0,0 V,0,0,500,0.02,0.02 F,0,32567,73710,0.5 C,0,56281,,242,132,86 M,0,56281,59781,570,500,420,-100 F,0,56281,59781,0.5
Sprite,Background,Centre,"sb\glowing particle thats mean to be snow.png",0,0 V,0,0,500,0.02,0.02 F,0,32567,73710,0.5 C,0,56328,,255,165,0 M,0,56328,59828,248,500,98,-100 F,0,56328,59828,0.5
Sprite,Background,Centre,"sb\glowing particle thats mean to be snow.png",0,0 V,0,0,500,0.02,0.02 F,0,32567,73710,0.5 C,0,56376,,255,165,0 M,0,56376,59876,-75,500,-225,-100 F,0,56376,59876,0.5
Sprite,Background,Centre,"sb\glowing particle thats mean to be snow.png",0,0 V,0,0,500,0.02,0.02 F,0,32567,73710,0.5 C,0,56424,,242,132,86 M,0,56424,59924,547,500,397,-100 F,0,56424,59924,0.5
Sprite,Background,Centre,"sb\glowing particle thats mean to be snow.png",0,0 V,0,0,500,0.02,0.02 F,0,32567,73710,0.5 C,0,56471,,242,132,86 M,0,56471,59971,388,500,238,-100 F,0,56471,59971,0.5
Sprite,Background,Centre,"sb\glowing particle thats mean to be snow.png",0,0 V,0,0,500,0.02,0.02 F,0,32567,73710,0.5 C,0,56519,,255,165,0 M,0,56519,60019,464,500,314,-100 F,0,56519,60019,0.5
Sprite,Background,Centre,"sb\glowing particle thats mean to be snow.png",0,0 V,0,0,500,0.02,0.02 F,0,32567,73710,0.5 C,0,56566,,255,165,0 M,0,56566,60066,472,500,322,-100 F,0,56566,60066,0.5
Sprite,Background,Centre,"sb\glowing particle thats mean to be snow.png",0,0 V,0,0,500,0.02,0.02 F,0,32567,73710,0.5 C,0,56614,,255,165,0 M,0,56614,60114,44,500,-106,-100 F,0,56614,60114,0.5
Sprite,Background,Centre,"sb\glowing particle thats mean to be snow.png",0,0 V,0,0,500,0.02,0.02 F,0,32567,73710,0.5 C,0,56662,,242,132,86 M,0,56662,60162,662,500,512,-100 F,0,56662,60162,0.5
Sprite,Background,Centre,"sb\glowing particle thats mean to be snow.png",0,0 V,0,0,500,0.02,0.02 F,0,32567,73710,0.5 C,0,56709,,255,165,0 M,0,56709,60209,71,500,-79,-100 F,0,56709,60209,0.5
Sprite,Background,Centre,"sb\glowing particle thats mean to be snow.png",0,0 V,0,0,500,0.02,0.02 F,0,32567,73710,0.5 C,0,56757,,242,132,86 M,0,56757,60257,277,500,127,-100 F,0,56757,60257,0.5
Sprite,Background,Centre,"sb\glowing particle thats mean to be snow.png",0,0 V,0,0,500,0.02,0.02 F,0,32567,73710,0.5 C,0,56805,,255,165,0 M,0,56805,60305,-8,500,-158,-100 F,0,56805,60305,0.5
Sprite,Background,Centre,"sb\glowing particle thats mean to be snow.png",0,0 V,0,0,500,0.02,0.02 F,0,32567,73710,0.5 C,0,56852,,242,132,86 M,0,56852,60352,122,500,-28,-100 F,0,56852,60352,0.5
Sprite,Background,Centre,"sb\glowing particle thats mean to be snow.png",0,0 V,0,0,500,0.02,0.02 F,0,32567,73710,0.5 C,0,56900,,255,165,0 M,0,56900,60400,383,500,233,-100 F,0,56900,60400,0.5
Sprite,Background,Centre,"sb\glowing particle thats mean to be snow.png",0,0 V,0,0,500,0.02,0.02 F,0,32567,73710,0.5 C,0,56947,,242,132,86 M,0,56947,60447,541,500,391,-100 F,0,56947,60447,0.5
Sprite,Background,Centre,"sb\glowing particle thats mean to be snow.png",0,0 V,0,0,500,0.02,0.02 F,0,32567,73710,0.5 C,0,56995,,255,165,0 M,0,56995,60495,349,500,199,-100 F,0,56995,60495,0.5
Sprite,Background,Centre,"sb\glowing particle thats mean to be snow.png",0,0 V,0,0,500,0.02,0.02 F,0,32567,73710,0.5 C,0,57043,,242,132,86 M,0,57043,60543,483,500,333,-100 F,0,57043,60543,0.5
Sprite,Background,Centre,"sb\glowing particle thats mean to be snow.png",0,0 V,0,0,500,0.02,0.02 F,0,32567,73710,0.5 C,0,57090,,242,132,86 M,0,57090,60590,311,500,161,-100 F,0,57090,60590,0.5
Sprite,Background,Centre,"sb\glowing particle thats mean to be snow.png",0,0 V,0,0,500,0.02,0.02 F,0,32567,73710,0.5 C,0,57138,,255,165,0 M,0,57138,60638,461,500,311,-100 F,0,57138,60638,0.5
Sprite,Background,Centre,"sb\glowing particle thats mean to be snow.png",0,0 V,0,0,500,0.02,0.02 F,0,32567,73710,0.5 C,0,57186,,242,132,86 M,0,57186,60686,621,500,471,-100 F,0,57186,60686,0.5
Sprite,Background,Centre,"sb\glowing particle thats mean to be snow.png",0,0 V,0,0,500,0.02,0.02 F,0,32567,73710,0.5 C,0,57233,,255,165,0 M,0,57233,60733,422,500,272,-100 F,0,57233,60733,0.5
Sprite,Background,Centre,"sb\glowing particle thats mean to be snow.png",0,0 V,0,0,500,0.02,0.02 F,0,32567,73710,0.5 C,0,57281,,255,165,0 M,0,57281,60781,406,500,256,-100 F,0,57281,60781,0.5
Sprite,Background,Centre,"sb\glowing particle thats mean to be snow.png",0,0 V,0,0,500,0.02,0.02 F,0,32567,73710,0.5 C,0,57328,,242,132,86 M,0,57328,60828,501,500,351,-100 F,0,57328,60828,0.5
Sprite,Background,Centre,"sb\glowing particle thats mean to be snow.png",0,0 V,0,0,500,0.02,0.02 F,0,32567,73710,0.5 C,0,57376,,255,165,0 M,0,57376,60876,292,500,142,-100 F,0,57376,60876,0.5
Sprite,Background,Centre,"sb\glowing particle thats mean to be snow.png",0,0 V,0,0,500,0.02,0.02 F,0,32567,73710,0.5 C,0,57424,,242,132,86 M,0,57424,60924,219,500,69,-100 F,0,57424,60924,0.5
Sprite,Background,Centre,"sb\glowing particle thats mean to be snow.png",0,0 V,0,0,500,0.02,0.02 F,0,32567,73710,0.5 C,0,57471,,255,165,0 M,0,57471,60971,69,500,-81,-100 F,0,57471,60971,0.5
Sprite,Background,Centre,"sb\glowing particle thats mean to be snow.png",0,0 V,0,0,500,0.02,0.02 F,0,32567,73710,0.5 C,0,57519,,255,165,0 M,0,57519,61019,-63,500,-213,-100 F,0,57519,61019,0.5
Sprite,Background,Centre,"sb\glowing particle thats mean to be snow.png",0,0 V,0,0,500,0.02,0.02 F,0,32567,73710,0.5 C,0,57566,,255,165,0 M,0,57566,61066,221,500,71,-100 F,0,57566,61066,0.5
Sprite,Background,Centre,"sb\glowing particle thats mean to be snow.png",0,0 V,0,0,500,0.02,0.02 F,0,32567,73710,0.5 C,0,57614,,242,132,86 M,0,57614,61114,183,500,33,-100 F,0,57614,61114,0.5
Sprite,Background,Centre,"sb\glowing particle thats mean to be snow.png",0,0 V,0,0,500,0.02,0.02 F,0,32567,73710,0.5 C,0,57662,,255,165,0 M,0,57662,61162,210,500,60,-100 F,0,57662,61162,0.5
Sprite,Background,Centre,"sb\glowing particle thats mean to be snow.png",0,0 V,0,0,500,0.02,0.02 F,0,32567,73710,0.5 C,0,57709,,255,165,0 M,0,57709,61209,-24,500,-174,-100 F,0,57709,61209,0.5
Sprite,Background,Centre,"sb\glowing particle thats mean to be snow.png",0,0 V,0,0,500,0.02,0.02 F,0,32567,73710,0.5 C,0,57757,,242,132,86 M,0,57757,61257,333,500,183,-100 F,0,57757,61257,0.5
Sprite,Background,Centre,"sb\glowing particle thats mean to be snow.png",0,0 V,0,0,500,0.02,0.02 F,0,32567,73710,0.5 C,0,57805,,255,165,0 M,0,57805,61305,622,500,472,-100 F,0,57805,61305,0.5
Sprite,Background,Centre,"sb\glowing particle thats mean to be snow.png",0,0 V,0,0,500,0.02,0.02 F,0,32567,73710,0.5 C,0,57852,,242,132,86 M,0,57852,61352,98,500,-52,-100 F,0,57852,61352,0.5
Sprite,Background,Centre,"sb\glowing particle thats mean to be snow.png",0,0 V,0,0,500,0.02,0.02 F,0,32567,73710,0.5 C,0,57900,,255,165,0 M,0,57900,61400,176,500,26,-100 F,0,57900,61400,0.5
Sprite,Background,Centre,"sb\glowing particle thats mean to be snow.png",0,0 V,0,0,500,0.02,0.02 F,0,32567,73710,0.5 C,0,57947,,242,132,86 M,0,57947,61447,-21,500,-171,-100 F,0,57947,61447,0.5
Sprite,Background,Centre,"sb\glowing particle thats mean to be snow.png",0,0 V,0,0,500,0.02,0.02 F,0,32567,73710,0.5 C,0,57995,,255,165,0 M,0,57995,61495,268,500,118,-100 F,0,57995,61495,0.5
Sprite,Background,Centre,"sb\glowing particle thats mean to be snow.png",0,0 V,0,0,500,0.02,0.02 F,0,32567,73710,0.5 C,0,58043,,255,165,0 M,0,58043,61543,142,500,-8,-100 F,0,58043,61543,0.5
Sprite,Background,Centre,"sb\glowing particle thats mean to be snow.png",0,0 V,0,0,500,0.02,0.02 F,0,32567,73710,0.5 C,0,58090,,255,165,0 M,0,58090,61590,480,500,330,-100 F,0,58090,61590,0.5
Sprite,Background,Centre,"sb\glowing particle thats mean to be snow.png",0,0 V,0,0,500,0.02,0.02 F,0,32567,73710,0.5 C,0,58138,,255,165,0 M,0,58138,61638,144,500,-6,-100 F,0,58138,61638,0.5
Sprite,Background,Centre,"sb\glowing particle thats mean to be snow.png",0,0 V,0,0,500,0.02,0.02 F,0,32567,73710,0.5 C,0,58186,,255,165,0 M,0,58186,61686,448,500,298,-100 F,0,58186,61686,0.5
Sprite,Background,Centre,"sb\glowing particle thats mean to be snow.png",0,0 V,0,0,500,0.02,0.02 F,0,32567,73710,0.5 C,0,58233,,255,165,0 M,0,58233,61733,297,500,147,-100 F,0,58233,61733,0.5
Sprite,Background,Centre,"sb\glowing particle thats mean to be snow.png",0,0 V,0,0,500,0.02,0.02 F,0,32567,73710,0.5 C,0,58281,,255,165,0 M,0,58281,61781,-56,500,-206,-100 F,0,58281,61781,0.5
Sprite,Background,Centre,"sb\glowing particle thats mean to be snow.png",0,0 V,0,0,500,0.02,0.02 F,0,32567,73710,0.5 C,0,58328,,255,165,0 M,0,58328,61828,614,500,464,-100 F,0,58328,61828,0.5
Sprite,Background,Centre,"sb\glowing particle thats mean to be snow.png",0,0 V,0,0,500,0.02,0.02 F,0,32567,73710,0.5 C,0,58376,,255,165,0 M,0,58376,61876,7,500,-143,-100 F,0,58376,61876,0.5
Sprite,Background,Centre,"sb\glowing particle thats mean to be snow.png",0,0 V,0,0,500,0.02,0.02 F,0,32567,73710,0.5 C,0,58424,,242,132,86 M,0,58424,61924,35,500,-115,-100 F,0,58424,61924,0.5
Sprite,Background,Centre,"sb\glowing particle thats mean to be snow.png",0,0 V,0,0,500,0.02,0.02 F,0,32567,73710,0.5 C,0,58471,,255,165,0 M,0,58471,61971,84,500,-66,-100 F,0,58471,61971,0.5
Sprite,Background,Centre,"sb\glowing particle thats mean to be snow.png",0,0 V,0,0,500,0.02,0.02 F,0,32567,73710,0.5 C,0,58519,,255,165,0 M,0,58519,62019,205,500,55,-100 F,0,58519,62019,0.5
Sprite,Background,Centre,"sb\glowing particle thats mean to be snow.png",0,0 V,0,0,500,0.02,0.02 F,0,32567,73710,0.5 C,0,58566,,242,132,86 M,0,58566,62066,-53,500,-203,-100 F,0,58566,62066,0.5
Sprite,Background,Centre,"sb\glowing particle thats mean to be snow.png",0,0 V,0,0,500,0.02,0.02 F,0,32567,73710,0.5 C,0,58614,,255,165,0 M,0,58614,62114,520,500,370,-100 F,0,58614,62114,0.5
Sprite,Background,Centre,"sb\glowing particle thats mean to be snow.png",0,0 V,0,0,500,0.02,0.02 F,0,32567,73710,0.5 C,0,58662,,242,132,86 M,0,58662,62162,59,500,-91,-100 F,0,58662,62162,0.5
Sprite,Background,Centre,"sb\glowing particle thats mean to be snow.png",0,0 V,0,0,500,0.02,0.02 F,0,32567,73710,0.5 C,0,58709,,255,165,0 M,0,58709,62209,265,500,115,-100 F,0,58709,62209,0.5
Sprite,Background,Centre,"sb\glowing particle thats mean to be snow.png",0,0 V,0,0,500,0.02,0.02 F,0,32567,73710,0.5 C,0,58757,,255,165,0 M,0,58757,62257,691,500,541,-100 F,0,58757,62257,0.5
Sprite,Background,Centre,"sb\glowing particle thats mean to be snow.png",0,0 V,0,0,500,0.02,0.02 F,0,32567,73710,0.5 C,0,58805,,242,132,86 M,0,58805,62305,188,500,38,-100 F,0,58805,62305,0.5
Sprite,Background,Centre,"sb\glowing particle thats mean to be snow.png",0,0 V,0,0,500,0.02,0.02 F,0,32567,73710,0.5 C,0,58852,,242,132,86 M,0,58852,62352,507,500,357,-100 F,0,58852,62352,0.5
Sprite,Background,Centre,"sb\glowing particle thats mean to be snow.png",0,0 V,0,0,500,0.02,0.02 F,0,32567,73710,0.5 C,0,58900,,255,165,0 M,0,58900,62400,632,500,482,-100 F,0,58900,62400,0.5
Sprite,Background,Centre,"sb\glowing particle thats mean to be snow.png",0,0 V,0,0,500,0.02,0.02 F,0,32567,73710,0.5 C,0,58947,,242,132,86 M,0,58947,62447,38,500,-112,-100 F,0,58947,62447,0.5
Sprite,Background,Centre,"sb\glowing particle thats mean to be snow.png",0,0 V,0,0,500,0.02,0.02 F,0,32567,73710,0.5 C,0,58995,,242,132,86 M,0,58995,62495,165,500,15,-100 F,0,58995,62495,0.5
Sprite,Background,Centre,"sb\glowing particle thats mean to be snow.png",0,0 V,0,0,500,0.02,0.02 F,0,32567,73710,0.5 C,0,59043,,255,165,0 M,0,59043,62543,313,500,163,-100 F,0,59043,62543,0.5
Sprite,Background,Centre,"sb\glowing particle thats mean to be snow.png",0,0 V,0,0,500,0.02,0.02 F,0,32567,73710,0.5 C,0,59090,,242,132,86 M,0,59090,62590,158,500,8,-100 F,0,59090,62590,0.5
Sprite,Background,Centre,"sb\glowing particle thats mean to be snow.png",0,0 V,0,0,500,0.02,0.02 F,0,32567,73710,0.5 C,0,59138,,255,165,0 M,0,59138,62638,726,500,576,-100 F,0,59138,62638,0.5
Sprite,Background,Centre,"sb\glowing particle thats mean to be snow.png",0,0 V,0,0,500,0.02,0.02 F,0,32567,73710,0.5 C,0,59186,,242,132,86 M,0,59186,62686,-35,500,-185,-100 F,0,59186,62686,0.5
Sprite,Background,Centre,"sb\glowing particle thats mean to be snow.png",0,0 V,0,0,500,0.02,0.02 F,0,32567,73710,0.5 C,0,59233,,255,165,0 M,0,59233,62733,368,500,218,-100 F,0,59233,62733,0.5
Sprite,Background,Centre,"sb\glowing particle thats mean to be snow.png",0,0 V,0,0,500,0.02,0.02 F,0,32567,73710,0.5 C,0,59281,,255,165,0 M,0,59281,62781,11,500,-139,-100 F,0,59281,62781,0.5
Sprite,Background,Centre,"sb\glowing particle thats mean to be snow.png",0,0 V,0,0,500,0.02,0.02 F,0,32567,73710,0.5 C,0,59328,,255,165,0 M,0,59328,62828,263,500,113,-100 F,0,59328,62828,0.5
Sprite,Background,Centre,"sb\glowing particle thats mean to be snow.png",0,0 V,0,0,500,0.02,0.02 F,0,32567,73710,0.5 C,0,59376,,242,132,86 M,0,59376,62876,628,500,478,-100 F,0,59376,62876,0.5
Sprite,Background,Centre,"sb\glowing particle thats mean to be snow.png",0,0 V,0,0,500,0.02,0.02 F,0,32567,73710,0.5 C,0,59424,,242,132,86 M,0,59424,62924,609,500,459,-100 F,0,59424,62924,0.5
Sprite,Background,Centre,"sb\glowing particle thats mean to be snow.png",0,0 V,0,0,500,0.02,0.02 F,0,32567,73710,0.5 C,0,59471,,242,132,86 M,0,59471,62971,485,500,335,-100 F,0,59471,62971,0.5
Sprite,Background,Centre,"sb\glowing particle thats mean to be snow.png",0,0 V,0,0,500,0.02,0.02 F,0,32567,73710,0.5 C,0,59519,,255,165,0 M,0,59519,63019,255,500,105,-100 F,0,59519,63019,0.5
Sprite,Background,Centre,"sb\glowing particle thats mean to be snow.png",0,0 V,0,0,500,0.02,0.02 F,0,32567,73710,0.5 C,0,59566,,242,132,86 M,0,59566,63066,607,500,457,-100 F,0,59566,63066,0.5
Sprite,Background,Centre,"sb\glowing particle thats mean to be snow.png",0,0 V,0,0,500,0.02,0.02 F,0,32567,73710,0.5 C,0,59614,,255,165,0 M,0,59614,63114,284,500,134,-100 F,0,59614,63114,0.5
Sprite,Background,Centre,"sb\glowing particle thats mean to be snow.png",0,0 V,0,0,500,0.02,0.02 F,0,32567,73710,0.5 C,0,59662,,255,165,0 M,0,59662,63162,756,500,606,-100 F,0,59662,63162,0.5
Sprite,Background,Centre,"sb\glowing particle thats mean to be snow.png",0,0 V,0,0,500,0.02,0.02 F,0,32567,73710,0.5 C,0,59709,,242,132,86 M,0,59709,63209,-6,500,-156,-100 F,0,59709,63209,0.5
Sprite,Background,Centre,"sb\glowing particle thats mean to be snow.png",0,0 V,0,0,500,0.02,0.02 F,0,32567,73710,0.5 C,0,59757,,255,165,0 M,0,59757,63257,-30,500,-180,-100 F,0,59757,63257,0.5
Sprite,Background,Centre,"sb\glowing particle thats mean to be snow.png",0,0 V,0,0,500,0.02,0.02 F,0,32567,73710,0.5 C,0,59805,,242,132,86 M,0,59805,63305,420,500,270,-100 F,0,59805,63305,0.5
Sprite,Background,Centre,"sb\glowing particle thats mean to be snow.png",0,0 V,0,0,500,0.02,0.02 F,0,32567,73710,0.5 C,0,59852,,242,132,86 M,0,59852,63352,78,500,-72,-100 F,0,59852,63352,0.5
Sprite,Background,Centre,"sb\glowing particle thats mean to be snow.png",0,0 V,0,0,500,0.02,0.02 F,0,32567,73710,0.5 C,0,59900,,255,165,0 M,0,59900,63400,724,500,574,-100 F,0,59900,63400,0.5
Sprite,Background,Centre,"sb\glowing particle thats mean to be snow.png",0,0 V,0,0,500,0.02,0.02 F,0,32567,73710,0.5 C,0,59947,,255,165,0 M,0,59947,63447,713,500,563,-100 F,0,59947,63447,0.5
Sprite,Background,Centre,"sb\glowing particle thats mean to be snow.png",0,0 V,0,0,500,0.02,0.02 F,0,32567,73710,0.5 C,0,59995,,242,132,86 M,0,59995,63495,82,500,-68,-100 F,0,59995,63495,0.5
Sprite,Background,Centre,"sb\glowing particle thats mean to be snow.png",0,0 V,0,0,500,0.02,0.02 F,0,32567,73710,0.5 C,0,60043,,242,132,86 M,0,60043,63543,25,500,-125,-100 F,0,60043,63543,0.5
Sprite,Background,Centre,"sb\glowing particle thats mean to be snow.png",0,0 V,0,0,500,0.02,0.02 F,0,32567,73710,0.5 C,0,60090,,255,165,0 M,0,60090,63590,541,500,391,-100 F,0,60090,63590,0.5
Sprite,Background,Centre,"sb\glowing particle thats mean to be snow.png",0,0 V,0,0,500,0.02,0.02 F,0,32567,73710,0.5 C,0,60138,,242,132,86 M,0,60138,63638,634,500,484,-100 F,0,60138,63638,0.5
Sprite,Background,Centre,"sb\glowing particle thats mean to be snow.png",0,0 V,0,0,500,0.02,0.02 F,0,32567,73710,0.5 C,0,60186,,242,132,86 M,0,60186,63686,446,500,296,-100 F,0,60186,63686,0.5
Sprite,Background,Centre,"sb\glowing particle thats mean to be snow.png",0,0 V,0,0,500,0.02,0.02 F,0,32567,73710,0.5 C,0,60233,,255,165,0 M,0,60233,63733,723,500,573,-100 F,0,60233,63733,0.5
Sprite,Background,Centre,"sb\glowing particle thats mean to be snow.png",0,0 V,0,0,500,0.02,0.02 F,0,32567,73710,0.5 C,0,60281,,255,165,0 M,0,60281,63781,611,500,461,-100 F,0,60281,63781,0.5
Sprite,Background,Centre,"sb\glowing particle thats mean to be snow.png",0,0 V,0,0,500,0.02,0.02 F,0,32567,73710,0.5 C,0,60328,,255,165,0 M,0,60328,63828,629,500,479,-100 F,0,60328,63828,0.5
Sprite,Background,Centre,"sb\glowing particle thats mean to be snow.png",0,0 V,0,0,500,0.02,0.02 F,0,32567,73710,0.5 C,0,60376,,242,132,86 M,0,60376,63876,706,500,556,-100 F,0,60376,63876,0.5
Sprite,Background,Centre,"sb\glowing particle thats mean to be snow.png",0,0 V,0,0,500,0.02,0.02 F,0,32567,73710,0.5 C,0,60424,,242,132,86 M,0,60424,63924,445,500,295,-100 F,0,60424,63924,0.5
Sprite,Background,Centre,"sb\glowing particle thats mean to be snow.png",0,0 V,0,0,500,0.02,0.02 F,0,32567,73710,0.5 C,0,60471,,242,132,86 M,0,60471,63971,357,500,207,-100 F,0,60471,63971,0.5
Sprite,Background,Centre,"sb\glowing particle thats mean to be snow.png",0,0 V,0,0,500,0.02,0.02 F,0,32567,73710,0.5 C,0,60519,,242,132,86 M,0,60519,64019,134,500,-16,-100 F,0,60519,64019,0.5
Sprite,Background,Centre,"sb\glowing particle thats mean to be snow.png",0,0 V,0,0,500,0.02,0.02 F,0,32567,73710,0.5 C,0,60566,,242,132,86 M,0,60566,64066,580,500,430,-100 F,0,60566,64066,0.5
Sprite,Background,Centre,"sb\glowing particle thats mean to be snow.png",0,0 V,0,0,500,0.02,0.02 F,0,32567,73710,0.5 C,0,60614,,242,132,86 M,0,60614,64114,691,500,541,-100 F,0,60614,64114,0.5
Sprite,Background,Centre,"sb\glowing particle thats mean to be snow.png",0,0 V,0,0,500,0.02,0.02 F,0,32567,73710,0.5 C,0,60662,,255,165,0 M,0,60662,64162,251,500,101,-100 F,0,60662,64162,0.5
Sprite,Background,Centre,"sb\glowing particle thats mean to be snow.png",0,0 V,0,0,500,0.02,0.02 F,0,32567,73710,0.5 C,0,60709,,242,132,86 M,0,60709,64209,303,500,153,-100 F,0,60709,64209,0.5
Sprite,Background,Centre,"sb\glowing particle thats mean to be snow.png",0,0 V,0,0,500,0.02,0.02 F,0,32567,73710,0.5 C,0,60757,,242,132,86 M,0,60757,64257,270,500,120,-100 F,0,60757,64257,0.5
Sprite,Background,Centre,"sb\glowing particle thats mean to be snow.png",0,0 V,0,0,500,0.02,0.02 F,0,32567,73710,0.5 C,0,60805,,242,132,86 M,0,60805,64305,47,500,-103,-100 F,0,60805,64305,0.5
Sprite,Background,Centre,"sb\glowing particle thats mean to be snow.png",0,0 V,0,0,500,0.02,0.02 F,0,32567,73710,0.5 C,0,60852,,255,165,0 M,0,60852,64352,456,500,306,-100 F,0,60852,64352,0.5
Sprite,Background,Centre,"sb\glowing particle thats mean to be snow.png",0,0 V,0,0,500,0.02,0.02 F,0,32567,73710,0.5 C,0,60900,,255,165,0 M,0,60900,64400,279,500,129,-100 F,0,60900,64400,0.5
Sprite,Background,Centre,"sb\glowing particle thats mean to be snow.png",0,0 V,0,0,500,0.02,0.02 F,0,32567,73710,0.5 C,0,60947,,255,165,0 M,0,60947,64447,511,500,361,-100 F,0,60947,64447,0.5
Sprite,Background,Centre,"sb\glowing particle thats mean to be snow.png",0,0 V,0,0,500,0.02,0.02 F,0,32567,73710,0.5 C,0,60995,,255,165,0 M,0,60995,64495,-85,500,-235,-100 F,0,60995,64495,0.5
Sprite,Background,Centre,"sb\glowing particle thats mean to be snow.png",0,0 V,0,0,500,0.02,0.02 F,0,32567,73710,0.5 C,0,61043,,242,132,86 M,0,61043,64543,259,500,109,-100 F,0,61043,64543,0.5
Sprite,Background,Centre,"sb\glowing particle thats mean to be snow.png",0,0 V,0,0,500,0.02,0.02 F,0,32567,73710,0.5 C,0,61090,,255,165,0 M,0,61090,64590,657,500,507,-100 F,0,61090,64590,0.5
Sprite,Background,Centre,"sb\glowing particle thats mean to be snow.png",0,0 V,0,0,500,0.02,0.02 F,0,32567,73710,0.5 C,0,61138,,242,132,86 M,0,61138,64638,120,500,-30,-100 F,0,61138,64638,0.5
Sprite,Background,Centre,"sb\glowing particle thats mean to be snow.png",0,0 V,0,0,500,0.02,0.02 F,0,32567,73710,0.5 C,0,61186,,255,165,0 M,0,61186,64686,207,500,57,-100 F,0,61186,64686,0.5
Sprite,Background,Centre,"sb\glowing particle thats mean to be snow.png",0,0 V,0,0,500,0.02,0.02 F,0,32567,73710,0.5 C,0,61233,,255,165,0 M,0,61233,64733,-76,500,-226,-100 F,0,61233,64733,0.5
Sprite,Background,Centre,"sb\glowing particle thats mean to be snow.png",0,0 V,0,0,500,0.02,0.02 F,0,32567,73710,0.5 C,0,61281,,255,165,0 M,0,61281,64781,18,500,-132,-100 F,0,61281,64781,0.5
Sprite,Background,Centre,"sb\glowing particle thats mean to be snow.png",0,0 V,0,0,500,0.02,0.02 F,0,32567,73710,0.5 C,0,61328,,255,165,0 M,0,61328,64828,582,500,432,-100 F,0,61328,64828,0.5
Sprite,Background,Centre,"sb\glowing particle thats mean to be snow.png",0,0 V,0,0,500,0.02,0.02 F,0,32567,73710,0.5 C,0,61376,,242,132,86 M,0,61376,64876,140,500,-10,-100 F,0,61376,64876,0.5
Sprite,Background,Centre,"sb\glowing particle thats mean to be snow.png",0,0 V,0,0,500,0.02,0.02 F,0,32567,73710,0.5 C,0,61424,,255,165,0 M,0,61424,64924,664,500,514,-100 F,0,61424,64924,0.5
Sprite,Background,Centre,"sb\glowing particle thats mean to be snow.png",0,0 V,0,0,500,0.02,0.02 F,0,32567,73710,0.5 C,0,61471,,242,132,86 M,0,61471,64971,505,500,355,-100 F,0,61471,64971,0.5
Sprite,Background,Centre,"sb\glowing particle thats mean to be snow.png",0,0 V,0,0,500,0.02,0.02 F,0,32567,73710,0.5 C,0,61519,,255,165,0 M,0,61519,65019,731,500,581,-100 F,0,61519,65019,0.5
Sprite,Background,Centre,"sb\glowing particle thats mean to be snow.png",0,0 V,0,0,500,0.02,0.02 F,0,32567,73710,0.5 C,0,61566,,255,165,0 M,0,61566,65066,213,500,63,-100 F,0,61566,65066,0.5
Sprite,Background,Centre,"sb\glowing particle thats mean to be snow.png",0,0 V,0,0,500,0.02,0.02 F,0,32567,73710,0.5 C,0,61614,,242,132,86 M,0,61614,65114,567,500,417,-100 F,0,61614,65114,0.5
Sprite,Background,Centre,"sb\glowing particle thats mean to be snow.png",0,0 V,0,0,500,0.02,0.02 F,0,32567,73710,0.5 C,0,61662,,242,132,86 M,0,61662,65162,-46,500,-196,-100 F,0,61662,65162,0.5
Sprite,Background,Centre,"sb\glowing particle thats mean to be snow.png",0,0 V,0,0,500,0.02,0.02 F,0,32567,73710,0.5 C,0,61709,,255,165,0 M,0,61709,65209,486,500,336,-100 F,0,61709,65209,0.5
Sprite,Background,Centre,"sb\glowing particle thats mean to be snow.png",0,0 V,0,0,500,0.02,0.02 F,0,32567,73710,0.5 C,0,61757,,255,165,0 M,0,61757,65257,499,500,349,-100 F,0,61757,65257,0.5
Sprite,Background,Centre,"sb\glowing particle thats mean to be snow.png",0,0 V,0,0,500,0.02,0.02 F,0,32567,73710,0.5 C,0,61805,,255,165,0 M,0,61805,65305,268,500,118,-100 F,0,61805,65305,0.5
Sprite,Background,Centre,"sb\glowing particle thats mean to be snow.png",0,0 V,0,0,500,0.02,0.02 F,0,32567,73710,0.5 C,0,61852,,242,132,86 M,0,61852,65352,557,500,407,-100 F,0,61852,65352,0.5
Sprite,Background,Centre,"sb\glowing particle thats mean to be snow.png",0,0 V,0,0,500,0.02,0.02 F,0,32567,73710,0.5 C,0,61900,,242,132,86 M,0,61900,65400,365,500,215,-100 F,0,61900,65400,0.5
Sprite,Background,Centre,"sb\glowing particle thats mean to be snow.png",0,0 V,0,0,500,0.02,0.02 F,0,32567,73710,0.5 C,0,61947,,255,165,0 M,0,61947,65447,-28,500,-178,-100 F,0,61947,65447,0.5
Sprite,Background,Centre,"sb\glowing particle thats mean to be snow.png",0,0 V,0,0,500,0.02,0.02 F,0,32567,73710,0.5 C,0,61995,,255,165,0 M,0,61995,65495,88,500,-62,-100 F,0,61995,65495,0.5
Sprite,Background,Centre,"sb\glowing particle thats mean to be snow.png",0,0 V,0,0,500,0.02,0.02 F,0,32567,73710,0.5 C,0,62043,,255,165,0 M,0,62043,65543,44,500,-106,-100 F,0,62043,65543,0.5
Sprite,Background,Centre,"sb\glowing particle thats mean to be snow.png",0,0 V,0,0,500,0.02,0.02 F,0,32567,73710,0.5 C,0,62090,,242,132,86 M,0,62090,65590,671,500,521,-100 F,0,62090,65590,0.5
Sprite,Background,Centre,"sb\glowing particle thats mean to be snow.png",0,0 V,0,0,500,0.02,0.02 F,0,32567,73710,0.5 C,0,62138,,255,165,0 M,0,62138,65638,386,500,236,-100 F,0,62138,65638,0.5
Sprite,Background,Centre,"sb\glowing particle thats mean to be snow.png",0,0 V,0,0,500,0.02,0.02 F,0,32567,73710,0.5 C,0,62186,,242,132,86 M,0,62186,65686,326,500,176,-100 F,0,62186,65686,0.5
Sprite,Background,Centre,"sb\glowing particle thats mean to be snow.png",0,0 V,0,0,500,0.02,0.02 F,0,32567,73710,0.5 C,0,62233,,242,132,86 M,0,62233,65733,542,500,392,-100 F,0,62233,65733,0.5
Sprite,Background,Centre,"sb\glowing particle thats mean to be snow.png",0,0 V,0,0,500,0.02,0.02 F,0,32567,73710,0.5 C,0,62281,,255,165,0 M,0,62281,65781,74,500,-76,-100 F,0,62281,65781,0.5
Sprite,Background,Centre,"sb\glowing particle thats mean to be snow.png",0,0 V,0,0,500,0.02,0.02 F,0,32567,73710,0.5 C,0,62328,,255,165,0 M,0,62328,65828,508,500,358,-100 F,0,62328,65828,0.5
Sprite,Background,Centre,"sb\glowing particle thats mean to be snow.png",0,0 V,0,0,500,0.02,0.02 F,0,32567,73710,0.5 C,0,62376,,242,132,86 M,0,62376,65876,703,500,553,-100 F,0,62376,65876,0.5
Sprite,Background,Centre,"sb\glowing particle thats mean to be snow.png",0,0 V,0,0,500,0.02,0.02 F,0,32567,73710,0.5 C,0,62424,,255,165,0 M,0,62424,65924,668,500,518,-100 F,0,62424,65924,0.5
Sprite,Background,Centre,"sb\glowing particle thats mean to be snow.png",0,0 V,0,0,500,0.02,0.02 F,0,32567,73710,0.5 C,0,62471,,242,132,86 M,0,62471,65971,293,500,143,-100 F,0,62471,65971,0.5
Sprite,Background,Centre,"sb\glowing particle thats mean to be snow.png",0,0 V,0,0,500,0.02,0.02 F,0,32567,73710,0.5 C,0,62519,,242,132,86 M,0,62519,66019,50,500,-100,-100 F,0,62519,66019,0.5
Sprite,Background,Centre,"sb\glowing particle thats mean to be snow.png",0,0 V,0,0,500,0.02,0.02 F,0,32567,73710,0.5 C,0,62566,,242,132,86 M,0,62566,66066,633,500,483,-100 F,0,62566,66066,0.5
Sprite,Background,Centre,"sb\glowing particle thats mean to be snow.png",0,0 V,0,0,500,0.02,0.02 F,0,32567,73710,0.5 C,0,62614,,242,132,86 M,0,62614,66114,209,500,59,-100 F,0,62614,66114,0.5
Sprite,Background,Centre,"sb\glowing particle thats mean to be snow.png",0,0 V,0,0,500,0.02,0.02 F,0,32567,73710,0.5 C,0,62662,,255,165,0 M,0,62662,66162,82,500,-68,-100 F,0,62662,66162,0.5
Sprite,Background,Centre,"sb\glowing particle thats mean to be snow.png",0,0 V,0,0,500,0.02,0.02 F,0,32567,73710,0.5 C,0,62709,,255,165,0 M,0,62709,66209,583,500,433,-100 F,0,62709,66209,0.5
Sprite,Background,Centre,"sb\glowing particle thats mean to be snow.png",0,0 V,0,0,500,0.02,0.02 F,0,32567,73710,0.5 C,0,62757,,255,165,0 M,0,62757,66257,298,500,148,-100 F,0,62757,66257,0.5
Sprite,Background,Centre,"sb\glowing particle thats mean to be snow.png",0,0 V,0,0,500,0.02,0.02 F,0,32567,73710,0.5 C,0,62805,,242,132,86 M,0,62805,66305,642,500,492,-100 F,0,62805,66305,0.5
Sprite,Background,Centre,"sb\glowing particle thats mean to be snow.png",0,0 V,0,0,500,0.02,0.02 F,0,32567,73710,0.5 C,0,62852,,242,132,86 M,0,62852,66352,438,500,288,-100 F,0,62852,66352,0.5
Sprite,Background,Centre,"sb\glowing particle thats mean to be snow.png",0,0 V,0,0,500,0.02,0.02 F,0,32567,73710,0.5 C,0,62900,,242,132,86 M,0,62900,66400,679,500,529,-100 F,0,62900,66400,0.5
Sprite,Background,Centre,"sb\glowing particle thats mean to be snow.png",0,0 V,0,0,500,0.02,0.02 F,0,32567,73710,0.5 C,0,62947,,242,132,86 M,0,62947,66447,703,500,553,-100 F,0,62947,66447,0.5
Sprite,Background,Centre,"sb\glowing particle thats mean to be snow.png",0,0 V,0,0,500,0.02,0.02 F,0,32567,73710,0.5 C,0,62995,,255,165,0 M,0,62995,66495,492,500,342,-100 F,0,62995,66495,0.5
Sprite,Background,Centre,"sb\glowing particle thats mean to be snow.png",0,0 V,0,0,500,0.02,0.02 F,0,32567,73710,0.5 C,0,63043,,255,165,0 M,0,63043,66543,124,500,-26,-100 F,0,63043,66543,0.5
Sprite,Background,Centre,"sb\glowing particle thats mean to be snow.png",0,0 V,0,0,500,0.02,0.02 F,0,32567,73710,0.5 C,0,63090,,242,132,86 M,0,63090,66590,283,500,133,-100 F,0,63090,66590,0.5
Sprite,Background,Centre,"sb\glowing particle thats mean to be snow.png",0,0 V,0,0,500,0.02,0.02 F,0,32567,73710,0.5 C,0,63138,,242,132,86 M,0,63138,66638,666,500,516,-100 F,0,63138,66638,0.5
Sprite,Background,Centre,"sb\glowing particle thats mean to be snow.png",0,0 V,0,0,500,0.02,0.02 F,0,32567,73710,0.5 C,0,63186,,242,132,86 M,0,63186,66686,390,500,240,-100 F,0,63186,66686,0.5
Sprite,Background,Centre,"sb\glowing particle thats mean to be snow.png",0,0 V,0,0,500,0.02,0.02 F,0,32567,73710,0.5 C,0,63233,,242,132,86 M,0,63233,66733,217,500,67,-100 F,0,63233,66733,0.5
Sprite,Background,Centre,"sb\glowing particle thats mean to be snow.png",0,0 V,0,0,500,0.02,0.02 F,0,32567,73710,0.5 C,0,63281,,242,132,86 M,0,63281,66781,290,500,140,-100 F,0,63281,66781,0.5
Sprite,Background,Centre,"sb\glowing particle thats mean to be snow.png",0,0 V,0,0,500,0.02,0.02 F,0,32567,73710,0.5 C,0,63328,,242,132,86 M,0,63328,66828,294,500,144,-100 F,0,63328,66828,0.5
Sprite,Background,Centre,"sb\glowing particle thats mean to be snow.png",0,0 V,0,0,500,0.02,0.02 F,0,32567,73710,0.5 C,0,63376,,242,132,86 M,0,63376,66876,-66,500,-216,-100 F,0,63376,66876,0.5
Sprite,Background,Centre,"sb\glowing particle thats mean to be snow.png",0,0 V,0,0,500,0.02,0.02 F,0,32567,73710,0.5 C,0,63424,,242,132,86 M,0,63424,66924,-61,500,-211,-100 F,0,63424,66924,0.5
Sprite,Background,Centre,"sb\glowing particle thats mean to be snow.png",0,0 V,0,0,500,0.02,0.02 F,0,32567,73710,0.5 C,0,63471,,255,165,0 M,0,63471,66971,315,500,165,-100 F,0,63471,66971,0.5
Sprite,Background,Centre,"sb\glowing particle thats mean to be snow.png",0,0 V,0,0,500,0.02,0.02 F,0,32567,73710,0.5 C,0,63519,,242,132,86 M,0,63519,67019,177,500,27,-100 F,0,63519,67019,0.5
Sprite,Background,Centre,"sb\glowing particle thats mean to be snow.png",0,0 V,0,0,500,0.02,0.02 F,0,32567,73710,0.5 C,0,63566,,242,132,86 M,0,63566,67066,521,500,371,-100 F,0,63566,67066,0.5
Sprite,Background,Centre,"sb\glowing particle thats mean to be snow.png",0,0 V,0,0,500,0.02,0.02 F,0,32567,73710,0.5 C,0,63614,,242,132,86 M,0,63614,67114,-29,500,-179,-100 F,0,63614,67114,0.5
Sprite,Background,Centre,"sb\glowing particle thats mean to be snow.png",0,0 V,0,0,500,0.02,0.02 F,0,32567,73710,0.5 C,0,63662,,242,132,86 M,0,63662,67162,-84,500,-234,-100 F,0,63662,67162,0.5
Sprite,Background,Centre,"sb\glowing particle thats mean to be snow.png",0,0 V,0,0,500,0.02,0.02 F,0,32567,73710,0.5 C,0,63709,,242,132,86 M,0,63709,67209,55,500,-95,-100 F,0,63709,67209,0.5
Sprite,Background,Centre,"sb\glowing particle thats mean to be snow.png",0,0 V,0,0,500,0.02,0.02 F,0,32567,73710,0.5 C,0,63757,,242,132,86 M,0,63757,67257,606,500,456,-100 F,0,63757,67257,0.5
Sprite,Background,Centre,"sb\glowing particle thats mean to be snow.png",0,0 V,0,0,500,0.02,0.02 F,0,32567,73710,0.5 C,0,63805,,255,165,0 M,0,63805,67305,325,500,175,-100 F,0,63805,67305,0.5
Sprite,Background,Centre,"sb\glowing particle thats mean to be snow.png",0,0 V,0,0,500,0.02,0.02 F,0,32567,73710,0.5 C,0,63852,,242,132,86 M,0,63852,67352,562,500,412,-100 F,0,63852,67352,0.5
Sprite,Background,Centre,"sb\glowing particle thats mean to be snow.png",0,0 V,0,0,500,0.02,0.02 F,0,32567,73710,0.5 C,0,63900,,255,165,0 M,0,63900,67400,-43,500,-193,-100 F,0,63900,67400,0.5
Sprite,Background,Centre,"sb\glowing particle thats mean to be snow.png",0,0 V,0,0,500,0.02,0.02 F,0,32567,73710,0.5 C,0,63947,,242,132,86 M,0,63947,67447,170,500,20,-100 F,0,63947,67447,0.5
Sprite,Background,Centre,"sb\glowing particle thats mean to be snow.png",0,0 V,0,0,500,0.02,0.02 F,0,32567,73710,0.5 C,0,63995,,242,132,86 M,0,63995,67495,85,500,-65,-100 F,0,63995,67495,0.5
Sprite,Background,Centre,"sb\glowing particle thats mean to be snow.png",0,0 V,0,0,500,0.02,0.02 F,0,32567,73710,0.5 C,0,64043,,242,132,86 M,0,64043,67543,142,500,-8,-100 F,0,64043,67543,0.5
Sprite,Background,Centre,"sb\glowing particle thats mean to be snow.png",0,0 V,0,0,500,0.02,0.02 F,0,32567,73710,0.5 C,0,64090,,255,165,0 M,0,64090,67590,211,500,61,-100 F,0,64090,67590,0.5
Sprite,Background,Centre,"sb\glowing particle thats mean to be snow.png",0,0 V,0,0,500,0.02,0.02 F,0,32567,73710,0.5 C,0,64138,,242,132,86 M,0,64138,67638,670,500,520,-100 F,0,64138,67638,0.5
Sprite,Background,Centre,"sb\glowing particle thats mean to be snow.png",0,0 V,0,0,500,0.02,0.02 F,0,32567,73710,0.5 C,0,64186,,242,132,86 M,0,64186,67686,290,500,140,-100 F,0,64186,67686,0.5
Sprite,Background,Centre,"sb\glowing particle thats mean to be snow.png",0,0 V,0,0,500,0.02,0.02 F,0,32567,73710,0.5 C,0,64233,,255,165,0 M,0,64233,67733,208,500,58,-100 F,0,64233,67733,0.5
Sprite,Background,Centre,"sb\glowing particle thats mean to be snow.png",0,0 V,0,0,500,0.02,0.02 F,0,32567,73710,0.5 C,0,64281,,255,165,0 M,0,64281,67781,671,500,521,-100 F,0,64281,67781,0.5
Sprite,Background,Centre,"sb\glowing particle thats mean to be snow.png",0,0 V,0,0,500,0.02,0.02 F,0,32567,73710,0.5 C,0,64328,,242,132,86 M,0,64328,67828,127,500,-23,-100 F,0,64328,67828,0.5
Sprite,Background,Centre,"sb\glowing particle thats mean to be snow.png",0,0 V,0,0,500,0.02,0.02 F,0,32567,73710,0.5 C,0,64376,,242,132,86 M,0,64376,67876,587,500,437,-100 F,0,64376,67876,0.5
Sprite,Background,Centre,"sb\glowing particle thats mean to be snow.png",0,0 V,0,0,500,0.02,0.02 F,0,32567,73710,0.5 C,0,64424,,255,165,0 M,0,64424,67924,263,500,113,-100 F,0,64424,67924,0.5
Sprite,Background,Centre,"sb\glowing particle thats mean to be snow.png",0,0 V,0,0,500,0.02,0.02 F,0,32567,73710,0.5 C,0,64471,,242,132,86 M,0,64471,67971,14,500,-136,-100 F,0,64471,67971,0.5
Sprite,Background,Centre,"sb\glowing particle thats mean to be snow.png",0,0 V,0,0,500,0.02,0.02 F,0,32567,73710,0.5 C,0,64519,,255,165,0 M,0,64519,68019,153,500,3,-100 F,0,64519,68019,0.5
Sprite,Background,Centre,"sb\glowing particle thats mean to be snow.png",0,0 V,0,0,500,0.02,0.02 F,0,32567,73710,0.5 C,0,64566,,242,132,86 M,0,64566,68066,335,500,185,-100 F,0,64566,68066,0.5
Sprite,Background,Centre,"sb\glowing particle thats mean to be snow.png",0,0 V,0,0,500,0.02,0.02 F,0,32567,73710,0.5 C,0,64614,,255,165,0 M,0,64614,68114,374,500,224,-100 F,0,64614,68114,0.5
Sprite,Background,Centre,"sb\glowing particle thats mean to be snow.png",0,0 V,0,0,500,0.02,0.02 F,0,32567,73710,0.5 C,0,64662,,255,165,0 M,0,64662,68162,225,500,75,-100 F,0,64662,68162,0.5
Sprite,Background,Centre,"sb\glowing particle thats mean to be snow.png",0,0 V,0,0,500,0.02,0.02 F,0,32567,73710,0.5 C,0,64709,,242,132,86 M,0,64709,68209,203,500,53,-100 F,0,64709,68209,0.5
Sprite,Background,Centre,"sb\glowing particle thats mean to be snow.png",0,0 V,0,0,500,0.02,0.02 F,0,32567,73710,0.5 C,0,64757,,242,132,86 M,0,64757,68257,-42,500,-192,-100 F,0,64757,68257,0.5
Sprite,Background,Centre,"sb\glowing particle thats mean to be snow.png",0,0 V,0,0,500,0.02,0.02 F,0,32567,73710,0.5 C,0,64805,,255,165,0 M,0,64805,68305,344,500,194,-100 F,0,64805,68305,0.5
Sprite,Background,Centre,"sb\glowing particle thats mean to be snow.png",0,0 V,0,0,500,0.02,0.02 F,0,32567,73710,0.5 C,0,64852,,255,165,0 M,0,64852,68352,621,500,471,-100 F,0,64852,68352,0.5
Sprite,Background,Centre,"sb\glowing particle thats mean to be snow.png",0,0 V,0,0,500,0.02,0.02 F,0,32567,73710,0.5 C,0,64900,,242,132,86 M,0,64900,68400,-59,500,-209,-100 F,0,64900,68400,0.5
Sprite,Background,Centre,"sb\glowing particle thats mean to be snow.png",0,0 V,0,0,500,0.02,0.02 F,0,32567,73710,0.5 C,0,64947,,255,165,0 M,0,64947,68447,302,500,152,-100 F,0,64947,68447,0.5
Sprite,Background,Centre,"sb\glowing particle thats mean to be snow.png",0,0 V,0,0,500,0.02,0.02 F,0,32567,73710,0.5 C,0,64995,,255,165,0 M,0,64995,68495,-83,500,-233,-100 F,0,64995,68495,0.5
Sprite,Background,Centre,"sb\glowing particle thats mean to be snow.png",0,0 V,0,0,500,0.02,0.02 F,0,32567,73710,0.5 C,0,65043,,242,132,86 M,0,65043,68543,42,500,-108,-100 F,0,65043,68543,0.5
Sprite,Background,Centre,"sb\glowing particle thats mean to be snow.png",0,0 V,0,0,500,0.02,0.02 F,0,32567,73710,0.5 C,0,65090,,255,165,0 M,0,65090,68590,65,500,-85,-100 F,0,65090,68590,0.5
Sprite,Background,Centre,"sb\glowing particle thats mean to be snow.png",0,0 V,0,0,500,0.02,0.02 F,0,32567,73710,0.5 C,0,65138,,255,165,0 M,0,65138,68638,196,500,46,-100 F,0,65138,68638,0.5
Sprite,Background,Centre,"sb\glowing particle thats mean to be snow.png",0,0 V,0,0,500,0.02,0.02 F,0,32567,73710,0.5 C,0,65186,,242,132,86 M,0,65186,68686,366,500,216,-100 F,0,65186,68686,0.5
Sprite,Background,Centre,"sb\glowing particle thats mean to be snow.png",0,0 V,0,0,500,0.02,0.02 F,0,32567,73710,0.5 C,0,65233,,255,165,0 M,0,65233,68733,291,500,141,-100 F,0,65233,68733,0.5
Sprite,Background,Centre,"sb\glowing particle thats mean to be snow.png",0,0 V,0,0,500,0.02,0.02 F,0,32567,73710,0.5 C,0,65281,,242,132,86 M,0,65281,68781,716,500,566,-100 F,0,65281,68781,0.5
Sprite,Background,Centre,"sb\glowing particle thats mean to be snow.png",0,0 V,0,0,500,0.02,0.02 F,0,32567,73710,0.5 C,0,65328,,242,132,86 M,0,65328,68828,-51,500,-201,-100 F,0,65328,68828,0.5
Sprite,Background,Centre,"sb\glowing particle thats mean to be snow.png",0,0 V,0,0,500,0.02,0.02 F,0,32567,73710,0.5 C,0,65376,,255,165,0 M,0,65376,68876,450,500,300,-100 F,0,65376,68876,0.5
Sprite,Background,Centre,"sb\glowing particle thats mean to be snow.png",0,0 V,0,0,500,0.02,0.02 F,0,32567,73710,0.5 C,0,65424,,242,132,86 M,0,65424,68924,147,500,-3,-100 F,0,65424,68924,0.5
Sprite,Background,Centre,"sb\glowing particle thats mean to be snow.png",0,0 V,0,0,500,0.02,0.02 F,0,32567,73710,0.5 C,0,65471,,255,165,0 M,0,65471,68971,4,500,-146,-100 F,0,65471,68971,0.5
Sprite,Background,Centre,"sb\glowing particle thats mean to be snow.png",0,0 V,0,0,500,0.02,0.02 F,0,32567,73710,0.5 C,0,65519,,242,132,86 M,0,65519,69019,45,500,-105,-100 F,0,65519,69019,0.5
Sprite,Background,Centre,"sb\glowing particle thats mean to be snow.png",0,0 V,0,0,500,0.02,0.02 F,0,32567,73710,0.5 C,0,65566,,242,132,86 M,0,65566,69066,345,500,195,-100 F,0,65566,69066,0.5
Sprite,Background,Centre,"sb\glowing particle thats mean to be snow.png",0,0 V,0,0,500,0.02,0.02 F,0,32567,73710,0.5 C,0,65614,,242,132,86 M,0,65614,69114,298,500,148,-100 F,0,65614,69114,0.5
Sprite,Background,Centre,"sb\glowing particle thats mean to be snow.png",0,0 V,0,0,500,0.02,0.02 F,0,32567,73710,0.5 C,0,65662,,242,132,86 M,0,65662,69162,170,500,20,-100 F,0,65662,69162,0.5
Sprite,Background,Centre,"sb\glowing particle thats mean to be snow.png",0,0 V,0,0,500,0.02,0.02 F,0,32567,73710,0.5 C,0,65709,,242,132,86 M,0,65709,69209,-82,500,-232,-100 F,0,65709,69209,0.5
Sprite,Background,Centre,"sb\glowing particle thats mean to be snow.png",0,0 V,0,0,500,0.02,0.02 F,0,32567,73710,0.5 C,0,65757,,255,165,0 M,0,65757,69257,-30,500,-180,-100 F,0,65757,69257,0.5
Sprite,Background,Centre,"sb\glowing particle thats mean to be snow.png",0,0 V,0,0,500,0.02,0.02 F,0,32567,73710,0.5 C,0,65805,,255,165,0 M,0,65805,69305,-5,500,-155,-100 F,0,65805,69305,0.5
Sprite,Background,Centre,"sb\glowing particle thats mean to be snow.png",0,0 V,0,0,500,0.02,0.02 F,0,32567,73710,0.5 C,0,65852,,242,132,86 M,0,65852,69352,504,500,354,-100 F,0,65852,69352,0.5
Sprite,Background,Centre,"sb\glowing particle thats mean to be snow.png",0,0 V,0,0,500,0.02,0.02 F,0,32567,73710,0.5 C,0,65900,,242,132,86 M,0,65900,69400,68,500,-82,-100 F,0,65900,69400,0.5
Sprite,Background,Centre,"sb\glowing particle thats mean to be snow.png",0,0 V,0,0,500,0.02,0.02 F,0,32567,73710,0.5 C,0,65947,,255,165,0 M,0,65947,69447,352,500,202,-100 F,0,65947,69447,0.5
Sprite,Background,Centre,"sb\glowing particle thats mean to be snow.png",0,0 V,0,0,500,0.02,0.02 F,0,32567,73710,0.5 C,0,65995,,242,132,86 M,0,65995,69495,44,500,-106,-100 F,0,65995,69495,0.5
Sprite,Background,Centre,"sb\glowing particle thats mean to be snow.png",0,0 V,0,0,500,0.02,0.02 F,0,32567,73710,0.5 C,0,66043,,242,132,86 M,0,66043,69543,522,500,372,-100 F,0,66043,69543,0.5
Sprite,Background,Centre,"sb\glowing particle thats mean to be snow.png",0,0 V,0,0,500,0.02,0.02 F,0,32567,73710,0.5 C,0,66090,,242,132,86 M,0,66090,69590,297,500,147,-100 F,0,66090,69590,0.5
Sprite,Background,Centre,"sb\glowing particle thats mean to be snow.png",0,0 V,0,0,500,0.02,0.02 F,0,32567,73710,0.5 C,0,66138,,242,132,86 M,0,66138,69638,705,500,555,-100 F,0,66138,69638,0.5
Sprite,Background,Centre,"sb\glowing particle thats mean to be snow.png",0,0 V,0,0,500,0.02,0.02 F,0,32567,73710,0.5 C,0,66186,,242,132,86 M,0,66186,69686,714,500,564,-100 F,0,66186,69686,0.5
Sprite,Background,Centre,"sb\glowing particle thats mean to be snow.png",0,0 V,0,0,500,0.02,0.02 F,0,32567,73710,0.5 C,0,66233,,242,132,86 M,0,66233,69733,731,500,581,-100 F,0,66233,69733,0.5
Sprite,Background,Centre,"sb\glowing particle thats mean to be snow.png",0,0 V,0,0,500,0.02,0.02 F,0,32567,73710,0.5 C,0,66281,,242,132,86 M,0,66281,69781,261,500,111,-100 F,0,66281,69781,0.5
Sprite,Background,Centre,"sb\glowing particle thats mean to be snow.png",0,0 V,0,0,500,0.02,0.02 F,0,32567,73710,0.5 C,0,66328,,255,165,0 M,0,66328,69828,341,500,191,-100 F,0,66328,69828,0.5
Sprite,Background,Centre,"sb\glowing particle thats mean to be snow.png",0,0 V,0,0,500,0.02,0.02 F,0,32567,73710,0.5 C,0,66376,,255,165,0 M,0,66376,69876,537,500,387,-100 F,0,66376,69876,0.5
Sprite,Background,Centre,"sb\glowing particle thats mean to be snow.png",0,0 V,0,0,500,0.02,0.02 F,0,32567,73710,0.5 C,0,66424,,242,132,86 M,0,66424,69924,-35,500,-185,-100 F,0,66424,69924,0.5
Sprite,Background,Centre,"sb\glowing particle thats mean to be snow.png",0,0 V,0,0,500,0.02,0.02 F,0,32567,73710,0.5 C,0,66471,,242,132,86 M,0,66471,69971,180,500,30,-100 F,0,66471,69971,0.5
Sprite,Background,Centre,"sb\glowing particle thats mean to be snow.png",0,0 V,0,0,500,0.02,0.02 F,0,32567,73710,0.5 C,0,66519,,242,132,86 M,0,66519,70019,758,500,608,-100 F,0,66519,70019,0.5
Sprite,Background,Centre,"sb\glowing particle thats mean to be snow.png",0,0 V,0,0,500,0.02,0.02 F,0,32567,73710,0.5 C,0,66566,,242,132,86 M,0,66566,70066,506,500,356,-100 F,0,66566,70066,0.5
Sprite,Background,Centre,"sb\glowing particle thats mean to be snow.png",0,0 V,0,0,500,0.02,0.02 F,0,32567,73710,0.5 C,0,66614,,242,132,86 M,0,66614,70114,757,500,607,-100 F,0,66614,70114,0.5
Sprite,Background,Centre,"sb\glowing particle thats mean to be snow.png",0,0 V,0,0,500,0.02,0.02 F,0,32567,73710,0.5 C,0,66662,,242,132,86 M,0,66662,70162,521,500,371,-100 F,0,66662,70162,0.5
Sprite,Background,Centre,"sb\glowing particle thats mean to be snow.png",0,0 V,0,0,500,0.02,0.02 F,0,32567,73710,0.5 C,0,66709,,242,132,86 M,0,66709,70209,589,500,439,-100 F,0,66709,70209,0.5
Sprite,Background,Centre,"sb\glowing particle thats mean to be snow.png",0,0 V,0,0,500,0.02,0.02 F,0,32567,73710,0.5 C,0,66757,,242,132,86 M,0,66757,70257,347,500,197,-100 F,0,66757,70257,0.5
Sprite,Background,Centre,"sb\glowing particle thats mean to be snow.png",0,0 V,0,0,500,0.02,0.02 F,0,32567,73710,0.5 C,0,66805,,255,165,0 M,0,66805,70305,415,500,265,-100 F,0,66805,70305,0.5
Sprite,Background,Centre,"sb\glowing particle thats mean to be snow.png",0,0 V,0,0,500,0.02,0.02 F,0,32567,73710,0.5 C,0,66852,,242,132,86 M,0,66852,70352,300,500,150,-100 F,0,66852,70352,0.5
Sprite,Background,Centre,"sb\glowing particle thats mean to be snow.png",0,0 V,0,0,500,0.02,0.02 F,0,32567,73710,0.5 C,0,66900,,242,132,86 M,0,66900,70400,-60,500,-210,-100 F,0,66900,70400,0.5
Sprite,Background,Centre,"sb\glowing particle thats mean to be snow.png",0,0 V,0,0,500,0.02,0.02 F,0,32567,73710,0.5 C,0,66947,,255,165,0 M,0,66947,70447,198,500,48,-100 F,0,66947,70447,0.5
Sprite,Background,Centre,"sb\glowing particle thats mean to be snow.png",0,0 V,0,0,500,0.02,0.02 F,0,32567,73710,0.5 C,0,66995,,255,165,0 M,0,66995,70495,137,500,-13,-100 F,0,66995,70495,0.5
Sprite,Background,Centre,"sb\glowing particle thats mean to be snow.png",0,0 V,0,0,500,0.02,0.02 F,0,32567,73710,0.5 C,0,67043,,255,165,0 M,0,67043,70543,83,500,-67,-100 F,0,67043,70543,0.5
Sprite,Background,Centre,"sb\glowing particle thats mean to be snow.png",0,0 V,0,0,500,0.02,0.02 F,0,32567,73710,0.5 C,0,67090,,255,165,0 M,0,67090,70590,66,500,-84,-100 F,0,67090,70590,0.5
Sprite,Background,Centre,"sb\glowing particle thats mean to be snow.png",0,0 V,0,0,500,0.02,0.02 F,0,32567,73710,0.5 C,0,67138,,255,165,0 M,0,67138,70638,5,500,-145,-100 F,0,67138,70638,0.5
Sprite,Background,Centre,"sb\glowing particle thats mean to be snow.png",0,0 V,0,0,500,0.02,0.02 F,0,32567,73710,0.5 C,0,67186,,242,132,86 M,0,67186,70686,344,500,194,-100 F,0,67186,70686,0.5
Sprite,Background,Centre,"sb\glowing particle thats mean to be snow.png",0,0 V,0,0,500,0.02,0.02 F,0,32567,73710,0.5 C,0,67233,,242,132,86 M,0,67233,70733,725,500,575,-100 F,0,67233,70733,0.5
Sprite,Background,Centre,"sb\glowing particle thats mean to be snow.png",0,0 V,0,0,500,0.02,0.02 F,0,32567,73710,0.5 C,0,67281,,255,165,0 M,0,67281,70781,273,500,123,-100 F,0,67281,70781,0.5
Sprite,Background,Centre,"sb\glowing particle thats mean to be snow.png",0,0 V,0,0,500,0.02,0.02 F,0,32567,73710,0.5 C,0,67328,,242,132,86 M,0,67328,70828,197,500,47,-100 F,0,67328,70828,0.5
Sprite,Background,Centre,"sb\glowing particle thats mean to be snow.png",0,0 V,0,0,500,0.02,0.02 F,0,32567,73710,0.5 C,0,67376,,242,132,86 M,0,67376,70876,405,500,255,-100 F,0,67376,70876,0.5
Sprite,Background,Centre,"sb\glowing particle thats mean to be snow.png",0,0 V,0,0,500,0.02,0.02 F,0,32567,73710,0.5 C,0,67424,,242,132,86 M,0,67424,70924,264,500,114,-100 F,0,67424,70924,0.5
Sprite,Background,Centre,"sb\glowing particle thats mean to be snow.png",0,0 V,0,0,500,0.02,0.02 F,0,32567,73710,0.5 C,0,67471,,255,165,0 M,0,67471,70971,503,500,353,-100 F,0,67471,70971,0.5
Sprite,Background,Centre,"sb\glowing particle thats mean to be snow.png",0,0 V,0,0,500,0.02,0.02 F,0,32567,73710,0.5 C,0,67519,,255,165,0 M,0,67519,71019,124,500,-26,-100 F,0,67519,71019,0.5
Sprite,Background,Centre,"sb\glowing particle thats mean to be snow.png",0,0 V,0,0,500,0.02,0.02 F,0,32567,73710,0.5 C,0,67566,,242,132,86 M,0,67566,71066,684,500,534,-100 F,0,67566,71066,0.5
Sprite,Background,Centre,"sb\glowing particle thats mean to be snow.png",0,0 V,0,0,500,0.02,0.02 F,0,32567,73710,0.5 C,0,67614,,255,165,0 M,0,67614,71114,472,500,322,-100 F,0,67614,71114,0.5
Sprite,Background,Centre,"sb\glowing particle thats mean to be snow.png",0,0 V,0,0,500,0.02,0.02 F,0,32567,73710,0.5 C,0,67662,,255,165,0 M,0,67662,71162,347,500,197,-100 F,0,67662,71162,0.5
Sprite,Background,Centre,"sb\glowing particle thats mean to be snow.png",0,0 V,0,0,500,0.02,0.02 F,0,32567,73710,0.5 C,0,67709,,242,132,86 M,0,67709,71209,467,500,317,-100 F,0,67709,71209,0.5
Sprite,Background,Centre,"sb\glowing particle thats mean to be snow.png",0,0 V,0,0,500,0.02,0.02 F,0,32567,73710,0.5 C,0,67757,,242,132,86 M,0,67757,71257,525,500,375,-100 F,0,67757,71257,0.5
Sprite,Background,Centre,"sb\glowing particle thats mean to be snow.png",0,0 V,0,0,500,0.02,0.02 F,0,32567,73710,0.5 C,0,67805,,242,132,86 M,0,67805,71305,-44,500,-194,-100 F,0,67805,71305,0.5
Sprite,Background,Centre,"sb\glowing particle thats mean to be snow.png",0,0 V,0,0,500,0.02,0.02 F,0,32567,73710,0.5 C,0,67852,,242,132,86 M,0,67852,71352,-26,500,-176,-100 F,0,67852,71352,0.5
Sprite,Background,Centre,"sb\glowing particle thats mean to be snow.png",0,0 V,0,0,500,0.02,0.02 F,0,32567,73710,0.5 C,0,67900,,242,132,86 M,0,67900,71400,51,500,-99,-100 F,0,67900,71400,0.5
Sprite,Background,Centre,"sb\glowing particle thats mean to be snow.png",0,0 V,0,0,500,0.02,0.02 F,0,32567,73710,0.5 C,0,67947,,255,165,0 M,0,67947,71447,177,500,27,-100 F,0,67947,71447,0.5
Sprite,Background,Centre,"sb\glowing particle thats mean to be snow.png",0,0 V,0,0,500,0.02,0.02 F,0,32567,73710,0.5 C,0,67995,,242,132,86 M,0,67995,71495,653,500,503,-100 F,0,67995,71495,0.5
Sprite,Background,Centre,"sb\glowing particle thats mean to be snow.png",0,0 V,0,0,500,0.02,0.02 F,0,32567,73710,0.5 C,0,68043,,242,132,86 M,0,68043,71543,160,500,10,-100 F,0,68043,71543,0.5
Sprite,Background,Centre,"sb\glowing particle thats mean to be snow.png",0,0 V,0,0,500,0.02,0.02 F,0,32567,73710,0.5 C,0,68090,,255,165,0 M,0,68090,71590,706,500,556,-100 F,0,68090,71590,0.5
Sprite,Background,Centre,"sb\glowing particle thats mean to be snow.png",0,0 V,0,0,500,0.02,0.02 F,0,32567,73710,0.5 C,0,68138,,242,132,86 M,0,68138,71638,321,500,171,-100 F,0,68138,71638,0.5
Sprite,Background,Centre,"sb\glowing particle thats mean to be snow.png",0,0 V,0,0,500,0.02,0.02 F,0,32567,73710,0.5 C,0,68186,,255,165,0 M,0,68186,71686,458,500,308,-100 F,0,68186,71686,0.5
Sprite,Background,Centre,"sb\glowing particle thats mean to be snow.png",0,0 V,0,0,500,0.02,0.02 F,0,32567,73710,0.5 C,0,68233,,255,165,0 M,0,68233,71733,442,500,292,-100 F,0,68233,71733,0.5
Sprite,Background,Centre,"sb\glowing particle thats mean to be snow.png",0,0 V,0,0,500,0.02,0.02 F,0,32567,73710,0.5 C,0,68281,,255,165,0 M,0,68281,71781,70,500,-80,-100 F,0,68281,71781,0.5
Sprite,Background,Centre,"sb\glowing particle thats mean to be snow.png",0,0 V,0,0,500,0.02,0.02 F,0,32567,73710,0.5 C,0,68328,,242,132,86 M,0,68328,71828,510,500,360,-100 F,0,68328,71828,0.5
Sprite,Background,Centre,"sb\glowing particle thats mean to be snow.png",0,0 V,0,0,500,0.02,0.02 F,0,32567,73710,0.5 C,0,68376,,242,132,86 M,0,68376,71876,534,500,384,-100 F,0,68376,71876,0.5
Sprite,Background,Centre,"sb\glowing particle thats mean to be snow.png",0,0 V,0,0,500,0.02,0.02 F,0,32567,73710,0.5 C,0,68424,,242,132,86 M,0,68424,71924,65,500,-85,-100 F,0,68424,71924,0.5
Sprite,Background,Centre,"sb\glowing particle thats mean to be snow.png",0,0 V,0,0,500,0.02,0.02 F,0,32567,73710,0.5 C,0,68471,,242,132,86 M,0,68471,71971,87,500,-63,-100 F,0,68471,71971,0.5
Sprite,Background,Centre,"sb\glowing particle thats mean to be snow.png",0,0 V,0,0,500,0.02,0.02 F,0,32567,73710,0.5 C,0,68519,,255,165,0 M,0,68519,72019,623,500,473,-100 F,0,68519,72019,0.5
Sprite,Background,Centre,"sb\glowing particle thats mean to be snow.png",0,0 V,0,0,500,0.02,0.02 F,0,32567,73710,0.5 C,0,68566,,255,165,0 M,0,68566,72066,533,500,383,-100 F,0,68566,72066,0.5
Sprite,Background,Centre,"sb\glowing particle thats mean to be snow.png",0,0 V,0,0,500,0.02,0.02 F,0,32567,73710,0.5 C,0,68614,,242,132,86 M,0,68614,72114,573,500,423,-100 F,0,68614,72114,0.5
Sprite,Background,Centre,"sb\glowing particle thats mean to be snow.png",0,0 V,0,0,500,0.02,0.02 F,0,32567,73710,0.5 C,0,68662,,255,165,0 M,0,68662,72162,220,500,70,-100 F,0,68662,72162,0.5
Sprite,Background,Centre,"sb\glowing particle thats mean to be snow.png",0,0 V,0,0,500,0.02,0.02 F,0,32567,73710,0.5 C,0,68709,,242,132,86 M,0,68709,72209,707,500,557,-100 F,0,68709,72209,0.5
Sprite,Background,Centre,"sb\glowing particle thats mean to be snow.png",0,0 V,0,0,500,0.02,0.02 F,0,32567,73710,0.5 C,0,68757,,255,165,0 M,0,68757,72257,75,500,-75,-100 F,0,68757,72257,0.5
Sprite,Background,Centre,"sb\glowing particle thats mean to be snow.png",0,0 V,0,0,500,0.02,0.02 F,0,32567,73710,0.5 C,0,68805,,255,165,0 M,0,68805,72305,493,500,343,-100 F,0,68805,72305,0.5
Sprite,Background,Centre,"sb\glowing particle thats mean to be snow.png",0,0 V,0,0,500,0.02,0.02 F,0,32567,73710,0.5 C,0,68852,,255,165,0 M,0,68852,72352,263,500,113,-100 F,0,68852,72352,0.5
Sprite,Background,Centre,"sb\glowing particle thats mean to be snow.png",0,0 V,0,0,500,0.02,0.02 F,0,32567,73710,0.5 C,0,68900,,255,165,0 M,0,68900,72400,5,500,-145,-100 F,0,68900,72400,0.5
Sprite,Background,Centre,"sb\glowing particle thats mean to be snow.png",0,0 V,0,0,500,0.02,0.02 F,0,32567,73710,0.5 C,0,68947,,242,132,86 M,0,68947,72447,80,500,-70,-100 F,0,68947,72447,0.5
Sprite,Background,Centre,"sb\glowing particle thats mean to be snow.png",0,0 V,0,0,500,0.02,0.02 F,0,32567,73710,0.5 C,0,68995,,255,165,0 M,0,68995,72495,644,500,494,-100 F,0,68995,72495,0.5
Sprite,Background,Centre,"sb\glowing particle thats mean to be snow.png",0,0 V,0,0,500,0.02,0.02 F,0,32567,73710,0.5 C,0,69043,,255,165,0 M,0,69043,72543,246,500,96,-100 F,0,69043,72543,0.5
Sprite,Background,Centre,"sb\glowing particle thats mean to be snow.png",0,0 V,0,0,500,0.02,0.02 F,0,32567,73710,0.5 C,0,69090,,242,132,86 M,0,69090,72590,115,500,-35,-100 F,0,69090,72590,0.5
Sprite,Background,Centre,"sb\glowing particle thats mean to be snow.png",0,0 V,0,0,500,0.02,0.02 F,0,32567,73710,0.5 C,0,69138,,255,165,0 M,0,69138,72638,193,500,43,-100 F,0,69138,72638,0.5
Sprite,Background,Centre,"sb\glowing particle thats mean to be snow.png",0,0 V,0,0,500,0.02,0.02 F,0,32567,73710,0.5 C,0,69186,,242,132,86 M,0,69186,72686,183,500,33,-100 F,0,69186,72686,0.5
Sprite,Background,Centre,"sb\glowing particle thats mean to be snow.png",0,0 V,0,0,500,0.02,0.02 F,0,32567,73710,0.5 C,0,69233,,255,165,0 M,0,69233,72733,734,500,584,-100 F,0,69233,72733,0.5
Sprite,Background,Centre,"sb\glowing particle thats mean to be snow.png",0,0 V,0,0,500,0.02,0.02 F,0,32567,73710,0.5 C,0,69281,,255,165,0 M,0,69281,72781,578,500,428,-100 F,0,69281,72781,0.5
Sprite,Background,Centre,"sb\glowing particle thats mean to be snow.png",0,0 V,0,0,500,0.02,0.02 F,0,32567,73710,0.5 C,0,69328,,242,132,86 M,0,69328,72828,305,500,155,-100 F,0,69328,72828,0.5
Sprite,Background,Centre,"sb\glowing particle thats mean to be snow.png",0,0 V,0,0,500,0.02,0.02 F,0,32567,73710,0.5 C,0,69376,,255,165,0 M,0,69376,72876,184,500,34,-100 F,0,69376,72876,0.5
Sprite,Background,Centre,"sb\glowing particle thats mean to be snow.png",0,0 V,0,0,500,0.02,0.02 F,0,32567,73710,0.5 C,0,69424,,242,132,86 M,0,69424,72924,742,500,592,-100 F,0,69424,72924,0.5
Sprite,Background,Centre,"sb\glowing particle thats mean to be snow.png",0,0 V,0,0,500,0.02,0.02 F,0,32567,73710,0.5 C,0,69471,,242,132,86 M,0,69471,72971,465,500,315,-100 F,0,69471,72971,0.5
Sprite,Background,Centre,"sb\glowing particle thats mean to be snow.png",0,0 V,0,0,500,0.02,0.02 F,0,32567,73710,0.5 C,0,69519,,242,132,86 M,0,69519,73019,753,500,603,-100 F,0,69519,73019,0.5
Sprite,Background,Centre,"sb\glowing particle thats mean to be snow.png",0,0 V,0,0,500,0.02,0.02 F,0,32567,73710,0.5 C,0,69566,,242,132,86 M,0,69566,73066,450,500,300,-100 F,0,69566,73066,0.5
Sprite,Background,Centre,"sb\glowing particle thats mean to be snow.png",0,0 V,0,0,500,0.02,0.02 F,0,32567,73710,0.5 C,0,69614,,255,165,0 M,0,69614,73114,-73,500,-223,-100 F,0,69614,73114,0.5
Sprite,Background,Centre,"sb\glowing particle thats mean to be snow.png",0,0 V,0,0,500,0.02,0.02 F,0,32567,73710,0.5 C,0,69662,,255,165,0 M,0,69662,73162,-25,500,-175,-100 F,0,69662,73162,0.5
Sprite,Background,Centre,"sb\glowing particle thats mean to be snow.png",0,0 V,0,0,500,0.02,0.02 F,0,32567,73710,0.5 C,0,69709,,242,132,86 M,0,69709,73209,-70,500,-220,-100 F,0,69709,73209,0.5
Sprite,Background,Centre,"sb\glowing particle thats mean to be snow.png",0,0 V,0,0,500,0.02,0.02 F,0,32567,73710,0.5 C,0,69757,,255,165,0 M,0,69757,73257,102,500,-48,-100 F,0,69757,73257,0.5
Sprite,Background,Centre,"sb\glowing particle thats mean to be snow.png",0,0 V,0,0,500,0.02,0.02 F,0,32567,73710,0.5 C,0,69805,,242,132,86 M,0,69805,73305,26,500,-124,-100 F,0,69805,73305,0.5
Sprite,Background,Centre,"sb\glowing particle thats mean to be snow.png",0,0 V,0,0,500,0.02,0.02 F,0,32567,73710,0.5 C,0,69852,,255,165,0 M,0,69852,73352,370,500,220,-100 F,0,69852,73352,0.5
Sprite,Background,Centre,"sb\glowing particle thats mean to be snow.png",0,0 V,0,0,500,0.02,0.02 F,0,32567,73710,0.5 C,0,69900,,242,132,86 M,0,69900,73400,551,500,401,-100 F,0,69900,73400,0.5
Sprite,Background,Centre,"sb\glowing particle thats mean to be snow.png",0,0 V,0,0,500,0.02,0.02 F,0,32567,73710,0.5 C,0,69947,,255,165,0 M,0,69947,73447,730,500,580,-100 F,0,69947,73447,0.5
Sprite,Background,Centre,"sb\glowing particle thats mean to be snow.png",0,0 V,0,0,500,0.02,0.02 F,0,32567,73710,0.5 C,0,69995,,255,165,0 M,0,69995,73495,84,500,-66,-100 F,0,69995,73495,0.5
Sprite,Background,Centre,"sb\glowing particle thats mean to be snow.png",0,0 V,0,0,500,0.02,0.02 F,0,32567,73710,0.5 C,0,70043,,242,132,86 M,0,70043,73543,159,500,9,-100 F,0,70043,73543,0.5
Sprite,Background,Centre,"sb\glowing particle thats mean to be snow.png",0,0 V,0,0,500,0.02,0.02 F,0,32567,73710,0.5 C,0,70090,,255,165,0 M,0,70090,73590,688,500,538,-100 F,0,70090,73590,0.5
Sprite,Background,Centre,"sb\glowing particle thats mean to be snow.png",0,0 V,0,0,500,0.02,0.02 F,0,32567,73710,0.5 C,0,70138,,242,132,86 M,0,70138,73638,319,500,169,-100 F,0,70138,73638,0.5
Sprite,Background,Centre,"sb\glowing particle thats mean to be snow.png",0,0 V,0,0,500,0.02,0.02 F,0,32567,73710,0.5 C,0,70186,,242,132,86 M,0,70186,73686,362,500,212,-100 F,0,70186,73686,0.5
Sprite,Background,Centre,"sb\glowing particle thats mean to be snow.png",0,0 V,0,0,500,0.02,0.02 F,0,32567,73710,0.5 C,0,70233,,242,132,86 M,0,70233,73733,693,500,543,-100 F,0,70233,73733,0.5
Sprite,Background,Centre,"sb\glowing particle thats mean to be snow.png",0,0 V,0,0,500,0.02,0.02 F,0,32567,73710,0.5 C,0,70281,,255,165,0 M,0,70281,73781,626,500,476,-100 F,0,70281,73781,0.5
Sprite,Background,Centre,"sb\glowing particle thats mean to be snow.png",0,0 V,0,0,500,0.02,0.02 F,0,32567,73710,0.5 C,0,70328,,242,132,86 M,0,70328,73828,532,500,382,-100 F,0,70328,73828,0.5
Sprite,Background,Centre,"sb\glowing particle thats mean to be snow.png",0,0 V,0,0,500,0.02,0.02 F,0,32567,73710,0.5 C,0,70376,,255,165,0 M,0,70376,73876,129,500,-21,-100 F,0,70376,73876,0.5
Sprite,Background,Centre,"sb\glowing particle thats mean to be snow.png",0,0 V,0,0,500,0.02,0.02 F,0,32567,73710,0.5 C,0,70424,,255,165,0 M,0,70424,73924,187,500,37,-100 F,0,70424,73924,0.5
Sprite,Background,Centre,"sb\glowing particle thats mean to be snow.png",0,0 V,0,0,500,0.02,0.02 F,0,32567,73710,0.5 C,0,70471,,242,132,86 M,0,70471,73971,340,500,190,-100 F,0,70471,73971,0.5
Sprite,Background,Centre,"sb\glowing particle thats mean to be snow.png",0,0 V,0,0,500,0.02,0.02 F,0,32567,73710,0.5 C,0,70519,,255,165,0 M,0,70519,74019,-85,500,-235,-100 F,0,70519,74019,0.5
Sprite,Background,Centre,"sb\glowing particle thats mean to be snow.png",0,0 V,0,0,500,0.02,0.02 F,0,32567,73710,0.5 C,0,70566,,242,132,86 M,0,70566,74066,471,500,321,-100 F,0,70566,74066,0.5
Sprite,Background,Centre,"sb\glowing particle thats mean to be snow.png",0,0 V,0,0,500,0.02,0.02 F,0,32567,73710,0.5 C,0,70614,,242,132,86 M,0,70614,74114,534,500,384,-100 F,0,70614,74114,0.5
Sprite,Background,Centre,"sb\glowing particle thats mean to be snow.png",0,0 V,0,0,500,0.02,0.02 F,0,32567,73710,0.5 C,0,70662,,242,132,86 M,0,70662,74162,602,500,452,-100 F,0,70662,74162,0.5
Sprite,Background,Centre,"sb\glowing particle thats mean to be snow.png",0,0 V,0,0,500,0.02,0.02 F,0,32567,73710,0.5 C,0,70709,,255,165,0 M,0,70709,74209,66,500,-84,-100 F,0,70709,74209,0.5
Sprite,Background,Centre,"sb\glowing particle thats mean to be snow.png",0,0 V,0,0,500,0.02,0.02 F,0,32567,73710,0.5 C,0,70757,,255,165,0 M,0,70757,74257,96,500,-54,-100 F,0,70757,74257,0.5
Sprite,Background,Centre,"sb\glowing particle thats mean to be snow.png",0,0 V,0,0,500,0.02,0.02 F,0,32567,73710,0.5 C,0,70805,,242,132,86 M,0,70805,74305,687,500,537,-100 F,0,70805,74305,0.5
Sprite,Background,Centre,"sb\glowing particle thats mean to be snow.png",0,0 V,0,0,500,0.02,0.02 F,0,32567,73710,0.5 C,0,70852,,242,132,86 M,0,70852,74352,-32,500,-182,-100 F,0,70852,74352,0.5
Sprite,Background,Centre,"sb\glowing particle thats mean to be snow.png",0,0 V,0,0,500,0.02,0.02 F,0,32567,73710,0.5 C,0,70900,,242,132,86 M,0,70900,74400,394,500,244,-100 F,0,70900,74400,0.5
Sprite,Background,Centre,"sb\glowing particle thats mean to be snow.png",0,0 V,0,0,500,0.02,0.02 F,0,32567,73710,0.5 C,0,70947,,242,132,86 M,0,70947,74447,144,500,-6,-100 F,0,70947,74447,0.5
Sprite,Background,Centre,"sb\glowing particle thats mean to be snow.png",0,0 V,0,0,500,0.02,0.02 F,0,32567,73710,0.5 C,0,70995,,255,165,0 M,0,70995,74495,205,500,55,-100 F,0,70995,74495,0.5
Sprite,Background,Centre,"sb\glowing particle thats mean to be snow.png",0,0 V,0,0,500,0.02,0.02 F,0,32567,73710,0.5 C,0,71043,,242,132,86 M,0,71043,74543,214,500,64,-100 F,0,71043,74543,0.5
Sprite,Background,Centre,"sb\glowing particle thats mean to be snow.png",0,0 V,0,0,500,0.02,0.02 F,0,32567,73710,0.5 C,0,71090,,242,132,86 M,0,71090,74590,648,500,498,-100 F,0,71090,74590,0.5
Sprite,Background,Centre,"sb\glowing particle thats mean to be snow.png",0,0 V,0,0,500,0.02,0.02 F,0,32567,73710,0.5 C,0,71138,,242,132,86 M,0,71138,74638,233,500,83,-100 F,0,71138,74638,0.5
Sprite,Background,Centre,"sb\glowing particle thats mean to be snow.png",0,0 V,0,0,500,0.02,0.02 F,0,32567,73710,0.5 C,0,71186,,255,165,0 M,0,71186,74686,404,500,254,-100 F,0,71186,74686,0.5
Sprite,Background,Centre,"sb\glowing particle thats mean to be snow.png",0,0 V,0,0,500,0.02,0.02 F,0,32567,73710,0.5 C,0,71233,,242,132,86 M,0,71233,74733,0,500,-150,-100 F,0,71233,74733,0.5
Sprite,Background,Centre,"sb\glowing particle thats mean to be snow.png",0,0 V,0,0,500,0.02,0.02 F,0,32567,73710,0.5 C,0,71281,,255,165,0 M,0,71281,74781,144,500,-6,-100 F,0,71281,74781,0.5
Sprite,Background,Centre,"sb\glowing particle thats mean to be snow.png",0,0 V,0,0,500,0.02,0.02 F,0,32567,73710,0.5 C,0,71328,,255,165,0 M,0,71328,74828,676,500,526,-100 F,0,71328,74828,0.5
Sprite,Background,Centre,"sb\glowing particle thats mean to be snow.png",0,0 V,0,0,500,0.02,0.02 F,0,32567,73710,0.5 C,0,71376,,255,165,0 M,0,71376,74876,459,500,309,-100 F,0,71376,74876,0.5
Sprite,Background,Centre,"sb\glowing particle thats mean to be snow.png",0,0 V,0,0,500,0.02,0.02 F,0,32567,73710,0.5 C,0,71424,,242,132,86 M,0,71424,74924,-23,500,-173,-100 F,0,71424,74924,0.5
Sprite,Background,Centre,"sb\glowing particle thats mean to be snow.png",0,0 V,0,0,500,0.02,0.02 F,0,32567,73710,0.5 C,0,71471,,242,132,86 M,0,71471,74971,116,500,-34,-100 F,0,71471,74971,0.5
Sprite,Background,Centre,"sb\glowing particle thats mean to be snow.png",0,0 V,0,0,500,0.02,0.02 F,0,32567,73710,0.5 C,0,71519,,242,132,86 M,0,71519,75019,749,500,599,-100 F,0,71519,75019,0.5
Sprite,Background,Centre,"sb\glowing particle thats mean to be snow.png",0,0 V,0,0,500,0.02,0.02 F,0,32567,73710,0.5 C,0,71566,,255,165,0 M,0,71566,75066,587,500,437,-100 F,0,71566,75066,0.5
Sprite,Background,Centre,"sb\glowing particle thats mean to be snow.png",0,0 V,0,0,500,0.02,0.02 F,0,32567,73710,0.5 C,0,71614,,255,165,0 M,0,71614,75114,615,500,465,-100 F,0,71614,75114,0.5
Sprite,Background,Centre,"sb\glowing particle thats mean to be snow.png",0,0 V,0,0,500,0.02,0.02 F,0,32567,73710,0.5 C,0,71662,,255,165,0 M,0,71662,75162,729,500,579,-100 F,0,71662,75162,0.5
Sprite,Background,Centre,"sb\glowing particle thats mean to be snow.png",0,0 V,0,0,500,0.02,0.02 F,0,32567,73710,0.5 C,0,71709,,242,132,86 M,0,71709,75209,68,500,-82,-100 F,0,71709,75209,0.5
Sprite,Background,Centre,"sb\glowing particle thats mean to be snow.png",0,0 V,0,0,500,0.02,0.02 F,0,32567,73710,0.5 C,0,71757,,242,132,86 M,0,71757,75257,164,500,14,-100 F,0,71757,75257,0.5
Sprite,Background,Centre,"sb\glowing particle thats mean to be snow.png",0,0 V,0,0,500,0.02,0.02 F,0,32567,73710,0.5 C,0,71805,,242,132,86 M,0,71805,75305,-10,500,-160,-100 F,0,71805,75305,0.5
Sprite,Background,Centre,"sb\glowing particle thats mean to be snow.png",0,0 V,0,0,500,0.02,0.02 F,0,32567,73710,0.5 C,0,71852,,242,132,86 M,0,71852,75352,191,500,41,-100 F,0,71852,75352,0.5
Sprite,Background,Centre,"sb\glowing particle thats mean to be snow.png",0,0 V,0,0,500,0.02,0.02 F,0,32567,73710,0.5 C,0,71900,,242,132,86 M,0,71900,75400,84,500,-66,-100 F,0,71900,75400,0.5
Sprite,Background,Centre,"sb\glowing particle thats mean to be snow.png",0,0 V,0,0,500,0.02,0.02 F,0,32567,73710,0.5 C,0,71947,,242,132,86 M,0,71947,75447,735,500,585,-100 F,0,71947,75447,0.5
Sprite,Background,Centre,"sb\glowing particle thats mean to be snow.png",0,0 V,0,0,500,0.02,0.02 F,0,32567,73710,0.5 C,0,71995,,242,132,86 M,0,71995,75495,675,500,525,-100 F,0,71995,75495,0.5
Sprite,Background,Centre,"sb\glowing particle thats mean to be snow.png",0,0 V,0,0,500,0.02,0.02 F,0,32567,73710,0.5 C,0,72043,,255,165,0 M,0,72043,75543,284,500,134,-100 F,0,72043,75543,0.5
Sprite,Background,Centre,"sb\glowing particle thats mean to be snow.png",0,0 V,0,0,500,0.02,0.02 F,0,32567,73710,0.5 C,0,72090,,242,132,86 M,0,72090,75590,415,500,265,-100 F,0,72090,75590,0.5
Sprite,Background,Centre,"sb\glowing particle thats mean to be snow.png",0,0 V,0,0,500,0.02,0.02 F,0,32567,73710,0.5 C,0,72138,,242,132,86 M,0,72138,75638,65,500,-85,-100 F,0,72138,75638,0.5
Sprite,Background,Centre,"sb\glowing particle thats mean to be snow.png",0,0 V,0,0,500,0.02,0.02 F,0,32567,73710,0.5 C,0,72186,,255,165,0 M,0,72186,75686,488,500,338,-100 F,0,72186,75686,0.5
Sprite,Background,Centre,"sb\glowing particle thats mean to be snow.png",0,0 V,0,0,500,0.02,0.02 F,0,32567,73710,0.5 C,0,72233,,242,132,86 M,0,72233,75733,18,500,-132,-100 F,0,72233,75733,0.5
Sprite,Background,Centre,"sb\glowing particle thats mean to be snow.png",0,0 V,0,0,500,0.02,0.02 F,0,32567,73710,0.5 C,0,72281,,242,132,86 M,0,72281,75781,568,500,418,-100 F,0,72281,75781,0.5
Sprite,Background,Centre,"sb\glowing particle thats mean to be snow.png",0,0 V,0,0,500,0.02,0.02 F,0,32567,73710,0.5 C,0,72328,,255,165,0 M,0,72328,75828,644,500,494,-100 F,0,72328,75828,0.5
Sprite,Background,Centre,"sb\glowing particle thats mean to be snow.png",0,0 V,0,0,500,0.02,0.02 F,0,32567,73710,0.5 C,0,72376,,255,165,0 M,0,72376,75876,261,500,111,-100 F,0,72376,75876,0.5
Sprite,Background,Centre,"sb\glowing particle thats mean to be snow.png",0,0 V,0,0,500,0.02,0.02 F,0,32567,73710,0.5 C,0,72424,,255,165,0 M,0,72424,75924,388,500,238,-100 F,0,72424,75924,0.5
Sprite,Background,Centre,"sb\glowing particle thats mean to be snow.png",0,0 V,0,0,500,0.02,0.02 F,0,32567,73710,0.5 C,0,72471,,255,165,0 M,0,72471,75971,372,500,222,-100 F,0,72471,75971,0.5
Sprite,Background,Centre,"sb\glowing particle thats mean to be snow.png",0,0 V,0,0,500,0.02,0.02 F,0,32567,73710,0.5 C,0,72519,,255,165,0 M,0,72519,76019,601,500,451,-100 F,0,72519,76019,0.5
Sprite,Background,Centre,"sb\glowing particle thats mean to be snow.png",0,0 V,0,0,500,0.02,0.02 F,0,32567,73710,0.5 C,0,72566,,255,165,0 M,0,72566,76066,-14,500,-164,-100 F,0,72566,76066,0.5
Sprite,Background,Centre,"sb\glowing particle thats mean to be snow.png",0,0 V,0,0,500,0.02,0.02 F,0,32567,73710,0.5 C,0,72614,,255,165,0 M,0,72614,76114,477,500,327,-100 F,0,72614,76114,0.5
Sprite,Background,Centre,"sb\glowing particle thats mean to be snow.png",0,0 V,0,0,500,0.02,0.02 F,0,32567,73710,0.5 C,0,72662,,242,132,86 M,0,72662,76162,142,500,-8,-100 F,0,72662,76162,0.5
Sprite,Background,Centre,"sb\glowing particle thats mean to be snow.png",0,0 V,0,0,500,0.02,0.02 F,0,32567,73710,0.5 C,0,72709,,255,165,0 M,0,72709,76209,450,500,300,-100 F,0,72709,76209,0.5
Sprite,Background,Centre,"sb\glowing particle thats mean to be snow.png",0,0 V,0,0,500,0.02,0.02 F,0,32567,73710,0.5 C,0,72757,,255,165,0 M,0,72757,76257,45,500,-105,-100 F,0,72757,76257,0.5
Sprite,Background,Centre,"sb\glowing particle thats mean to be snow.png",0,0 V,0,0,500,0.02,0.02 F,0,32567,73710,0.5 C,0,72805,,255,165,0 M,0,72805,76305,36,500,-114,-100 F,0,72805,76305,0.5
Sprite,Background,Centre,"sb\glowing particle thats mean to be snow.png",0,0 V,0,0,500,0.02,0.02 F,0,32567,73710,0.5 C,0,72852,,255,165,0 M,0,72852,76352,705,500,555,-100 F,0,72852,76352,0.5
Sprite,Background,Centre,"sb\glowing particle thats mean to be snow.png",0,0 V,0,0,500,0.02,0.02 F,0,32567,73710,0.5 C,0,72900,,255,165,0 M,0,72900,76400,230,500,80,-100 F,0,72900,76400,0.5
Sprite,Background,Centre,"sb\glowing particle thats mean to be snow.png",0,0 V,0,0,500,0.02,0.02 F,0,32567,73710,0.5 C,0,72947,,242,132,86 M,0,72947,76447,305,500,155,-100 F,0,72947,76447,0.5
Sprite,Background,Centre,"sb\glowing particle thats mean to be snow.png",0,0 V,0,0,500,0.02,0.02 F,0,32567,73710,0.5 C,0,72995,,242,132,86 M,0,72995,76495,122,500,-28,-100 F,0,72995,76495,0.5
Sprite,Background,Centre,"sb\glowing particle thats mean to be snow.png",0,0 V,0,0,500,0.02,0.02 F,0,32567,73710,0.5 C,0,73043,,242,132,86 M,0,73043,76543,753,500,603,-100 F,0,73043,76543,0.5
Sprite,Background,Centre,"sb\glowing particle thats mean to be snow.png",0,0 V,0,0,500,0.02,0.02 F,0,32567,73710,0.5 C,0,73090,,255,165,0 M,0,73090,76590,515,500,365,-100 F,0,73090,76590,0.5
Sprite,Background,Centre,"sb\glowing particle thats mean to be snow.png",0,0 V,0,0,500,0.02,0.02 F,0,32567,73710,0.5 C,0,73138,,242,132,86 M,0,73138,76638,156,500,6,-100 F,0,73138,76638,0.5
Sprite,Background,Centre,"sb\glowing particle thats mean to be snow.png",0,0 V,0,0,500,0.02,0.02 F,0,32567,73710,0.5 C,0,73186,,242,132,86 M,0,73186,76686,-59,500,-209,-100 F,0,73186,76686,0.5
Sprite,Background,Centre,"sb\glowing particle thats mean to be snow.png",0,0 V,0,0,500,0.02,0.02 F,0,32567,73710,0.5 C,0,73233,,242,132,86 M,0,73233,76733,572,500,422,-100 F,0,73233,76733,0.5
Sprite,Background,Centre,"sb\glowing particle thats mean to be snow.png",0,0 V,0,0,500,0.02,0.02 F,0,32567,73710,0.5 C,0,73281,,242,132,86 M,0,73281,76781,557,500,407,-100 F,0,73281,76781,0.5
Sprite,Background,Centre,"sb\glowing particle thats mean to be snow.png",0,0 V,0,0,500,0.02,0.02 F,0,32567,73710,0.5 C,0,73328,,242,132,86 M,0,73328,76828,225,500,75,-100 F,0,73328,76828,0.5
Sprite,Background,Centre,"sb\glowing particle thats mean to be snow.png",0,0 V,0,0,500,0.02,0.02 F,0,32567,73710,0.5 C,0,73376,,255,165,0 M,0,73376,76876,538,500,388,-100 F,0,73376,76876,0.5
Sprite,Background,Centre,"sb\glowing particle thats mean to be snow.png",0,0 V,0,0,500,0.02,0.02 F,0,32567,73710,0.5 C,0,73424,,242,132,86 M,0,73424,76924,321,500,171,-100 F,0,73424,76924,0.5
Sprite,Background,Centre,"sb\glowing particle thats mean to be snow.png",0,0 V,0,0,500,0.02,0.02 F,0,32567,73710,0.5 C,0,73471,,242,132,86 M,0,73471,76971,73,500,-77,-100 F,0,73471,76971,0.5
Sprite,Background,Centre,"sb\glowing particle thats mean to be snow.png",0,0 V,0,0,500,0.02,0.02 F,0,32567,73710,0.5 C,0,73519,,242,132,86 M,0,73519,77019,-11,500,-161,-100 F,0,73519,77019,0.5
Sprite,Background,Centre,"sb\glowing particle thats mean to be snow.png",0,0 V,0,0,500,0.02,0.02 F,0,32567,73710,0.5 C,0,73566,,255,165,0 M,0,73566,77066,748,500,598,-100 F,0,73566,77066,0.5
Sprite,Background,Centre,"sb\glowing particle thats mean to be snow.png",0,0 V,0,0,500,0.02,0.02 F,0,32567,73710,0.5 C,0,73614,,242,132,86 M,0,73614,77114,36,500,-114,-100 F,0,73614,77114,0.5
Sprite,Background,Centre,"sb\glowing particle thats mean to be snow.png",0,0 V,0,0,500,0.02,0.02 F,0,32567,73710,0.5 C,0,73662,,242,132,86 M,0,73662,77162,-50,500,-200,-100 F,0,73662,77162,0.5
Sprite,Background,Centre,"sb\glowing particle thats mean to be snow.png",0,0 V,0,0,500,0.02,0.02 F,0,32567,73710,0.5 C,0,73709,,255,165,0 M,0,73709,77209,351,500,201,-100 F,0,73709,77209,0.5
//Storyboard Layer 1 (Fail)
//Storyboard Layer 2 (Pass)
//Storyboard Layer 3 (Foreground)
//Storyboard Layer 4 (Overlay)
//Storyboard Sound Samples

[TimingPoints]
1710,857.142857142859,4,2,1,40,1,0
27424,-100,4,2,1,30,0,0
28281,-100,4,2,1,20,0,0
32567,-100,4,2,2,60,0,1
45424,-100,4,2,2,60,0,0
46281,-100,4,2,2,60,0,1
59138,-100,4,2,2,60,0,0
59995,-100,4,2,2,60,0,1
73710,-100,4,2,2,60,0,0
74567,-100,4,2,2,50,0,0
75424,-100,4,2,2,40,0,0
76281,-100,4,2,2,30,0,0
77138,-100,4,2,2,20,0,0

[Colours]
Combo1 : 255,105,79
Combo2 : 77,204,195
Combo3 : 244,132,87
Combo4 : 155,228,134

[HitObjects]
134,107,1281,6,0,L|185:105,1,40,2|2,0:0|0:0,0:0:0:0:
208,71,1710,6,0,B|288:23|288:119|368:71,1,160,6|8,0:0|0:0,0:0:0:0:
400,54,2781,2,0,P|396:33|396:15,2,40,2|2|2,0:0|0:0|0:0,0:0:0:0:
434,88,3424,2,0,P|462:172|449:246,1,160,2|8,0:0|0:0,0:0:0:0:
395,319,4710,2,0,L|344:325,1,40,2|2,0:0|0:0,0:0:0:0:
321,357,5138,6,0,P|278:370|203:352,1,120,2|2,0:0|0:0,0:0:0:0:
172,319,5995,1,8,0:0:0:0:
91,371,6424,1,2,0:0:0:0:
48,285,6852,2,0,L|59:116,1,160,2|8,0:0|0:0,0:0:0:0:
114,47,8138,2,0,P|150:43|169:47,1,40,2|2,0:0|0:0,0:0:0:0:
187,77,8567,6,0,L|313:66,1,120,2|2,0:0|0:0,0:0:0:0:
354,61,9424,1,8,0:0:0:0:
402,143,9852,1,2,0:0:0:0:
486,192,10281,2,0,P|500:257|462:345,1,160,2|8,0:0|0:0,0:0:0:0:
431,375,11352,2,0,L|374:371,1,40,2|2,0:0|0:0,0:0:0:0:
303,332,11995,6,0,P|252:344|185:323,1,120,2|2,0:0|0:0,0:0:0:0:
162,284,12852,1,8,0:0:0:0:
150,188,13281,1,2,0:0:0:0:
224,126,13710,2,0,P|298:71|285:9,1,160,2|8,0:0|0:0,0:0:0:0:
193,0,14995,2,0,L|148:6,1,40,2|2,0:0|0:0,0:0:0:0:
110,26,15424,6,0,P|91:79|104:114,1,80,6|0,0:0|0:0,0:0:0:0:
118,143,16067,1,0,0:0:0:0:
165,226,16495,2,0,L|207:229,2,40,2|2|2,0:0|0:0|0:0,0:0:0:0:
130,260,17138,2,0,L|124:344,1,80,2|0,0:0|0:0,0:0:0:0:
158,373,17781,1,0,0:0:0:0:
296,334,18424,2,0,P|300:299|298:280,1,40,2|2,0:0|0:0,0:0:0:0:
265,260,18852,6,0,L|273:173,1,80,2|0,0:0|0:0,0:0:0:0:
277,132,19495,1,0,0:0:0:0:
207,65,19924,2,0,L|160:71,2,40,2|2|2,0:0|0:0|0:0,0:0:0:0:
241,30,20567,2,0,B|321:-18|321:78|401:30,1,160,2|8,0:0|0:0,0:0:0:0:
483,203,22281,6,0,P|498:255|489:294,1,80,2|0,0:0|0:0,0:0:0:0:
460,313,22924,2,0,L|373:323,1,80,2|0,0:0|0:0,0:0:0:0:
335,304,23567,1,2,0:0:0:0:
254,356,23995,2,0,P|186:357|128:282,1,160,2|8,0:0|0:0,0:0:0:0:
143,245,25067,2,0,P|145:215|143:192,1,40,2|2,0:0|0:0,0:0:0:0:
100,119,25710,6,0,L|218:107,1,120,2|2,0:0|0:0,0:0:0:0:
253,72,26567,1,8,0:0:0:0:
336,24,26995,1,2,0:0:0:0:
393,101,27424,2,0,P|376:152|431:241,1,160,2|8,0:0|0:0,0:0:0:0:
200,22,32567,6,0,B|112:17|143:86|46:69,2,160,6|8|0,3:2|0:0|0:0,0:0:0:0:
242,45,34495,2,0,P|238:94|227:131,1,80,0|0,3:0|0:0,0:0:0:0:
203,163,35138,1,10,0:0:0:0:
299,160,35567,1,2,0:0:0:0:
378,214,35995,5,0,3:2:0:0:
467,177,36424,2,0,L|466:216,1,40,2|2,0:0|0:0,0:0:0:0:
463,264,36852,2,0,P|368:262|296:300,1,160,10|0,0:0|0:0,0:0:0:0:
267,309,37924,2,0,P|205:311|178:300,1,80,0|0,3:0|0:0,0:0:0:0:
171,260,38567,1,8,0:0:0:0:
226,181,38995,2,0,L|229:124,1,40,2|2,0:0|0:0,0:0:0:0:
262,107,39424,6,0,B|342:59|342:155|422:107,2,160,2|8|0,3:2|0:0|0:0,0:0:0:0:
228,141,41352,2,0,L|235:232,1,80,0|0,3:0|0:0,0:0:0:0:
217,265,41995,2,0,P|184:286|137:275,1,80,10|0,0:0|0:0,0:0:0:0:
111,245,42638,1,2,0:0:0:0:
111,245,42852,6,0,L|121:79,2,160,2|8|0,3:2|0:0|0:0,0:0:0:0:
123,291,44781,2,0,P|120:343|105:376,1,80,0|0,3:0|0:0,0:0:0:0:
62,380,45424,1,10,0:0:0:0:
226,280,46281,6,0,P|314:291|348:368,2,160,6|8|0,3:2|0:0|0:0,0:0:0:0:
186,307,48210,2,0,P|177:269|182:225,1,80,0|0,3:0|0:0,0:0:0:0:
214,194,48852,1,10,0:0:0:0:
133,141,49281,1,2,0:0:0:0:
151,46,49710,5,0,3:2:0:0:
229,100,50138,2,0,P|260:101|271:100,1,40,2|2,0:0|0:0,0:0:0:0:
302,66,50567,2,0,P|372:56|455:110,1,160,10|0,0:0|0:0,0:0:0:0:
473,138,51638,2,0,P|477:176|461:227,1,80,0|0,3:0|0:0,0:0:0:0:
430,247,52281,1,8,0:0:0:0:
400,338,52710,2,0,L|357:331,1,40,2|2,0:0|0:0,0:0:0:0:
326,365,53138,6,0,B|246:413|246:317|166:365,2,160,2|8|0,3:2|0:0|0:0,0:0:0:0:
360,331,55067,2,0,P|368:296|354:246,1,80,0|0,3:0|0:0,0:0:0:0:
324,219,55710,2,0,L|231:214,1,80,10|0,0:0|0:0,0:0:0:0:
212,178,56352,1,2,0:0:0:0:
212,178,56567,6,0,P|214:96|140:50,2,160,2|8|0,3:2|0:0|0:0,0:0:0:0:
175,208,58495,1,0,3:0:0:0:
313,167,59138,2,0,P|357:228|342:278,1,120,10|2,0:0|0:0,0:0:0:0:
316,303,59995,6,0,B|236:351|236:255|156:303,1,160,6|8,3:2|0:0,0:0:0:0:
47,215,61495,2,0,L|54:122,1,80,0|0,3:0|0:0,0:0:0:0:
28,93,62138,1,0,3:0:0:0:
104,35,62567,2,0,P|146:35|190:64,1,80,10|0,0:0|0:0,0:0:0:0:
211,87,63210,1,2,0:0:0:0:
211,87,63424,6,0,P|266:88|325:49,1,120,2|0,3:2|0:0,0:0:0:0:
357,23,64281,2,2,B|299:119|414:119|357:215,1,200,2|0,0:0|3:0,0:0:0:0:
312,338,65995,2,0,L|211:343,1,80,10|0,0:0|0:0,0:0:0:0:
198,376,66638,1,2,0:0:0:0:
198,376,66852,6,0,P|180:289|104:264,1,160,2|8,3:2|0:0,0:0:0:0:
50,137,68352,2,0,L|140:127,1,80,0|0,3:0|0:0,0:0:0:0:
163,94,68995,1,0,3:0:0:0:
230,26,69424,2,0,P|283:59|314:50,1,80,10|0,0:0|0:0,0:0:0:0:
330,24,70067,1,2,0:0:0:0:
330,24,70281,6,2,L|325:206,1,160,2|8,3:2|0:0,0:0:0:0:
371,268,71567,1,2,0:0:0:0:
254,351,72210,2,0,P|202:342|173:316,1,80,0|0,3:0|0:0,0:0:0:0:
147,292,72852,2,0,L|158:207,1,80,8|0,0:0|0:0,0:0:0:0:
256,192,73710,12,0,77138,3:0:0:0:
